<?xml version="1.0" standalone="no"?>
<!DOCTYPE svg PUBLIC "-//W3C//DTD SVG 1.1//EN" "http://www.w3.org/Graphics/SVG/1.1/DTD/svg11.dtd" >
<svg>
<metadata>
Created by FontForge 20090914 at Mon Mar  6 23:10:14 2017
 By www-data
Copyright (c) 2011 by EdgarTolentino, PabloImpallari, IginoMarini. All rights reserved.
</metadata>
<defs>
<font id="Dosis-ExtraBold" horiz-adv-x="496" >
  <font-face 
    font-family="Dosis"
    font-weight="800"
    font-stretch="normal"
    units-per-em="1000"
    panose-1="2 1 9 3 2 2 2 6 0 3"
    ascent="800"
    descent="-200"
    x-height="475.999"
    cap-height="731"
    bbox="-130 -237 1132 1008"
    underline-thickness="26"
    underline-position="-25"
    unicode-range="U+000D-U+FB02"
  />
<missing-glyph horiz-adv-x="408" 
d="M30 63c0 12 3.33301 22.667 10 32l96 141l-96 141c-6.66699 9.33301 -10 20 -10 32c0 15.333 6.33301 28.166 19 38.499s27 15.5 43 15.5c18.667 0 33.334 -7.66699 44.001 -23l68 -115l68 115c10.667 15.333 25.334 23 44.001 23c16 0 30.333 -5.16699 43 -15.5
s19 -23.166 19 -38.499c0 -12 -3.33301 -22.667 -10 -32l-96 -141l96 -141c6.66699 -9.33301 10 -20 10 -32c0 -15.333 -6.33301 -28.166 -19 -38.499s-27 -15.5 -43 -15.5c-18.667 0 -33.334 7.66699 -44.001 23l-68 115l-68 -115c-10.667 -15.333 -25.334 -23 -44.001 -23
c-16 0 -30.333 5.16699 -43 15.5s-19 23.166 -19 38.499z" />
    <glyph glyph-name="uniFB01" unicode="fi" horiz-adv-x="590" 
d="M46 47v469.999c0 66 24 121 72 165s111.667 66 191 66c46 0 87.167 -7.16699 123.5 -21.5s54.5 -32.166 54.5 -53.499c0 -15.333 -4.83301 -34.333 -14.5 -57s-22.834 -34 -39.501 -34c-5.33301 0 -19.666 6 -42.999 18s-50.333 18 -81 18c-72 0 -108 -31.333 -108 -94
v-48h92c12 0 21.333 -5.5 28 -16.5s10 -23.833 10 -38.5c0 -15.333 -3.33301 -28.333 -10 -39s-16 -16 -28 -16h-92v-319c0 -13.333 -7.83301 -24.5 -23.5 -33.5s-34.167 -13.5 -55.5 -13.5c-22 -0 -40.167 4.33301 -54.5 13s-21.5 20 -21.5 34zM391 47.999v380.999
c0 14 7.16699 25.333 21.5 34s32.5 13 54.5 13c22.667 0 41.5 -4.33301 56.5 -13s22.5 -20 22.5 -34v-381c0 -12 -7.83301 -23 -23.5 -33s-34.167 -15 -55.5 -15s-39.333 4.83301 -54 14.5s-22 20.834 -22 33.501z" />
    <glyph glyph-name="uniFB02" unicode="fl" horiz-adv-x="602" 
d="M46 47l0.00195312 469.999c0 72 27.333 128.5 82 169.5s121.667 61.5 201 61.5c41.333 0 83.166 -5.33301 125.499 -16s73.5 -25.667 93.5 -45v-639c0 -12 -7.83301 -23 -23.5 -33s-34.167 -15 -55.5 -15s-39.333 4.83301 -54 14.5s-22 20.834 -22 33.501v557
c-16.667 9.33301 -40.334 14 -71.001 14c-32.667 0 -61 -8.16699 -85 -24.5s-36 -39.833 -36 -70.5v-48h92c12 0 21.333 -5.5 28 -16.5s10 -23.833 10 -38.5c0 -15.333 -3.33301 -28.333 -10 -39s-16 -16 -28 -16h-92v-319c0 -13.333 -7.83301 -24.5 -23.5 -33.5
s-34.167 -13.5 -55.5 -13.5c-22 -0 -40.167 4.33301 -54.5 13s-21.5 20 -21.5 34z" />
    <glyph glyph-name=".notdef" horiz-adv-x="408" 
d="M30 63c0 12 3.33301 22.667 10 32l96 141l-96 141c-6.66699 9.33301 -10 20 -10 32c0 15.333 6.33301 28.166 19 38.499s27 15.5 43 15.5c18.667 0 33.334 -7.66699 44.001 -23l68 -115l68 115c10.667 15.333 25.334 23 44.001 23c16 0 30.333 -5.16699 43 -15.5
s19 -23.166 19 -38.499c0 -12 -3.33301 -22.667 -10 -32l-96 -141l96 -141c6.66699 -9.33301 10 -20 10 -32c0 -15.333 -6.33301 -28.166 -19 -38.499s-27 -15.5 -43 -15.5c-18.667 0 -33.334 7.66699 -44.001 23l-68 115l-68 -115c-10.667 -15.333 -25.334 -23 -44.001 -23
c-16 0 -30.333 5.16699 -43 15.5s-19 23.166 -19 38.499z" />
    <glyph glyph-name="NULL" horiz-adv-x="0" 
 />
    <glyph glyph-name="NULL" horiz-adv-x="0" 
 />
    <glyph glyph-name="uni000D" unicode="&#xd;" horiz-adv-x="0" 
 />
    <glyph glyph-name="space" unicode=" " horiz-adv-x="200" 
 />
    <glyph glyph-name="exclam" unicode="!" horiz-adv-x="229" 
d="M39 71c0 21.333 7.33301 39.5 22 54.5s33 22.5 55 22.5c20.667 0 38.5 -7.66699 53.5 -23s22.5 -33.333 22.5 -54s-7.5 -38.667 -22.5 -54s-32.833 -23 -53.5 -23c-21.333 0 -39.5 7.66699 -54.5 23s-22.5 33.333 -22.5 54zM42 670c0 18.667 6.83203 33.5 20.499 44.5
s31.167 16.5 52.5 16.5c20.667 0 37.834 -5.5 51.501 -16.5s20.5 -25.833 20.5 -44.5c0 -40 -2.33301 -108.333 -7 -205s-7 -164.667 -7 -204c0 -14 -6.16699 -24.833 -18.5 -32.5s-25.5 -11.5 -39.5 -11.5c-39.333 0 -59 14.667 -59 44c0 39.333 -2.33301 107.333 -7 204
s-7 165 -7 205z" />
    <glyph glyph-name="quotedbl" unicode="&#x22;" horiz-adv-x="315" 
d="M23 731c0 10.667 5.33301 19.5 16 26.5s23.334 10.5 38.001 10.5s27.5 -3.5 38.5 -10.5s16.5 -15.833 16.5 -26.5l-10 -134c0 -10.667 -3.83301 -19.667 -11.5 -27s-18.834 -11 -33.501 -11s-25.667 3.66699 -33 11s-11 16.333 -11 27zM183 731
c0 10.667 5.33301 19.5 16 26.5s23.334 10.5 38.001 10.5s27.5 -3.5 38.5 -10.5s16.5 -15.833 16.5 -26.5l-10 -134c0 -10.667 -3.83301 -19.667 -11.5 -27s-18.834 -11 -33.501 -11s-25.667 3.66699 -33 11s-11 16.333 -11 27z" />
    <glyph glyph-name="numbersign" unicode="#" horiz-adv-x="717" 
d="M21 263c0 16.667 4 30.666 12 41.999s18.333 17 31 17h92l21 108h-71c-12.667 0 -22.834 5 -30.501 15s-11.5 23.667 -11.5 41c0 16.667 4 30.667 12 42s18.333 17 31 17h93l26 136c2 9.33301 9.33301 17 22 23s27 9 43 9c20 0 36.667 -4.66699 50 -14
s20 -23.666 20 -42.999l-21 -111h103l26 136c2 9.33301 9.33301 17 22 23s27 9 43 9c19.333 0 35.833 -4.66699 49.5 -14s20.834 -23.666 21.501 -42.999l-22 -111h70c11.333 0 21.333 -5.5 30 -16.5s13 -24.5 13 -40.5c0 -16.667 -4.5 -30.5 -13.5 -41.5
s-19.167 -16.5 -30.5 -16.5h-90l-22 -108h70c11.333 0 21.5 -5.66699 30.5 -17s13.5 -24.666 13.5 -39.999c0 -16.667 -4.66699 -30.5 -14 -41.5s-19.666 -16.5 -30.999 -16.5h-91l-28 -145c-2 -9.33301 -9.16699 -17.333 -21.5 -24s-25.166 -10 -38.499 -10
c-18.667 0 -36.167 5.16699 -52.5 15.5s-24.5 24.166 -24.5 41.499l23 122h-101l-28 -145c-2 -9.33301 -9.33301 -17.333 -22 -24s-25.334 -10 -38.001 -10c-18.667 0 -36 5.16699 -52 15.5s-24 24.166 -24 41.499l22 122h-70c-12.667 0 -22.834 5.16699 -30.501 15.5
s-11.5 23.833 -11.5 40.5zM297 321.999h102l21 108h-102z" />
    <glyph glyph-name="dollar" unicode="$" horiz-adv-x="541" 
d="M24 130c0 18.667 6.83203 37.3408 20.499 56.0078s29.5 28 47.5 28c12.667 0 34.334 -10.833 65.001 -32.5s59 -34.834 85 -39.501v162c-24 9.33301 -43 17 -57 23s-31.333 15.167 -52 27.5s-36.667 25 -48 38s-21.333 29.667 -30 50s-13 42.833 -13 67.5
c0 59.333 18.833 106 56.5 140s85.5 55 143.5 63v28c0 7.33301 3.66699 13.666 11 18.999s16.333 8 27 8c9.33301 0 18 -2.83301 26 -8.5s12 -11.834 12 -18.501v-25c18.667 -0.666992 37 -2.33398 55 -5.00098s37 -7 57 -13s36.167 -15 48.5 -27s18.5 -26 18.5 -42
c0 -17.333 -5.5 -35.333 -16.5 -54s-26.167 -28 -45.5 -28c-9.33301 0 -25.166 5.66699 -47.499 17s-45.5 18 -69.5 20v-146c22 -8.66699 40.667 -16.334 56 -23.001s32.666 -16.334 51.999 -29.001s34.833 -26 46.5 -40s21.667 -31.667 30 -53s12.5 -45 12.5 -71
c0 -60.667 -17.833 -109.667 -53.5 -147s-83.5 -61 -143.5 -71v-29c0 -6.66699 -4 -12.834 -12 -18.501s-16.667 -8.5 -26 -8.5c-10.667 0 -19.667 2.66699 -27 8s-11 11.666 -11 18.999v25c-59.333 2 -110.5 16 -153.5 42s-64.5 55.333 -64.5 88zM187.999 525.007
c0 -24 21.333 -44.999 64 -62.999v119c-42.667 -8.66699 -64 -27.334 -64 -56.001zM307.999 143.008c40.667 9.33301 61 30.333 61 63c0 28 -20.333 51.667 -61 71v-134z" />
    <glyph glyph-name="percent" unicode="%" horiz-adv-x="807" 
d="M24 454v142c0 46.667 13.5 80.834 40.5 102.501s63.5 32.5 109.5 32.5c45.333 0 81.666 -10.833 108.999 -32.5s41 -55.834 41 -102.501v-142c0 -46.667 -13.667 -80.834 -41 -102.501s-63.666 -32.5 -108.999 -32.5c-46 0 -82.5 10.833 -109.5 32.5
s-40.5 55.834 -40.5 102.501zM125 454c0 -32 16.333 -48 49 -48c33.333 0 50 16 50 48v142c0 32 -16.667 48 -50 48c-32.667 0 -49 -16 -49 -48v-142zM177 7c0 6 1.66699 12.332 5 18.999l351 721c8 16.667 22 25 42 25c14.667 0 28.167 -5 40.5 -15s18.5 -22.667 18.5 -38
c0 -7.33301 -1.33301 -13.666 -4 -18.999l-352 -721c-8 -16.667 -23 -25 -45 -25c-16 0 -29.333 5.5 -40 16.5s-16 23.167 -16 36.5zM483 131.999v142c0 46.667 13.5 80.834 40.5 102.501s63.5 32.5 109.5 32.5c45.333 0 81.666 -10.833 108.999 -32.5
s41 -55.834 41 -102.501v-142c0 -46.667 -13.667 -80.834 -41 -102.501s-63.666 -32.5 -108.999 -32.5c-46 0 -82.5 10.833 -109.5 32.5s-40.5 55.834 -40.5 102.501zM584 131.999c0 -32 16.333 -48 49 -48c33.333 0 50 16 50 48v142c0 32 -16.667 48 -50 48
c-32.667 0 -49 -16 -49 -48v-142z" />
    <glyph glyph-name="ampersand" unicode="&#x26;" horiz-adv-x="655" 
d="M18 213c0 42 11.501 81.498 34.501 118.498s51.5 65.833 85.5 86.5c-43.333 48 -65 96.333 -65 145c0 56.667 21 101.667 63 135s94.667 50 158 50c59.333 0 109.166 -13.5 149.499 -40.5s60.5 -55.167 60.5 -84.5c0 -18 -7.83301 -34.5 -23.5 -49.5
s-32.5 -22.5 -50.5 -22.5c-11.333 0 -22 3.83301 -32 11.5s-18.667 16 -26 25s-17.666 17.333 -30.999 25s-28.666 11.5 -45.999 11.5c-22.667 0 -41.334 -6 -56.001 -18s-22 -28.667 -22 -50c0 -10.667 2 -21.5 6 -32.5s11 -22.833 21 -35.5l24 -30
c5.33301 -6 15.666 -16.667 30.999 -32l25 -25l144 -149c9.33301 22 14 48.167 14 78.5s4 51.333 12 63s28 17.5 60 17.5c26 0 43.5 -5.83301 52.5 -17.5s13.5 -29.5 13.5 -53.5c0 -61.333 -19.333 -122.666 -58 -183.999l76 -78c6 -6.66699 9 -15 9 -25
c0 -15.333 -7.5 -29.666 -22.5 -42.999s-31.5 -20 -49.5 -20c-13.333 0 -26 6 -38 18l-54 55c-58.667 -48.667 -127 -73 -205 -73c-76.667 0 -139.167 21.833 -187.5 65.5s-72.5 96.167 -72.5 157.5zM175.001 225.998c0 -30 10.5 -54.333 31.5 -73s50.5 -28 88.5 -28
c40 0 72.333 10.667 97 32l-167 171c-33.333 -28.667 -50 -62.667 -50 -102z" />
    <glyph glyph-name="quotesingle" unicode="'" horiz-adv-x="155" 
d="M23 731c0 10.667 5.33301 19.5 16 26.5s23.334 10.5 38.001 10.5s27.5 -3.5 38.5 -10.5s16.5 -15.833 16.5 -26.5l-10 -134c0 -10.667 -3.83301 -19.667 -11.5 -27s-18.834 -11 -33.501 -11s-25.667 3.66699 -33 11s-11 16.333 -11 27z" />
    <glyph glyph-name="parenleft" unicode="(" horiz-adv-x="358" 
d="M43 173l0.000976562 387.999c0 60.667 23.5 110.334 70.5 149.001s98.167 58 153.5 58c51.333 0 77 -22.333 77 -67c0 -20.667 -4.33301 -37.167 -13 -49.5s-20 -18.5 -34 -18.5c-30 0 -53.833 -7.33301 -71.5 -22s-26.5 -31.334 -26.5 -50.001v-388
c0 -38.667 32.667 -58 98 -58c31.333 0 47 -23 47 -69c0 -22 -5.33301 -38.5 -16 -49.5s-32.334 -16.5 -65.001 -16.5c-26 0 -51.333 3.66699 -76 11s-48 18.333 -70 33s-39.833 34.834 -53.5 60.501s-20.5 55.167 -20.5 88.5z" />
    <glyph glyph-name="parenright" unicode=")" horiz-adv-x="358" 
d="M14 46c0 46 15.668 69.001 47.001 69.001c65.333 0 98 19.333 98 58v388c0 18.667 -8.83301 35.334 -26.5 50.001s-41.5 22 -71.5 22c-14 0 -25.333 6.16699 -34 18.5s-13 28.833 -13 49.5c0 44.667 25.667 67 77 67c55.333 0 106.5 -19.333 153.5 -58
s70.5 -88.334 70.5 -149.001v-388c0 -33.333 -6.83301 -62.833 -20.5 -88.5s-31.5 -45.834 -53.5 -60.501s-45.333 -25.667 -70 -33s-50 -11 -76 -11c-32.667 0 -54.334 5.5 -65.001 16.5s-16 27.5 -16 49.5z" />
    <glyph glyph-name="asterisk" unicode="*" horiz-adv-x="491" 
d="M22 563c0 14 5.33301 26.6689 16 38.002s23.667 17 39 17c5.33301 0 10.333 -1 15 -3l105 -34l-5 102c0.666992 15.333 6 27.166 16 35.499s22.667 12.5 38 12.5c14.667 0 27 -4 37 -12s15.333 -20 16 -36l-4 -104l106 36c4.66699 2 9.66699 3 15 3
c14.667 0 27 -6.5 37 -19.5s15 -27.167 15 -42.5c0 -24.667 -11.333 -39.334 -34 -44.001l-102 -24l70 -101c5.33301 -6.66699 8 -16.334 8 -29.001c0 -15.333 -6.33301 -28.166 -19 -38.499s-26.667 -15.5 -42 -15.5c-17.333 0 -30 6.33301 -38 19l-65 100l-66 -101
c-7.33301 -12 -19 -18 -35 -18c-14 0 -28 4.83301 -42 14.5s-21 22.167 -21 37.5c0 12 4 22.667 12 32l66 94l-104 30c-22.667 4.66699 -34 21.667 -34 51z" />
    <glyph glyph-name="plus" unicode="+" horiz-adv-x="455" 
d="M20 240c0 18 4.33398 33.166 13.001 45.499s20 18.5 34 18.5h97v96c0 12.667 6.33301 23.834 19 33.501s27.667 14.5 45 14.5c18 0 33 -4.83301 45 -14.5s18 -20.834 18 -33.501v-96h96c12.667 0 23.834 -6.33301 33.501 -19s14.5 -27.667 14.5 -45
c0 -18 -4.83301 -33 -14.5 -45s-20.834 -18 -33.501 -18h-96v-97c0 -14 -5.83301 -25.333 -17.5 -34s-26.834 -13 -45.501 -13c-18 0 -33.167 4.33301 -45.5 13s-18.5 20 -18.5 34v97h-97c-14 0 -25.333 5.83301 -34 17.5s-13 26.834 -13 45.501z" />
    <glyph glyph-name="comma" unicode="," horiz-adv-x="199" 
d="M23 71c0 21.333 7.5 39.502 22.5 54.502s32.833 22.5 53.5 22.5s38.667 -7.5 54 -22.5s23 -32.833 23 -53.5c0 -10.667 -20.667 -64 -62 -160c-5.33301 -12 -15.333 -18 -30 -18c-12 0 -23.333 3.66699 -34 11s-16 16.666 -16 27.999c0 5.33301 1.33301 10.666 4 15.999
l25 54c-26.667 15.333 -40 38 -40 68z" />
    <glyph glyph-name="hyphen" unicode="-" horiz-adv-x="416" 
d="M31 240c0 18 4.33301 33.166 13 45.499s20 18.5 34 18.5h260c12.667 0 23.834 -6.33301 33.501 -19s14.5 -27.667 14.5 -45c0 -18 -4.83301 -33 -14.5 -45s-20.834 -18 -33.501 -18h-260c-14 0 -25.333 5.83301 -34 17.5s-13 26.834 -13 45.501z" />
    <glyph glyph-name="period" unicode="." horiz-adv-x="199" 
d="M23 71c0 21.333 7.33301 39.5 22 54.5s33 22.5 55 22.5c20.667 0 38.5 -7.66699 53.5 -23s22.5 -33.333 22.5 -54s-7.5 -38.667 -22.5 -54s-32.833 -23 -53.5 -23c-21.333 0 -39.5 7.66699 -54.5 23s-22.5 33.333 -22.5 54z" />
    <glyph glyph-name="slash" unicode="/" horiz-adv-x="491" 
d="M17 7c0 6 1.66699 12.332 5 18.999l351 721c8 16.667 22 25 42 25c14.667 0 28.167 -5 40.5 -15s18.5 -22.667 18.5 -38c0 -7.33301 -1.33301 -13.666 -4 -18.999l-352 -721c-8 -16.667 -23 -25 -45 -25c-16 0 -29.333 5.5 -40 16.5s-16 23.167 -16 36.5z" />
    <glyph glyph-name="zero" unicode="0" horiz-adv-x="569" 
d="M39 230v265c0 81.333 22.333 141 67 179s104 57 178 57c74.667 0 134.334 -19 179.001 -57s67 -97.667 67 -179v-265c0 -81.333 -22.333 -141 -67 -179s-104.334 -57 -179.001 -57c-74 0 -133.333 19 -178 57s-67 97.667 -67 179zM195 230c0 -66.667 29.667 -100 89 -100
c60 0 90 33.333 90 100v265c0 66.667 -30 100 -90 100c-59.333 0 -89 -33.333 -89 -100v-265zM234 362c0 15.333 4.5 27.5 13.5 36.5s21.5 13.5 37.5 13.5c15.333 0 27.5 -4.5 36.5 -13.5s13.5 -21.167 13.5 -36.5s-4.5 -27.666 -13.5 -36.999s-21.167 -14 -36.5 -14
c-16 0 -28.5 4.66699 -37.5 14s-13.5 21.666 -13.5 36.999z" />
    <glyph glyph-name="one" unicode="1" horiz-adv-x="308" 
d="M-2 593c0 24 9.66602 41.667 28.999 53l132 80c7.33301 4.66699 17 7 29 7c17.333 0 33.166 -4.66699 47.499 -14s21.5 -21 21.5 -35v-636c0 -15.333 -7.66699 -27.166 -23 -35.499s-33.666 -12.5 -54.999 -12.5s-39.666 4.16699 -54.999 12.5s-23 20.166 -23 35.499v509
l-29 -18c-8 -5.33301 -16.333 -8 -25 -8c-14 0 -25.667 6.33301 -35 19s-14 27 -14 43z" />
    <glyph glyph-name="two" unicode="2" horiz-adv-x="517" 
d="M23 48l-0.00195312 96.9961c0 28.667 10.833 57.334 32.5 86.001s47.834 54.334 78.501 77.001l92 68c31.333 22.667 57.833 46.334 79.5 71.001s32.5 48.667 32.5 72c0 18.667 -6.33301 35.167 -19 49.5s-31.667 21.5 -57 21.5c-22 0 -40 -6 -54 -18s-21 -31 -21 -57
c0 -15.333 -7.5 -28.666 -22.5 -39.999s-34.833 -17 -59.5 -17c-46.667 0 -70 27 -70 81c0 58 22.5 104.5 67.5 139.5s97.833 52.5 158.5 52.5c62 0 116.333 -18.667 163 -56s70 -87.666 70 -150.999c0 -40 -10.667 -77.667 -32 -113s-47 -65 -77 -89s-60.167 -46 -90.5 -66
s-56.166 -39.5 -77.499 -58.5s-32 -36.5 -32 -52.5v-9h262c12.667 0 23.667 -6.66699 33 -20s14 -29 14 -47s-4.66699 -34 -14 -48s-20.333 -21 -33 -21h-356c-15.333 0 -30.5 4.66699 -45.5 14s-22.5 20.666 -22.5 33.999z" />
    <glyph glyph-name="three" unicode="3" horiz-adv-x="534" 
d="M16 183c0 22 5.33398 37.002 16.001 45.002s30 12 58 12c31.333 0 52.5 -3.83301 63.5 -11.5s16.5 -21.167 16.5 -40.5c0 -38.667 29.667 -58 89 -58c34 0 57.833 6.83301 71.5 20.5s20.5 36.834 20.5 69.501v19c0 31.333 -8.16699 52.5 -24.5 63.5
s-40.166 16.5 -71.499 16.5c-30 0 -45 20 -45 60s15 60 45 60c11.333 0 20.833 0.833008 28.5 2.5s15.667 5 24 10s14.666 13.667 18.999 26s6.5 28.166 6.5 47.499c0 48 -24.667 72 -74 72c-25.333 0 -44 -3.83301 -56 -11.5s-18 -20.834 -18 -39.501
s-5.33301 -32.834 -16 -42.501s-29.667 -14.5 -57 -14.5c-34.667 0 -56.834 4.16699 -66.501 12.5s-14.5 25.166 -14.5 50.499c0 46.667 18.5 88.167 55.5 124.5s94.5 54.5 172.5 54.5c148.667 0 223 -60.333 223 -181c0 -38 -6.83301 -72 -20.5 -102
s-32.5 -50.667 -56.5 -62c68 -25.333 102 -74.333 102 -147v-19c0 -77.333 -23.167 -134.333 -69.5 -171s-107.5 -55 -183.5 -55c-78.667 0 -138 19.333 -178 58s-60 82.334 -60 131.001z" />
    <glyph glyph-name="four" unicode="4" horiz-adv-x="525" 
d="M-5 208c0 10 2.66797 19.998 8.00098 29.998l231 453c14 26.667 35.667 40 65 40c16 0 33 -5.66699 51 -17s27 -25.333 27 -42c0 -4.66699 -1.66699 -11 -5 -19l-177 -355h86v70c0 15.333 7.66699 27 23 35s33.666 12 54.999 12s39.666 -4 54.999 -12s23 -19.667 23 -35
v-70h43c15.333 0 27.166 -7.16699 35.499 -21.5s12.5 -31.166 12.5 -50.499c0 -18 -5 -34.5 -15 -49.5s-21 -22.5 -33 -22.5h-43v-106c0 -15.333 -7.66699 -27.166 -23 -35.499s-33.666 -12.5 -54.999 -12.5s-39.666 4.16699 -54.999 12.5s-23 20.166 -23 35.499v106h-234
c-15.333 0 -27.833 4.83301 -37.5 14.5s-14.5 22.834 -14.5 39.501z" />
    <glyph glyph-name="five" unicode="5" horiz-adv-x="521" 
d="M13 180c0 26 6.50391 43.998 19.5039 53.998s32.5 15 58.5 15c31.333 0 52.166 -5 62.499 -15s15.5 -24.333 15.5 -43c0 -19.333 8.16699 -34.333 24.5 -45s37.166 -16 62.499 -16c60.667 0 91 31.333 91 94v19c0 32.667 -7.83301 57.167 -23.5 73.5
s-37.5 24.5 -65.5 24.5h-152c-22 0 -37.5 5.16699 -46.5 15.5s-13.5 25.5 -13.5 45.5c0 4.66699 0.666992 14.334 2 29.001l27 252c3.33301 32 12.666 48 27.999 48h319c14 0 25 -6.66699 33 -20s12 -29.333 12 -48s-4 -34.667 -12 -48s-19 -20 -33 -20h-219l-10 -134h65
c74.667 0 134.167 -17.333 178.5 -52s66.5 -90 66.5 -166v-19c0 -78.667 -22.333 -136.667 -67 -174s-103.334 -56 -176.001 -56c-76.667 0 -137 18.333 -181 55s-66 80.334 -66 131.001z" />
    <glyph glyph-name="six" unicode="6" horiz-adv-x="562" 
d="M39 230l0.00292969 265c0 81.333 23.167 141 69.5 179s108.166 57 185.499 57s136 -19.333 176 -58s60 -82 60 -130c0 -23.333 -5.66699 -39.666 -17 -48.999s-30 -14 -56 -14c-54 0 -81 19 -81 57c0 18 -8.33301 32.167 -25 42.5s-37.334 15.5 -62.001 15.5
c-62.667 0 -94 -33.333 -94 -100v-90c26.667 29.333 68.334 44 125.001 44c63.333 0 114.166 -16.333 152.499 -49s57.5 -86.334 57.5 -161.001v-9c0 -81.333 -22.333 -141 -67 -179s-104 -57 -178 -57c-74.667 0 -134.334 19 -179.001 57s-67 97.667 -67 179zM195.003 219
c0 -66 30 -99 90 -99c59.333 0 89 33 89 99v9c0 67.333 -30 101 -90 101c-59.333 0 -89 -30.667 -89 -92v-18z" />
    <glyph glyph-name="seven" unicode="7" horiz-adv-x="512" 
d="M12 528l-0.000976562 154.999c0 12 7 23 21 33s29.667 15 47 15h355c15.333 0 30.5 -5 45.5 -15s22.5 -21 22.5 -33v-125c0 -23.333 -10.667 -55 -32 -95l-234 -448c-7.33301 -14 -22 -21 -44 -21c-25.333 0 -48.166 7.66699 -68.499 23s-30.5 34 -30.5 56
c0 8.66699 2.33301 17.334 7 26.001l246 426v70h-179v-67c0 -13.333 -8 -24.666 -24 -33.999s-34.333 -14 -55 -14c-21.333 0 -39.5 4.66699 -54.5 14s-22.5 20.666 -22.5 33.999z" />
    <glyph glyph-name="eight" unicode="8" horiz-adv-x="545" 
d="M27 200v12c0 97.333 41.333 160 124 188c-66 22.667 -99 73.667 -99 153c0 60 19.833 104.667 59.5 134s93.5 44 161.5 44s121.833 -14.667 161.5 -44s59.5 -74 59.5 -134c0 -79.333 -33 -130.333 -99 -153c82 -28 123 -90.667 123 -188v-12
c0 -70.667 -22.333 -122.667 -67 -156s-104 -50 -178 -50s-133.5 16.667 -178.5 50s-67.5 85.333 -67.5 156zM183 219c0 -66.667 30 -100 90 -100c59.333 0 89 33.333 89 100v22c0 63.333 -29.667 95 -89 95c-60 0 -90 -31.667 -90 -95v-22zM202 533
c0 -48 23.667 -72 71 -72s71 24 71 72c0 48.667 -23.667 73 -71 73s-71 -24.333 -71 -73z" />
    <glyph glyph-name="nine" unicode="9" horiz-adv-x="563" 
d="M33 182c0 23.333 5.66406 39.666 16.9971 48.999s30 14 56 14c54 0 81 -19 81 -57c0 -18 8.33301 -32.167 25 -42.5s37.334 -15.5 62.001 -15.5c62.667 0 94 33.333 94 100v90c-26.667 -29.333 -68.334 -44 -125.001 -44c-63.333 0 -114.166 16.333 -152.499 49
s-57.5 86.334 -57.5 161.001v9c0 81.333 22.333 141 67 179s104 57 178 57c74.667 0 134.334 -19 179.001 -57s67 -97.667 67 -179v-265c0 -81.333 -23.167 -141 -69.5 -179s-108.166 -57 -185.499 -57s-136 19.333 -176 58s-60 82 -60 130zM188.997 497
c0 -67.333 30 -101 90 -101c59.333 0 89 30.667 89 92v18c0 66 -30 99 -90 99c-59.333 0 -89 -33 -89 -99v-9z" />
    <glyph glyph-name="colon" unicode=":" horiz-adv-x="225" 
d="M36 71c0 21.333 7.33301 39.5 22 54.5s33 22.5 55 22.5c20.667 0 38.5 -7.66699 53.5 -23s22.5 -33.333 22.5 -54s-7.5 -38.667 -22.5 -54s-32.833 -23 -53.5 -23c-21.333 0 -39.5 7.66699 -54.5 23s-22.5 33.333 -22.5 54zM36 345c0 21.333 7.33301 39.5 22 54.5
s33 22.5 55 22.5c20.667 0 38.5 -7.66699 53.5 -23s22.5 -33.333 22.5 -54s-7.5 -38.667 -22.5 -54s-32.833 -23 -53.5 -23c-21.333 0 -39.5 7.66699 -54.5 23s-22.5 33.333 -22.5 54z" />
    <glyph glyph-name="semicolon" unicode=";" horiz-adv-x="225" 
d="M33 71c0 21.333 7.5 39.502 22.5 54.502s32.833 22.5 53.5 22.5s38.667 -7.5 54 -22.5s23 -32.833 23 -53.5c0 -10.667 -20.667 -64 -62 -160c-5.33301 -12 -15.333 -18 -30 -18c-12 0 -23.333 3.66699 -34 11s-16 16.666 -16 27.999c0 5.33301 1.33301 10.666 4 15.999
l25 54c-26.667 15.333 -40 38 -40 68zM39 345.002c0 21.333 7.33301 39.5 22 54.5s33 22.5 55 22.5c20.667 0 38.5 -7.66699 53.5 -23s22.5 -33.333 22.5 -54s-7.5 -38.667 -22.5 -54s-32.833 -23 -53.5 -23c-21.333 0 -39.5 7.66699 -54.5 23s-22.5 33.333 -22.5 54z" />
    <glyph glyph-name="less" unicode="&#x3c;" horiz-adv-x="427" 
d="M19 277c0 24 10.333 42.667 31 56l254 165c4 3.33301 10.333 5 19 5c16 0 31.333 -7.33301 46 -22s22 -31.667 22 -51c0 -18.667 -6 -31.667 -18 -39l-176 -114l176 -114c12 -7.33301 18 -20.333 18 -39c0 -19.333 -7.33301 -36.333 -22 -51s-30 -22 -46 -22
c-8.66699 0 -15 1.66699 -19 5l-254 165c-20.667 13.333 -31 32 -31 56z" />
    <glyph glyph-name="equal" unicode="=" horiz-adv-x="448" 
d="M47 135c0 18 4.33301 33.166 13 45.499s20 18.5 34 18.5h260c12.667 0 23.834 -6.33301 33.501 -19s14.5 -27.667 14.5 -45c0 -18 -4.83301 -33 -14.5 -45s-20.834 -18 -33.501 -18h-260c-14 0 -25.333 5.83301 -34 17.5s-13 26.834 -13 45.501zM47 337.999
c0 18 4.33301 33.166 13 45.499s20 18.5 34 18.5h260c12.667 0 23.834 -6.33301 33.501 -19s14.5 -27.667 14.5 -45c0 -18 -4.83301 -33 -14.5 -45s-20.834 -18 -33.501 -18h-260c-14 0 -25.333 5.83301 -34 17.5s-13 26.834 -13 45.501z" />
    <glyph glyph-name="greater" unicode="&#x3e;" horiz-adv-x="427" 
d="M36 124c0 18.667 6 31.667 18 39l176 114l-176 114c-12 7.33301 -18 20.333 -18 39c0 19.333 7.33301 36.333 22 51s30 22 46 22c8.66699 0 15 -1.66699 19 -5l254 -165c20.667 -13.333 31 -32 31 -56s-10.333 -42.667 -31 -56l-254 -165c-4 -3.33301 -10.333 -5 -19 -5
c-16 0 -31.333 7.33301 -46 22s-22 31.667 -22 51z" />
    <glyph glyph-name="question" unicode="?" horiz-adv-x="453" 
d="M20 597c0 32 17.335 62.3301 52.002 90.9971s83 43 145 43c63.333 0 114.666 -15.667 153.999 -47s59 -70.666 59 -117.999c0 -64 -37.333 -125 -112 -183c-17.333 -14 -30.166 -27.833 -38.499 -41.5s-13.333 -25.667 -15 -36s-2.5 -26.166 -2.5 -47.499
c0 -27.333 -19.667 -41 -59 -41c-20.667 0 -35 4.66699 -43 14s-12 27 -12 53c0 62.667 22.333 113.334 67 152.001c2 2 10.667 9 26 21s26 21 32 27s12.667 15.167 20 27.5s11 24.833 11 37.5c0 22 -8.33301 38.833 -25 50.5s-38.334 17.5 -65.001 17.5
c-22.667 0 -41.334 -4 -56.001 -12s-24.334 -16.833 -29.001 -26.5s-11 -18.5 -19 -26.5s-18 -12 -30 -12c-15.333 0 -29.166 5 -41.499 15s-18.5 24 -18.5 42zM128.002 70.9971c0 21.333 7.5 39.5 22.5 54.5s32.833 22.5 53.5 22.5c21.333 0 39.5 -7.66699 54.5 -23
s22.5 -33.333 22.5 -54s-7.5 -38.667 -22.5 -54s-33.167 -23 -54.5 -23s-39.333 7.66699 -54 23s-22 33.333 -22 54z" />
    <glyph glyph-name="at" unicode="@" horiz-adv-x="753" 
d="M35 206c0 109.333 30.165 198.168 90.498 266.501s147.833 102.5 262.5 102.5c106.667 0 190.334 -30.167 251.001 -90.5s91 -141.833 91 -244.5c0 -68.667 -13.667 -125.167 -41 -169.5s-66.666 -66.5 -117.999 -66.5c-29.333 0 -53.666 7 -72.999 21s-31 32.333 -35 55
c-36 -48.667 -78 -73 -126 -73c-32.667 0 -61.667 10.167 -87 30.5s-38 49.5 -38 87.5c0 84.667 67.667 127 203 127h27v13c0 42.667 -24.667 64 -74 64c-23.333 0 -45 -4.66699 -65 -14s-31.333 -14 -34 -14c-9.33301 0 -17.5 6.66699 -24.5 20s-10.5 25.666 -10.5 36.999
c0 20 15.5 37.333 46.5 52s65.167 22 102.5 22c46 0 85.667 -12 119 -36s50 -57.333 50 -100v-171c2.66699 -18 6.16699 -30.333 10.5 -37s10.166 -10 17.499 -10c36 0 54 45.667 54 137c0 184 -81.667 276 -245 276c-171.333 0 -257 -94.667 -257 -284
c0 -177.333 75.667 -266 227 -266c30.667 0 59 4 85 12s40.667 12 44 12c11.333 0 20.333 -5 27 -15s10 -19.667 10 -29c0 -21.333 -20.667 -37.333 -62 -48s-82.333 -16 -123 -16c-84.667 0 -156.667 30.333 -216 91s-89 146.667 -89 258zM333.998 127.002
c0 -27.333 11.333 -41 34 -41c18.667 0 36.667 8.5 54 25.5s26 35.833 26 56.5v22h-18c-64 0 -96 -21 -96 -63z" />
    <glyph glyph-name="A" unicode="A" horiz-adv-x="589" 
d="M4 64c0 2 0.666992 5.66699 2 11l186 610c5.33301 16.667 17.5 29.5 36.5 38.5s40.833 13.5 65.5 13.5s46.5 -4.5 65.5 -13.5s31.167 -21.833 36.5 -38.5l187 -610c1.33301 -5.33301 2 -9 2 -11c0 -17.333 -10.833 -32.333 -32.5 -45s-44.167 -19 -67.5 -19
c-28.667 0 -45.667 9.66699 -51 29l-34 125h-211l-34 -125c-5.33301 -19.333 -22.333 -29 -51 -29c-23.333 -0 -45.833 6.33301 -67.5 19s-32.5 27.667 -32.5 45zM221 274h146l-73 268z" />
    <glyph glyph-name="B" unicode="B" horiz-adv-x="572" 
d="M54 47l-0.000976562 636.003c0 15.333 6.66699 27.166 20 35.499s29.333 12.5 48 12.5h205c133.333 0 200 -59.333 200 -178c0 -80 -28.333 -132.333 -85 -157c34 -12.667 59.667 -30.834 77 -54.501s26 -58.834 26 -105.501v-21
c0 -74.667 -18.167 -129.167 -54.5 -163.5s-85.166 -51.5 -146.499 -51.5h-222c-20.667 0 -37.167 4.66699 -49.5 14s-18.5 20.333 -18.5 33zM208.999 136.003h100c53.333 0 80 30.667 80 92v16c0 61.333 -26.667 92 -80 92h-100v-200zM208.999 456.003l105 -0.000976562
c18 0 32 6.83301 42 20.5s15 29.834 15 48.501s-5 35 -15 49s-24 21 -42 21h-105v-139z" />
    <glyph glyph-name="C" unicode="C" horiz-adv-x="562" 
d="M46 230v265c0 81.333 22.167 141 66.5 179s102.166 57 173.499 57c73.333 0 133.5 -17.667 180.5 -53s70.5 -84 70.5 -146c0 -28.667 -6 -48.167 -18 -58.5s-32 -15.5 -60 -15.5c-50 0 -76 15.667 -78 47c-2 60 -31.667 90 -89 90c-60 0 -90 -33.333 -90 -100v-265
c0 -66.667 30.333 -100 91 -100c18.667 0 34.167 3 46.5 9s21.166 15.167 26.499 27.5s8.83301 22.5 10.5 30.5s3.16699 19 4.5 33c2.66699 31.333 28.334 47 77.001 47c28.667 0 49 -5.16699 61 -15.5s18 -29.833 18 -58.5c0 -64.667 -23.5 -115.667 -70.5 -153
s-107.167 -56 -180.5 -56c-71.333 0 -129.166 19 -173.499 57s-66.5 97.667 -66.5 179z" />
    <glyph glyph-name="D" unicode="D" horiz-adv-x="590" 
d="M54 47v637c0 12.667 6.33301 23.667 19 33s29 14 49 14h177c74.667 0 134.334 -19 179.001 -57s67 -97.667 67 -179v-259c0 -81.333 -22.333 -141 -67 -179s-104.334 -57 -179.001 -57h-177c-20 0 -36.333 4.66699 -49 14s-19 20.333 -19 33zM210 136h89
c60 0 90 33.333 90 100v259c0 66.667 -30 100 -90 100h-89v-459z" />
    <glyph glyph-name="E" unicode="E" horiz-adv-x="539" 
d="M54 48v635c0 15.333 6.66699 27.166 20 35.499s29.333 12.5 48 12.5h356c15.333 0 27 -6.66699 35 -20s12 -29 12 -47c0 -19.333 -4.16699 -35.666 -12.5 -48.999s-19.833 -20 -34.5 -20h-268v-169h150c14.667 0 26.167 -6 34.5 -18s12.5 -26.333 12.5 -43
c0 -15.333 -4 -29 -12 -41s-19.667 -18 -35 -18h-150v-170h268c14.667 0 26.167 -6.66699 34.5 -20s12.5 -29.666 12.5 -48.999c0 -18 -4 -33.667 -12 -47s-19.667 -20 -35 -20h-356c-18.667 0 -34.667 4.16699 -48 12.5s-20 20.166 -20 35.499z" />
    <glyph glyph-name="F" unicode="F" horiz-adv-x="515" 
d="M54 48l-0.00195312 635c0 15.333 6.66699 27.166 20 35.499s29.333 12.5 48 12.5h347c15.333 0 27 -6.66699 35 -20s12 -29 12 -47c0 -19.333 -4.16699 -35.666 -12.5 -48.999s-19.833 -20 -34.5 -20h-259v-169h151c14.667 0 26.167 -6 34.5 -18s12.5 -26.333 12.5 -43
c0 -15.333 -4 -29 -12 -41s-19.667 -18 -35 -18h-151v-258c0 -15.333 -7.66699 -27.166 -23 -35.499s-33.666 -12.5 -54.999 -12.5s-39.666 4.16699 -54.999 12.5s-23 20.166 -23 35.499z" />
    <glyph glyph-name="G" unicode="G" horiz-adv-x="573" 
d="M46 230l0.00195312 265.004c0 81.333 22.167 141 66.5 179s102.166 57 173.499 57c73.333 0 133.5 -17.667 180.5 -53s70.5 -84 70.5 -146c0 -28.667 -6 -48.167 -18 -58.5s-32 -15.5 -60 -15.5c-51.333 0 -77.333 15.667 -78 47c0 9.33301 -0.333008 17.166 -1 23.499
s-2.66699 14.166 -6 23.499s-8 16.666 -14 21.999s-14.833 10.166 -26.5 14.499s-25.5 6.5 -41.5 6.5c-60 0 -90 -33.333 -90 -100v-265c0 -66.667 29.667 -100 89 -100c60 0 90 33.333 90 100v34h-59c-14.667 0 -26.167 5.83301 -34.5 17.5s-12.5 25.834 -12.5 42.501
c0 15.333 4.33301 29.166 13 41.499s20 18.5 34 18.5h168c14.667 0 26.167 -4.83301 34.5 -14.5s12.5 -21.167 12.5 -34.5v-105c0 -81.333 -22.333 -141 -67 -179s-104.334 -57 -179.001 -57c-74 0 -133.333 19 -178 57s-67 97.667 -67 179z" />
    <glyph glyph-name="H" unicode="H" horiz-adv-x="619" 
d="M54 48v636c0 15.333 7.66699 27 23 35s33.666 12 54.999 12s39.666 -4 54.999 -12s23 -19.667 23 -35v-245h199v245c0 15.333 7.66699 27 23 35s33.666 12 54.999 12s39.666 -4 54.999 -12s23 -19.667 23 -35v-636c0 -15.333 -7.66699 -27.166 -23 -35.499
s-33.666 -12.5 -54.999 -12.5s-39.666 4.16699 -54.999 12.5s-23 20.166 -23 35.499v271h-199v-271c0 -15.333 -7.66699 -27.166 -23 -35.499s-33.666 -12.5 -54.999 -12.5s-39.666 4.16699 -54.999 12.5s-23 20.166 -23 35.499z" />
    <glyph glyph-name="I" unicode="I" horiz-adv-x="264" 
d="M54 48v636c0 15.333 7.66699 27 23 35s33.666 12 54.999 12s39.666 -4 54.999 -12s23 -19.667 23 -35v-636c0 -15.333 -7.66699 -27.166 -23 -35.499s-33.666 -12.5 -54.999 -12.5s-39.666 4.16699 -54.999 12.5s-23 20.166 -23 35.499z" />
    <glyph glyph-name="J" unicode="J" horiz-adv-x="548" 
d="M6 203c0 28.667 5.99902 48.167 17.999 58.5s32.333 15.5 61 15.5c48.667 0 74.334 -15.667 77.001 -47c1.33301 -14 2.83301 -25 4.5 -33s5.16699 -18.167 10.5 -30.5s14.166 -21.5 26.499 -27.5s27.833 -9 46.5 -9c60.667 0 91 33.333 91 100v365h-87
c-14.667 0 -26.167 6.66699 -34.5 20s-12.5 29.666 -12.5 48.999c0 18 4 33.667 12 47s19.667 20 35 20h175c18.667 0 34.667 -4.16699 48 -12.5s20 -20.166 20 -35.499v-453c0 -81.333 -22.167 -141 -66.5 -179s-102.166 -57 -173.499 -57
c-73.333 0 -133.5 18.667 -180.5 56s-70.5 88.333 -70.5 153z" />
    <glyph glyph-name="K" unicode="K" horiz-adv-x="566" 
d="M54 48v636c0 15.333 7.66699 27 23 35s33.666 12 54.999 12s39.666 -4 54.999 -12s23 -19.667 23 -35v-240l187 265c10 14.667 23.667 22 41 22c20.667 0 41.167 -8.5 61.5 -25.5s30.5 -35.167 30.5 -54.5c0 -10.667 -3.33301 -20.667 -10 -30l-164 -206l207 -317
c5.33301 -8.66699 8 -17.334 8 -26.001c0 -19.333 -10 -37.166 -30 -53.499s-41.333 -24.5 -64 -24.5c-24 0 -42 9.66699 -54 29l-171 260l-42 -54v-181c0 -15.333 -7.66699 -27.166 -23 -35.499s-33.666 -12.5 -54.999 -12.5s-39.666 4.16699 -54.999 12.5
s-23 20.166 -23 35.499z" />
    <glyph glyph-name="L" unicode="L" horiz-adv-x="492" 
d="M54 48l0.00195312 636.001c0 15.333 7.66699 27 23 35s33.666 12 54.999 12s39.666 -4 54.999 -12s23 -19.667 23 -35v-548h228c14 0 25 -6.66699 33 -20s12 -29.333 12 -48s-4 -34.667 -12 -48s-19 -20 -33 -20h-316c-18.667 0 -34.667 4.16699 -48 12.5
s-20 20.166 -20 35.499z" />
    <glyph glyph-name="M" unicode="M" horiz-adv-x="712" 
d="M54 48l-0.00488281 605c0 26.667 7.5 46.334 22.5 59.001s33.5 19 55.5 19c30 0 52.833 -4.5 68.5 -13.5s33.167 -30.5 52.5 -64.5l103 -180l103 180c19.333 34 36.833 55.5 52.5 64.5s38.5 13.5 68.5 13.5c22 0 40.5 -6.33301 55.5 -19s22.5 -32.334 22.5 -59.001v-605
c0 -15.333 -7.66699 -27.166 -23 -35.499s-33.666 -12.5 -54.999 -12.5s-39.666 4.16699 -54.999 12.5s-23 20.166 -23 35.499v375l-96 -164c-11.333 -19.333 -28.666 -29 -51.999 -29c-22.667 0 -39 9.66699 -49 29l-95 174v-385c0 -15.333 -7.66699 -27.166 -23 -35.499
s-33.666 -12.5 -54.999 -12.5s-39.666 4.16699 -54.999 12.5s-23 20.166 -23 35.499z" />
    <glyph glyph-name="N" unicode="N" horiz-adv-x="619" 
d="M54 48v635.001c0 15.333 7.66699 27.166 23 35.499s33.666 12.5 54.999 12.5c30 0 52.167 -4.33301 66.5 -13s30.5 -30.334 48.5 -65.001l162 -309v340c0 15.333 7.66699 27 23 35s33.666 12 54.999 12s39.666 -4 54.999 -12s23 -19.667 23 -35v-636
c0 -15.333 -7.66699 -27.166 -23 -35.499s-33.666 -12.5 -54.999 -12.5c-42.667 0 -71.667 14 -87 42l-190 346v-340c0 -15.333 -7.66699 -27.166 -23 -35.499s-33.666 -12.5 -54.999 -12.5s-39.666 4.16699 -54.999 12.5s-23 20.166 -23 35.499z" />
    <glyph glyph-name="O" unicode="O" horiz-adv-x="583" 
d="M46 230v265c0 81.333 22.333 141 67 179s104 57 178 57c74.667 0 134.334 -19 179.001 -57s67 -97.667 67 -179v-265c0 -81.333 -22.333 -141 -67 -179s-104.334 -57 -179.001 -57c-74 0 -133.333 19 -178 57s-67 97.667 -67 179zM202 230c0 -66.667 29.667 -100 89 -100
c60 0 90 33.333 90 100v265c0 66.667 -30 100 -90 100c-59.333 0 -89 -33.333 -89 -100v-265z" />
    <glyph glyph-name="P" unicode="P" horiz-adv-x="569" 
d="M54 48l-0.00195312 636c0 12.667 5.33301 23.667 16 33s24.667 14 42 14h207c71.333 0 128.5 -18.5 171.5 -55.5s64.5 -95.167 64.5 -174.5v-5c0 -79.333 -22.5 -137.833 -67.5 -175.5s-104.5 -56.5 -178.5 -56.5h-99v-216c0 -15.333 -7.66699 -27.166 -23 -35.499
s-33.666 -12.5 -54.999 -12.5s-39.666 4.16699 -54.999 12.5s-23 20.166 -23 35.499zM209.998 384h99c60 0 90 33.333 90 100v11c0 66.667 -30 100 -90 100h-99v-211z" />
    <glyph glyph-name="Q" unicode="Q" horiz-adv-x="583" 
d="M46 230l0.00195312 264.999c0 82 22.167 141.833 66.5 179.5s103.833 56.5 178.5 56.5s134.334 -18.833 179.001 -56.5s67 -97.5 67 -179.5v-265c0 -72 -17.833 -127 -53.5 -165s-83.834 -60.667 -144.501 -68v-58c0 -15.333 -4.83301 -27.166 -14.5 -35.499
s-20.834 -12.5 -33.501 -12.5s-23.834 4.16699 -33.501 12.5s-14.5 20.166 -14.5 35.499v58c-60.667 7.33301 -108.667 29.833 -144 67.5s-53 92.834 -53 165.501zM202.002 229.999c0 -44.667 13.6689 -74.667 41.002 -90v44c0 15.333 4.66699 27 14 35s20.666 12 33.999 12
s24.666 -4 33.999 -12s14 -19.667 14 -35v-44c28 16 42 46 42 90v265c0 66.667 -30 100 -90 100c-59.333 0 -89 -33.333 -89 -100v-265z" />
    <glyph glyph-name="R" unicode="R" horiz-adv-x="584" 
d="M54 48l-0.00195312 635.999c0 12.667 4.5 23.667 13.5 33s20.5 14 34.5 14h207c164 0 246 -71.333 246 -214c0 -104 -40.333 -171.667 -121 -203l122 -221c3.33301 -4.66699 5 -10.667 5 -18c0 -19.333 -10.5 -37.666 -31.5 -54.999s-43.167 -26 -66.5 -26
s-40 9.66699 -50 29l-137 266h-66v-241c0 -15.333 -7.66699 -27.166 -23 -35.499s-33.666 -12.5 -54.999 -12.5s-39.666 4.16699 -54.999 12.5s-23 20.166 -23 35.499zM209.998 408.999l99 0.00195312c29.333 0 51.666 7.16699 66.999 21.5s23 38.166 23 71.499
s-7.66699 57.166 -23 71.499s-37.666 21.5 -66.999 21.5h-99v-186z" />
    <glyph glyph-name="S" unicode="S" horiz-adv-x="533" 
d="M19 120c0 18.667 6.83301 37.3359 20.5 56.0029s29.5 28 47.5 28c10 0 21.167 -3.83301 33.5 -11.5s23.666 -16.167 33.999 -25.5s24.833 -17.833 43.5 -25.5s38.334 -11.5 59.001 -11.5c26 0 48.667 5.5 68 16.5s29 27.5 29 49.5s-10.833 41.333 -32.5 58
s-48 31.834 -79 45.501s-62.167 29 -93.5 46s-57.833 41.167 -79.5 72.5s-32.5 68.666 -32.5 111.999c0 69.333 25 121.166 75 155.499s110.333 51.5 181 51.5c17.333 0 35.5 -1 54.5 -3s40.333 -5.83301 64 -11.5s43 -14.834 58 -27.501s22.5 -28 22.5 -46
c0 -17.333 -5.5 -35.333 -16.5 -54s-26.167 -28 -45.5 -28c-8 0 -25 6.33301 -51 19s-54.667 19 -86 19c-33.333 0 -58.333 -5.83301 -75 -17.5s-25 -25.834 -25 -42.501c0 -15.333 7.83301 -29.333 23.5 -42s35.167 -23.5 58.5 -32.5s48.833 -20.667 76.5 -35
s53.167 -30 76.5 -47s42.833 -40.833 58.5 -71.5s23.5 -65.667 23.5 -105c0 -70 -23 -124.5 -69 -163.5s-106.333 -58.5 -181 -58.5c-64.667 0 -121 13.333 -169 40s-72 56.667 -72 90z" />
    <glyph glyph-name="T" unicode="T" horiz-adv-x="542" 
d="M8 662c0 18.667 3.99805 34.834 11.998 48.501s19.667 20.5 35 20.5h432c15.333 0 27 -6.83301 35 -20.5s12 -29.834 12 -48.501c0 -20 -4.16699 -36.833 -12.5 -50.5s-19.833 -20.5 -34.5 -20.5h-138v-543c0 -15.333 -7.66699 -27.166 -23 -35.499
s-33.666 -12.5 -54.999 -12.5s-39.666 4.16699 -54.999 12.5s-23 20.166 -23 35.499v543h-138c-14.667 0 -26.167 6.83301 -34.5 20.5s-12.5 30.5 -12.5 50.5z" />
    <glyph glyph-name="U" unicode="U" horiz-adv-x="606" 
d="M51 230l0.00292969 454c0 15.333 7.5 27 22.5 35s33.5 12 55.5 12c21.333 0 39.666 -4 54.999 -12s23 -19.667 23 -35v-454c0 -66.667 32 -100 96 -100s96 33.333 96 100v454c0 15.333 7.5 27 22.5 35s33.5 12 55.5 12c21.333 0 39.666 -4 54.999 -12s23 -19.667 23 -35
v-454c0 -81.333 -23 -141 -69 -179s-107 -57 -183 -57c-76.667 0 -137.834 19 -183.501 57s-68.5 97.667 -68.5 179z" />
    <glyph glyph-name="V" unicode="V" horiz-adv-x="589" 
d="M4 667c0 17.333 10.833 32.333 32.5 45s44.167 19 67.5 19c28.667 0 45.667 -9.66699 51 -29l140 -513l139 513c5.33301 19.333 22.333 29 51 29c23.333 0 45.833 -6.33301 67.5 -19s32.5 -27.667 32.5 -45c0 -2 -0.666992 -5.66699 -2 -11l-186 -610
c-5.33301 -16.667 -17.5 -29.5 -36.5 -38.5s-40.833 -13.5 -65.5 -13.5s-46.5 4.5 -65.5 13.5s-31.167 21.833 -36.5 38.5l-187 610c-1.33301 5.33301 -2 9 -2 11z" />
    <glyph glyph-name="W" unicode="W" horiz-adv-x="920" 
d="M3 669c0 16 10.8301 30.333 32.4971 43s44.5 19 68.5 19c28 0 44.667 -9.66699 50 -29l152 -513l79 338c2.66699 12.667 11.334 22.667 26.001 30s31 11 49 11s34.333 -3.66699 49 -11s23.334 -17.333 26.001 -30l79 -338l152 513c5.33301 19.333 22 29 50 29
c24 0 46.833 -6.33301 68.5 -19s32.5 -27 32.5 -43c0 -4.66699 -0.666992 -9 -2 -13l-199 -610c-6 -16.667 -18.5 -29.5 -37.5 -38.5s-40.833 -13.5 -65.5 -13.5s-46.667 4.5 -66 13.5s-31 21.833 -35 38.5l-52 237l-52 -237c-4 -16.667 -15.667 -29.5 -35 -38.5
s-41.333 -13.5 -66 -13.5s-46.667 4.5 -66 13.5s-31.666 21.833 -36.999 38.5l-199 610c-1.33301 4 -2 8.33301 -2 13z" />
    <glyph glyph-name="X" unicode="X" horiz-adv-x="590" 
d="M8 71c0 8.66699 3 18 9 28l173 267l-166 266c-6.66699 10.667 -10 21 -10 31c0 20 11 37.333 33 52s44.667 22 68 22c22 0 37.667 -8.66699 47 -26l133 -232l133 232c9.33301 17.333 25 26 47 26c23.333 0 46 -7.33301 68 -22s33 -32 33 -52
c0 -10 -3.33301 -20.333 -10 -31l-166 -266l173 -267c6 -10 9 -19.333 9 -28c0 -20 -11.5 -37.833 -34.5 -53.5s-46.167 -23.5 -69.5 -23.5c-18.667 0 -31 5.33301 -37 16l-146 248l-146 -248c-6.66699 -10.667 -19 -16 -37 -16c-23.333 0 -46.5 7.83301 -69.5 23.5
s-34.5 33.5 -34.5 53.5z" />
    <glyph glyph-name="Y" unicode="Y" horiz-adv-x="590" 
d="M4 667c0 17.333 11.8311 32.333 35.498 45s47.167 19 70.5 19c12 0 21 -2.16699 27 -6.5s12 -11.833 18 -22.5l140 -257l139 257c10 19.333 25 29 45 29c23.333 0 46.833 -6.33301 70.5 -19s35.5 -27.667 35.5 -45c0 -4.66699 -0.666992 -8.33398 -2 -11.001l-206 -343
c-2.66699 -4 -4 -8.66699 -4 -14v-251c0 -15.333 -7.66699 -27.166 -23 -35.499s-33.666 -12.5 -54.999 -12.5s-39.666 4.16699 -54.999 12.5s-23 20.166 -23 35.499v251c0 5.33301 -1.33301 10 -4 14l-207 343c-1.33301 2.66699 -2 6.33398 -2 11.001z" />
    <glyph glyph-name="Z" unicode="Z" horiz-adv-x="536" 
d="M9 41c0 17.333 5.66699 35.667 17 55l282 499h-232c-14.667 0 -26.167 6.66699 -34.5 20s-12.5 29.333 -12.5 48s4 34.667 12 48s19.667 20 35 20h386c30 0 45 -13.667 45 -41c0 -16 -5.66699 -34.333 -17 -55l-282 -499h272c14 0 25.333 -7 34 -21s13 -29.667 13 -47
s-4.33301 -33 -13 -47s-20 -21 -34 -21h-426c-30 0 -45 13.667 -45 41z" />
    <glyph glyph-name="bracketleft" unicode="[" horiz-adv-x="355" 
d="M50 27v693c0 15.333 6.66699 27.166 20 35.499s29.333 12.5 48 12.5h176c15.333 0 27 -6.66699 35 -20s12 -29 12 -47c0 -19.333 -4.16699 -35.666 -12.5 -48.999s-19.833 -20 -34.5 -20h-88v-517h88c14.667 0 26.167 -6.66699 34.5 -20s12.5 -29.666 12.5 -48.999
c0 -18 -4 -33.667 -12 -47s-19.667 -20 -35 -20h-176c-18.667 0 -34.667 4.16699 -48 12.5s-20 20.166 -20 35.499z" />
    <glyph glyph-name="backslash" unicode="\" horiz-adv-x="382" 
d="M18 704c0 13.333 5.66699 25.167 17 35.5s25 15.5 41 15.5c22.667 0 37.667 -10 45 -30l240 -658c1.33301 -3.33301 2 -8 2 -14c0 -14 -5.66699 -26.5 -17 -37.5s-24.333 -16.5 -39 -16.5c-22.667 0 -38 10.667 -46 32l-240 658c-2 4.66699 -3 9.66699 -3 15z" />
    <glyph glyph-name="bracketright" unicode="]" horiz-adv-x="355" 
d="M14 46c0 19.333 4.16699 35.666 12.5 48.999s19.833 20 34.5 20h88v517h-88c-14.667 0 -26.167 6.66699 -34.5 20s-12.5 29.666 -12.5 48.999c0 18 4 33.667 12 47s19.667 20 35 20h176c18.667 0 34.667 -4.16699 48 -12.5s20 -20.166 20 -35.499v-693
c0 -15.333 -6.66699 -27.166 -20 -35.499s-29.333 -12.5 -48 -12.5h-176c-15.333 0 -27 6.66699 -35 20s-12 29 -12 47z" />
    <glyph glyph-name="asciicircum" unicode="^" horiz-adv-x="292" 
d="M0 615c0 20 8.33105 34.667 24.998 44l104 56c6.66699 3.33301 12.334 5 17.001 5s10.334 -1.66699 17.001 -5l104 -56c16.667 -9.33301 25 -24 25 -44c0 -12 -3 -22.667 -9 -32s-13.333 -14 -22 -14c-3.33301 0 -7 1 -11 3l-104 56l-104 -56c-4 -2 -7.66699 -3 -11 -3
c-8.66699 0 -16 4.66699 -22 14s-9 20 -9 32z" />
    <glyph glyph-name="underscore" unicode="_" horiz-adv-x="306" 
d="M-54 -64c0 18 4.33301 33.166 13 45.499s20 18.5 34 18.5h320c12.667 0 23.834 -6.33301 33.501 -19s14.5 -27.667 14.5 -45c0 -18 -4.83301 -33 -14.5 -45s-20.834 -18 -33.501 -18h-320c-14 0 -25.333 5.83301 -34 17.5s-13 26.834 -13 45.501z" />
    <glyph glyph-name="grave" unicode="`" horiz-adv-x="221" 
d="M0 662c0 14 4.66602 27.168 13.999 39.501s20.333 18.5 33 18.5c4.66699 0 9.33398 -1 14.001 -3l140 -65c13.333 -6.66699 20 -18.334 20 -35.001c0 -14 -4.5 -27.167 -13.5 -39.5s-19.833 -18.5 -32.5 -18.5c-3.33301 0 -8.33301 1.33301 -15 4l-140 65
c-13.333 6.66699 -20 18 -20 34z" />
    <glyph glyph-name="a" unicode="a" horiz-adv-x="484" 
d="M18 123c0 55.333 20.167 94.333 60.5 117s98.166 34 173.499 34h36v10c0 20 -6 37.333 -18 52s-31 22 -57 22c-32 0 -58.333 -5.5 -79 -16.5s-33.334 -16.5 -38.001 -16.5c-16 0 -28.667 7.83301 -38 23.5s-14 33.5 -14 53.5c0 22 18.5 40.833 55.5 56.5
s75.5 23.5 115.5 23.5c76.667 0 133.834 -18.667 171.501 -56s56.5 -84 56.5 -140v-238c0 -13.333 -7.16699 -24.666 -21.5 -33.999s-32.5 -14 -54.5 -14c-19.333 0 -35.666 4.66699 -48.999 14s-20 20.666 -20 33.999v22c-46 -53.333 -96.667 -80 -152 -80
c-36.667 0 -67.167 11.333 -91.5 34s-36.5 55.667 -36.5 99zM174 145c0 -28 12.998 -42.001 38.998 -42.001c16.667 0 33.334 9.33301 50.001 28s25 40 25 64v4h-4c-22 0 -40.167 -1 -54.5 -3s-27.166 -7.16699 -38.499 -15.5s-17 -20.166 -17 -35.499z" />
    <glyph glyph-name="b" unicode="b" horiz-adv-x="533" 
d="M46 48l0.000976562 652.998c0 14 7.16699 25.333 21.5 34s32.5 13 54.5 13c22.667 0 41.5 -4.33301 56.5 -13s22.5 -20 22.5 -34v-295c11.333 21.333 28.166 39.333 50.499 54s47.833 22 76.5 22c48.667 0 90.334 -20.667 125.001 -62s52 -90.666 52 -147.999v-70
c0 -56 -17.5 -105.333 -52.5 -148s-75.5 -64 -121.5 -64c-30.667 0 -59 7.83301 -85 23.5s-44.333 34.5 -55 56.5v-22c0 -12 -6.83301 -23 -20.5 -33s-29.834 -15 -48.501 -15c-21.333 0 -39.333 4.83301 -54 14.5s-22 20.834 -22 33.501zM201.001 188.998
c0 -10.667 8.00098 -23.999 24.001 -39.999s33.667 -24 53 -24s36.166 7.83301 50.499 23.5s21.5 33.5 21.5 53.5v70c0 19.333 -7.16699 36.666 -21.5 51.999s-31.5 23 -51.5 23c-19.333 0 -36.833 -7 -52.5 -21s-23.5 -32 -23.5 -54v-83z" />
    <glyph glyph-name="c" unicode="c" horiz-adv-x="442" 
d="M28 202l0.000976562 68c0 63.333 18.833 114.5 56.5 153.5s93.834 58.5 168.501 58.5c48 0 88.167 -8.16699 120.5 -24.5s48.5 -35.833 48.5 -58.5c0 -16.667 -5.83301 -33.5 -17.5 -50.5s-25.834 -25.5 -42.501 -25.5c-5.33301 0 -17.5 4 -36.5 12s-38.833 12 -59.5 12
c-55.333 0 -83 -25.667 -83 -77v-68c0 -51.333 28 -77 84 -77c20 0 39.167 4.5 57.5 13.5s30.833 13.5 37.5 13.5c19.333 0 35.166 -8 47.499 -24s18.5 -32.667 18.5 -50c0 -23.333 -17 -43.833 -51 -61.5s-74.667 -26.5 -122 -26.5c-76 0 -132.833 19.333 -170.5 58
s-56.5 90 -56.5 154z" />
    <glyph glyph-name="d" unicode="d" horiz-adv-x="533" 
d="M28 202l0.000976562 70.002c0 57.333 17.333 106.666 52 147.999s76.334 62 125.001 62c28.667 0 54.167 -7.33301 76.5 -22s39.166 -32.667 50.499 -54v295c0 14 7.5 25.333 22.5 34s33.833 13 56.5 13c22 0 40.167 -4.33301 54.5 -13s21.5 -20 21.5 -34v-653
c0 -12.667 -7.33301 -23.834 -22 -33.501s-32.667 -14.5 -54 -14.5c-18.667 0 -34.834 5 -48.501 15s-20.5 21 -20.5 33v22c-10.667 -22 -29 -40.833 -55 -56.5s-54.333 -23.5 -85 -23.5c-46 0 -86.5 21.333 -121.5 64s-52.5 92 -52.5 148zM183.001 202.002
c0 -20 7.16797 -37.834 21.501 -53.501s31.166 -23.5 50.499 -23.5s37 8 53 24s24 29.333 24 40v83c0 22 -7.83301 40 -23.5 54s-33.167 21 -52.5 21c-20 0 -37.167 -7.66699 -51.5 -23s-21.5 -32.666 -21.5 -51.999v-70z" />
    <glyph glyph-name="e" unicode="e" 
d="M27 202l-0.00195312 72.998c0 56.667 22.5 105.334 67.5 146.001s99.167 61 162.5 61c59.333 0 110 -17.833 152 -53.5s63 -81.167 63 -136.5c0 -21.333 -2.66699 -38.666 -8 -51.999s-13.333 -22.666 -24 -27.999s-20.5 -8.83301 -29.5 -10.5s-20.833 -2.5 -35.5 -2.5
h-193v-6c0 -24.667 9.33301 -44.5 28 -59.5s43.334 -22.5 74.001 -22.5c23.333 0 47.833 6.16699 73.5 18.5s42.834 18.5 51.501 18.5c16.667 0 30.334 -7.83301 41.001 -23.5s16 -30.5 16 -44.5c0 -20.667 -17.833 -40.834 -53.5 -60.501s-79.834 -29.5 -132.501 -29.5
c-74.667 0 -135.5 19.5 -182.5 58.5s-70.5 90.167 -70.5 153.5zM181.998 285.998h123.999c14 0 21 8 21 24c0 18.667 -7.16699 33.334 -21.5 44.001s-31.5 16 -51.5 16c-19.333 0 -36.166 -5.33301 -50.499 -16s-21.5 -25.334 -21.5 -44.001v-24z" />
    <glyph glyph-name="f" unicode="f" horiz-adv-x="354" 
d="M46 47v500.001c0 57.333 17.167 105.166 51.5 143.499s75.833 57.5 124.5 57.5h72c18.667 0 33 -6.5 43 -19.5s15 -28.167 15 -45.5c0 -18 -5 -33.333 -15 -46s-24.333 -19 -43 -19h-38c-36.667 0 -55 -18 -55 -54v-88h113c12 0 21.333 -5.5 28 -16.5
s10 -23.833 10 -38.5c0 -15.333 -3.33301 -28.333 -10 -39s-16 -16 -28 -16h-113v-319c0 -13.333 -7.83301 -24.5 -23.5 -33.5s-34.167 -13.5 -55.5 -13.5c-22 -0 -40.167 4.33301 -54.5 13s-21.5 20 -21.5 34z" />
    <glyph glyph-name="g" unicode="g" horiz-adv-x="478" 
d="M12 -72c0 44 22.334 78.666 67.001 103.999c-24 14 -36 34.667 -36 62c0 29.333 17 56.333 51 81c-43.333 32 -65 74.333 -65 127v15c0 48.667 18.833 88.334 56.5 119.001s87.167 46 148.5 46c42 0 79.667 -8 113 -24c11.333 27.333 21.333 45.833 30 55.5
s17.667 14.5 27 14.5c17.333 0 31.5 -5.16699 42.5 -15.5s16.5 -20.5 16.5 -30.5c0 -10.667 -5.33301 -20.667 -16 -30l-20 -16c-10 -8 -17.667 -14.667 -23 -20c25.333 -27.333 38 -60.333 38 -99v-15c0 -48 -19.5 -87.833 -58.5 -119.5s-88.833 -47.5 -149.5 -47.5
c-22 0 -42 2 -60 6c-2.66699 -4.66699 -4 -9 -4 -13c0 -9.33301 10.167 -16.333 30.5 -21s45 -9 74 -13s58 -9.83301 87 -17.5s53.667 -22.5 74 -44.5s30.5 -50.667 30.5 -86c0 -54.667 -22 -95.5 -66 -122.5s-97.333 -40.5 -160 -40.5s-116.334 13 -161.001 39
s-67 61.333 -67 106zM158.001 -56.001c0 -19.333 7.83398 -34.6641 23.501 -45.9971s34.167 -17 55.5 -17s39.833 5.66699 55.5 17s23.5 26 23.5 44c0 11.333 -3 20.666 -9 27.999s-15.167 13.166 -27.5 17.499s-24.333 7.66602 -36 9.99902s-26.834 4.5 -45.501 6.5
c-26.667 -14 -40 -34 -40 -60zM179.002 303.001c0 -22.667 5 -41.333 15 -56s24 -22 42 -22c17.333 0 31 7.16699 41 21.5s15 32.833 15 55.5v15c0 21.333 -5 39.166 -15 53.499s-24 21.5 -42 21.5c-17.333 0 -31 -7.16699 -41 -21.5s-15 -32.166 -15 -53.499v-14z" />
    <glyph glyph-name="h" unicode="h" horiz-adv-x="535" 
d="M46 48v652.998c0 14 7.16699 25.333 21.5 34s32.833 13 55.5 13c21.333 0 39.666 -4.33301 54.999 -13s23 -20 23 -34v-295c10 21.333 25.833 39.333 47.5 54s47.167 22 76.5 22c46 0 85.833 -20.667 119.5 -62s50.5 -90.666 50.5 -147.999v-224
c0 -15.333 -7.66699 -27.166 -23 -35.499s-33.666 -12.5 -54.999 -12.5c-20 -0 -37.833 4.33301 -53.5 13s-23.5 20.334 -23.5 35.001v224c0 19.333 -7.16699 36.666 -21.5 51.999s-31.166 23 -50.499 23c-17.333 0 -32.833 -6.83301 -46.5 -20.5
s-20.5 -31.834 -20.5 -54.501v-224c0 -12 -7.83301 -23 -23.5 -33s-33.834 -15 -54.501 -15c-22 0 -40.333 4.83301 -55 14.5s-22 20.834 -22 33.501z" />
    <glyph glyph-name="i" unicode="i" horiz-adv-x="244" 
d="M40 640c0 19.333 8 36 24 50s35.333 21 58 21c22 0 41 -7 57 -21s24 -30.667 24 -50s-8 -36.166 -24 -50.499s-35 -21.5 -57 -21.5c-22.667 0 -42 7.16699 -58 21.5s-24 31.166 -24 50.499zM45 48l-0.000976562 380.999c0 14 7.16699 25.333 21.5 34s32.833 13 55.5 13
c22 0 40.5 -4.33301 55.5 -13s22.5 -20 22.5 -34v-381c0 -12 -7.66699 -23 -23 -33s-33.666 -15 -54.999 -15c-22 0 -40.333 4.83301 -55 14.5s-22 20.834 -22 33.501z" />
    <glyph glyph-name="j" unicode="j" horiz-adv-x="245" 
d="M-40 -154c0 20 5.50098 36.168 16.501 48.501s24.833 18.5 41.5 18.5c11.333 0 18.666 4.83301 21.999 14.5s5 24.5 5 44.5v457c0 14 7.16699 25.333 21.5 34s32.5 13 54.5 13c22.667 0 41.5 -4.33301 56.5 -13s22.5 -20 22.5 -34v-457
c0 -56.667 -14 -102.334 -42 -137.001s-67 -52 -117 -52c-54 0 -81 21 -81 63zM40.001 640.001c0 19.333 8 36 24 50s35.333 21 58 21c22 0 41 -7 57 -21s24 -30.667 24 -50s-8 -36.166 -24 -50.499s-35 -21.5 -57 -21.5c-22.667 0 -42 7.16699 -58 21.5
s-24 31.166 -24 50.499z" />
    <glyph glyph-name="k" unicode="k" horiz-adv-x="509" 
d="M46 48l-0.000976562 652.999c0 14 7.16699 25.333 21.5 34s32.5 13 54.5 13c22.667 0 41.5 -4.33301 56.5 -13s22.5 -20 22.5 -34v-392l166 161c8 8 18 12 30 12c16.667 0 33.334 -8.16699 50.001 -24.5s25 -32.833 25 -49.5c0 -10 -4 -19 -12 -27l-106 -98l137 -192
c5.33301 -8.66699 8 -16.667 8 -24c0 -17.333 -10 -34.5 -30 -51.5s-39.667 -25.5 -59 -25.5c-16 0 -28.333 6.33301 -37 19l-121 179l-51 -47v-93c0 -12 -7.83301 -23 -23.5 -33s-34.167 -15 -55.5 -15s-39.333 4.83301 -54 14.5s-22 20.834 -22 33.501z" />
    <glyph glyph-name="l" unicode="l" horiz-adv-x="263" 
d="M54 48l-0.000976562 652.999c0 14 7.16699 25.333 21.5 34s32.833 13 55.5 13c22 0 40.5 -4.33301 55.5 -13s22.5 -20 22.5 -34v-653c0 -12 -7.66699 -23 -23 -33s-33.666 -15 -54.999 -15c-22 0 -40.333 4.83301 -55 14.5s-22 20.834 -22 33.501z" />
    <glyph glyph-name="m" unicode="m" horiz-adv-x="813" 
d="M45 48l-0.00292969 380.999c0 14 7.16699 25.333 21.5 34s32.833 13 55.5 13c18.667 0 34.667 -4.33301 48 -13s20 -20 20 -34v-23c28.667 50.667 72.667 76 132 76c26.667 0 50.5 -9.16699 71.5 -27.5s36.5 -42.5 46.5 -72.5c16.667 32.667 38.334 57.5 65.001 74.5
s55 25.5 85 25.5c50 0 92.833 -19 128.5 -57s53.5 -89 53.5 -153v-224c0 -12 -7.66699 -23 -23 -33s-33.666 -15 -54.999 -15c-20 0 -37.833 5 -53.5 15s-23.5 21 -23.5 33v224c0 24 -6.66699 42.667 -20 56s-29 20 -47 20c-17.333 0 -32.333 -6.66699 -45 -20
s-19 -32 -19 -56v-225c0 -15.333 -7.66699 -27 -23 -35s-33.666 -12 -54.999 -12c-20 0 -37.833 4 -53.5 12s-23.5 19.667 -23.5 35v224c0 23.333 -6.83301 41.833 -20.5 55.5s-29.5 20.5 -47.5 20.5c-17.333 0 -32.166 -6.5 -44.499 -19.5s-18.5 -31.5 -18.5 -55.5v-224
c0 -12 -7.83301 -23 -23.5 -33s-33.834 -15 -54.501 -15c-22 0 -40.333 4.83301 -55 14.5s-22 20.834 -22 33.501z" />
    <glyph glyph-name="n" unicode="n" horiz-adv-x="534" 
d="M45 48l-0.00195312 380.998c0 14 7.16699 25.333 21.5 34s32.833 13 55.5 13c18.667 0 34.667 -4.33301 48 -13s20 -20 20 -34v-23c10.667 21.333 27.834 39.333 51.501 54s51.167 22 82.5 22c46 0 85.833 -20.667 119.5 -62s50.5 -90.666 50.5 -147.999v-224
c0 -15.333 -7.66699 -27.166 -23 -35.499s-33.666 -12.5 -54.999 -12.5c-20 -0 -37.833 4.33301 -53.5 13s-23.5 20.334 -23.5 35.001v224c0 19.333 -7.16699 36.666 -21.5 51.999s-31.166 23 -50.499 23c-17.333 0 -32.833 -6.83301 -46.5 -20.5
s-20.5 -31.834 -20.5 -54.501v-224c0 -12 -7.83301 -23 -23.5 -33s-33.834 -15 -54.501 -15c-22 0 -40.333 4.83301 -55 14.5s-22 20.834 -22 33.501z" />
    <glyph glyph-name="o" unicode="o" horiz-adv-x="509" 
d="M27 202l0.00195312 69.998c0 56.667 22.333 105.834 67 147.501s98 62.5 160 62.5c61.333 0 114.666 -20.667 159.999 -62s68 -90.666 68 -147.999v-70c0 -56 -22.833 -105.333 -68.5 -148s-98.834 -64 -159.501 -64s-113.667 21.333 -159 64s-68 92 -68 148z
M182.002 201.998c0 -20 6.99902 -37.833 20.999 -53.5s31 -23.5 51 -23.5s37.167 7.83301 51.5 23.5s21.5 33.5 21.5 53.5v70c0 19.333 -7.33301 36.666 -22 51.999s-31.667 23 -51 23s-36.166 -7.66699 -50.499 -23s-21.5 -32.666 -21.5 -51.999v-70z" />
    <glyph glyph-name="p" unicode="p" horiz-adv-x="533" 
d="M46 -169v597.999c0 14 7.16699 25.333 21.5 34s31.833 13 52.5 13s37.667 -4.33301 51 -13s20 -20 20 -34v-23c12.667 21.333 31 39.333 55 54s50.667 22 80 22c50 0 92.333 -20.5 127 -61.5s52 -90.5 52 -148.5v-70c0 -56 -17.5 -105.333 -52.5 -148
s-75.5 -64 -121.5 -64c-28 0 -54.167 7.83301 -78.5 23.5s-41.5 34.5 -51.5 56.5v-239c0 -12 -7.83301 -23 -23.5 -33s-34.167 -15 -55.5 -15s-39.333 4.83301 -54 14.5s-22 20.834 -22 33.501zM201 188.999c0 -10.667 7.5 -23.998 22.5 -39.998s32.5 -24 52.5 -24
c19.333 0 36.5 7.83301 51.5 23.5s22.5 33.5 22.5 53.5v70c0 19.333 -7.5 36.666 -22.5 51.999s-32.833 23 -53.5 23c-19.333 0 -36.333 -6.83301 -51 -20.5s-22 -31.834 -22 -54.501v-83z" />
    <glyph glyph-name="q" unicode="q" horiz-adv-x="533" 
d="M28 202v70.001c0 58 17.333 107.5 52 148.5s77 61.5 127 61.5c29.333 0 56 -7.33301 80 -22s42.333 -32.667 55 -54v23c0 14 6.66699 25.333 20 34s30.333 13 51 13s38.167 -4.33301 52.5 -13s21.5 -20 21.5 -34v-598c0 -12.667 -7.33301 -23.834 -22 -33.501
s-32.667 -14.5 -54 -14.5s-39.833 5 -55.5 15s-23.5 21 -23.5 33v239c-10 -22 -27.167 -40.833 -51.5 -56.5s-50.5 -23.5 -78.5 -23.5c-46 0 -86.5 21.333 -121.5 64s-52.5 92 -52.5 148zM183 202.001c0 -20 7.5 -37.835 22.5 -53.502s32.167 -23.5 51.5 -23.5
c20 0 37.5 8 52.5 24s22.5 29.333 22.5 40v83c0 22.667 -7.33301 40.834 -22 54.501s-31.667 20.5 -51 20.5c-20.667 0 -38.5 -7.66699 -53.5 -23s-22.5 -32.666 -22.5 -51.999v-70z" />
    <glyph glyph-name="r" unicode="r" horiz-adv-x="394" 
d="M45 48l0.000976562 380.999c0 14 7.16699 25.333 21.5 34s32.5 13 54.5 13c19.333 0 35.666 -4.33301 48.999 -13s20 -20 20 -34v-37c10.667 24 27.167 45 49.5 63s45.5 27 69.5 27h29c14.667 0 27.5 -6.66699 38.5 -20s16.5 -29 16.5 -47
c0 -18.667 -5.5 -34.667 -16.5 -48s-23.833 -20 -38.5 -20h-29c-28.667 0 -54 -13.833 -76 -41.5s-33 -63.5 -33 -107.5v-150c0 -12 -7.83301 -23 -23.5 -33s-34.167 -15 -55.5 -15s-39.333 4.83301 -54 14.5s-22 20.834 -22 33.501z" />
    <glyph glyph-name="s" unicode="s" horiz-adv-x="429" 
d="M21 82c0 14 5 28.835 15 44.502s22 23.5 36 23.5c8 0 17.833 -3.66699 29.5 -11s26.334 -14.833 44.001 -22.5s38.167 -11.5 61.5 -11.5c41.333 0 62 11 62 33c0 12 -8 21.833 -24 29.5s-35.5 14.167 -58.5 19.5s-46 12.333 -69 21s-42.5 23 -58.5 43s-24 45.667 -24 77
c0 42.667 15 79 45 109s77.667 45 143 45c44.667 0 84.167 -6.83301 118.5 -20.5s51.5 -30.834 51.5 -51.501c0 -13.333 -5.33301 -28.833 -16 -46.5s-24 -26.5 -40 -26.5c-6.66699 0 -22 5 -46 15s-46 15 -66 15c-18.667 0 -32.834 -3.16699 -42.501 -9.5
s-14.5 -13.833 -14.5 -22.5c0 -10 8.16699 -18 24.5 -24s36 -11.833 59 -17.5s46 -13 69 -22s42.667 -24.333 59 -46s24.5 -48.834 24.5 -81.501c0 -48 -16.833 -85.667 -50.5 -113s-81.167 -41 -142.5 -41c-52 0 -96.667 9.16699 -134 27.5s-56 39.833 -56 64.5z" />
    <glyph glyph-name="t" unicode="t" horiz-adv-x="364" 
d="M43 169l-0.000976562 467.001c0 13.333 8 24.5 24 33.5s33.667 13.5 53 13.5c20.667 0 38.834 -4.5 54.501 -13.5s23.5 -20.167 23.5 -33.5v-160h113c12 0 21.333 -5.5 28 -16.5s10 -23.833 10 -38.5c0 -15.333 -3.33301 -28.333 -10 -39s-16 -16 -28 -16h-113v-197
c0 -14.667 3 -24.834 9 -30.501s16.667 -8.5 32 -8.5h43c21.333 0 37.666 -6.5 48.999 -19.5s17 -28.167 17 -45.5c0 -18 -5.66699 -33.333 -17 -46s-27.666 -19 -48.999 -19h-43c-130.667 -0 -196 56.333 -196 169z" />
    <glyph glyph-name="u" unicode="u" horiz-adv-x="535" 
d="M40 200l0.000976562 228c0 12 7.66699 23 23 33s33.666 15 54.999 15c20 0 37.833 -5 53.5 -15s23.5 -21 23.5 -33v-228c0 -19.333 7.33301 -36.666 22 -51.999s31.667 -23 51 -23s36.166 7.66699 50.499 23s21.5 32.666 21.5 51.999v229
c0 12.667 7.83301 23.667 23.5 33s33.834 14 54.501 14c22 0 40.333 -4.66699 55 -14s22 -20.333 22 -33v-229c0 -56 -22.5 -105 -67.5 -147s-98.167 -63 -159.5 -63c-62 0 -115.5 21 -160.5 63s-67.5 91 -67.5 147z" />
    <glyph glyph-name="v" unicode="v" horiz-adv-x="503" 
d="M1 418c0 16.667 11.999 31.6689 35.999 45.002s47 20 69 20s36.333 -8.33301 43 -25l103 -261l103 261c6.66699 16.667 20.667 25 42 25c18.667 0 40.834 -6.83301 66.501 -20.5s38.5 -28.834 38.5 -45.501c0 -6 -1.33301 -12 -4 -18l-176 -385
c-8 -18 -31.333 -27 -70 -27s-62 9 -70 27l-176 385c-3.33301 5.33301 -5 11.666 -5 18.999z" />
    <glyph glyph-name="w" unicode="w" horiz-adv-x="702" 
d="M2 420c0 16.667 11.502 31.166 34.502 43.499s45.5 18.5 67.5 18.5c23.333 0 37.666 -8 42.999 -24l89 -254l64 215c6 20 23 30 51 30s45 -10 51 -30l64 -215l89 254c5.33301 16 19.333 24 42 24c22 0 44.5 -6.33301 67.5 -19s34.5 -27.667 34.5 -45
c0 -7.33301 -1.33301 -13.666 -4 -18.999l-154 -385c-7.33301 -18 -27.333 -27 -60 -27c-36 0 -57.333 9 -64 27l-66 174l-66 -174c-6.66699 -18 -28.334 -27 -65.001 -27c-32 0 -51.667 9 -59 27l-154 385c-3.33301 8.66699 -5 15.667 -5 21z" />
    <glyph glyph-name="x" unicode="x" horiz-adv-x="493" 
d="M18 67c0 8.66699 2.99902 17.332 8.99902 25.999l113 150l-102 136c-6.66699 8.66699 -10 17 -10 25c0 16.667 12.333 33.834 37 51.501s47.334 26.5 68.001 26.5c15.333 0 26.333 -5.33301 33 -16l80 -131l81 130c6.66699 11.333 18.334 17 35.001 17
c19.333 0 41.333 -8.83301 66 -26.5s37 -34.834 37 -51.501c0 -7.33301 -3.33301 -15.666 -10 -24.999l-103 -137l114 -149c6 -7.33301 9 -16 9 -26c0 -16 -11.833 -32.833 -35.5 -50.5s-45.834 -26.5 -66.501 -26.5c-16 0 -27.667 5.33301 -35 16l-92 138l-91 -138
c-8 -10.667 -20.333 -16 -37 -16c-17.333 0 -38.333 8.66699 -63 26s-37 34.333 -37 51z" />
    <glyph glyph-name="y" unicode="y" 
d="M1 -151c0 42.667 12.6689 63.999 38.002 63.999c94.667 0 142 42.667 142 128l-175 348c-3.33301 6.66699 -5 13.334 -5 20.001c0 18.667 12 35.667 36 51s47 23 69 23s36.333 -8.33301 43 -25l113 -271l83 271c6.66699 16.667 20 25 40 25
c20.667 0 43.667 -7.83301 69 -23.5s38 -33.5 38 -53.5c0 -6.66699 -1.33301 -12.334 -4 -17.001l-142 -354c-3.33301 -9.33301 -9.33301 -25 -18 -47l-18 -46c-3.33301 -10 -9.5 -23.833 -18.5 -41.5s-17.333 -30.834 -25 -39.501s-18.167 -19 -31.5 -31
s-27.333 -20.667 -42 -26s-32.334 -10.166 -53.001 -14.499s-43.334 -6.5 -68.001 -6.5c-23.333 0 -41 4.33301 -53 13s-18 26.334 -18 53.001z" />
    <glyph glyph-name="z" unicode="z" horiz-adv-x="448" 
d="M18 54c0 19.333 9 40.667 27 64l177 233h-153c-12 0 -22.333 6.16699 -31 18.5s-13 27.166 -13 44.499s4 32 12 44s18.667 18 32 18h299c13.333 0 24.666 -4.33301 33.999 -13s14 -21.334 14 -38.001c0 -22.667 -8.33301 -45 -25 -67l-178 -233h177
c12 0 22.333 -6.16699 31 -18.5s13 -27.166 13 -44.499s-4 -32 -12 -44s-18.667 -18 -32 -18h-321c-17.333 0 -30.166 5.33301 -38.499 16s-12.5 23.334 -12.5 38.001z" />
    <glyph glyph-name="braceleft" unicode="{" horiz-adv-x="380" 
d="M17 387c0 16 3.16895 28.167 9.50195 36.5s13.166 13.5 20.499 15.5s14.166 5.33301 20.499 10s9.5 11.334 9.5 20.001c0 6 -2.5 25.167 -7.5 57.5s-7.5 54.5 -7.5 66.5c0 44.667 23 85 69 121s96 54 150 54c31.333 0 53.666 -6.5 66.999 -19.5s20 -29.167 20 -48.5
c0 -16 -4.16699 -30.5 -12.5 -43.5s-19.833 -19.5 -34.5 -19.5c-22.667 0 -45.5 -5 -68.5 -15s-34.5 -26.667 -34.5 -50c0 -8 2.5 -28.5 7.5 -61.5s7.5 -53.5 7.5 -61.5c0 -14 -4.33301 -27.833 -13 -41.5s-16.334 -21.5 -23.001 -23.5c8 -2 16 -9.5 24 -22.5
s12 -26.833 12 -41.5c0 -8.66699 -2.5 -35.334 -7.5 -80.001s-7.5 -70 -7.5 -76c0 -18.667 11.167 -32.167 33.5 -40.5s45.5 -12.5 69.5 -12.5c16.667 0 28.667 -6.83301 36 -20.5s11 -28.5 11 -44.5c0 -44 -29.667 -66 -89 -66c-55.333 0 -105.333 15.833 -150 47.5
s-67 70.5 -67 116.5c0 12.667 2.5 40.5 7.5 83.5s7.5 67.5 7.5 73.5c0 9.33301 -3.16699 16.5 -9.5 21.5s-13.166 8.5 -20.499 10.5s-14.166 7.5 -20.499 16.5s-9.5 21.5 -9.5 37.5z" />
    <glyph glyph-name="bar" unicode="|" horiz-adv-x="255" 
d="M50 27l-0.000976562 693.999c0 14 7.16699 25.333 21.5 34s32.833 13 55.5 13c22 0 40.5 -4.33301 55.5 -13s22.5 -20 22.5 -34v-694c0 -12 -7.66699 -23 -23 -33s-33.666 -15 -54.999 -15c-22 0 -40.333 4.83301 -55 14.5s-22 20.834 -22 33.501z" />
    <glyph glyph-name="braceright" unicode="}" horiz-adv-x="380" 
d="M12 46c0 16 3.66895 30.833 11.002 44.5s19.333 20.5 36 20.5c24 0 47.167 4.16699 69.5 12.5s33.5 21.833 33.5 40.5c0 6 -2.5 31.333 -7.5 76s-7.5 71.334 -7.5 80.001c0 14.667 4 28.5 12 41.5s16 20.5 24 22.5c-6.66699 2 -14.334 9.83301 -23.001 23.5
s-13 27.5 -13 41.5c0 8 2.5 28.5 7.5 61.5s7.5 53.5 7.5 61.5c0 23.333 -11.5 40 -34.5 50s-45.833 15 -68.5 15c-14.667 0 -26.167 6.5 -34.5 19.5s-12.5 27.5 -12.5 43.5c0 19.333 6.66699 35.5 20 48.5s35.666 19.5 66.999 19.5c54 0 104 -18 150 -54s69 -76.333 69 -121
c0 -12 -2.5 -34.167 -7.5 -66.5s-7.5 -51.5 -7.5 -57.5c0 -8.66699 3.16699 -15.334 9.5 -20.001s13.166 -8 20.499 -10s14.166 -7.16699 20.499 -15.5s9.5 -20.5 9.5 -36.5s-3.16699 -28.5 -9.5 -37.5s-13.166 -14.5 -20.499 -16.5s-14.166 -5.5 -20.499 -10.5
s-9.5 -12.167 -9.5 -21.5c0 -6 2.5 -30.5 7.5 -73.5s7.5 -70.833 7.5 -83.5c0 -46 -22.333 -84.833 -67 -116.5s-94.667 -47.5 -150 -47.5c-59.333 0 -89 22 -89 66z" />
    <glyph glyph-name="asciitilde" unicode="~" horiz-adv-x="411" 
d="M28 247c0 48.667 28.333 73 85 73c20.667 0 45.667 -4.5 75 -13.5s53 -13.5 71 -13.5c15.333 0 32 3.5 50 10.5s30 10.5 36 10.5c13.333 0 23 -5.83301 29 -17.5s9 -22.167 9 -31.5c0 -48.667 -28.333 -73 -85 -73c-25.333 0 -52.5 4.5 -81.5 13.5s-50.5 13.5 -64.5 13.5
c-15.333 0 -32 -3.5 -50 -10.5s-30 -10.5 -36 -10.5c-13.333 0 -23 5.83301 -29 17.5s-9 22.167 -9 31.5z" />
    <glyph glyph-name="uni00A0" unicode="&#xa0;" horiz-adv-x="200" 
 />
    <glyph glyph-name="exclamdown" unicode="&#xa1;" horiz-adv-x="229" 
d="M37 654c0 20.667 7.5 38.667 22.5 54s32.833 23 53.5 23c21.333 0 39.5 -7.66699 54.5 -23s22.5 -33.333 22.5 -54c0 -21.333 -7.33301 -39.5 -22 -54.5s-33 -22.5 -55 -22.5c-20.667 0 -38.5 7.66699 -53.5 23s-22.5 33.333 -22.5 54zM42 55
c0 39.333 2.33398 107.333 7.00098 204s7 165 7 205c0 14 6.16699 24.833 18.5 32.5s25.5 11.5 39.5 11.5c39.333 0 59 -14.667 59 -44c0 -40 2.33301 -108.333 7 -205s7 -164.667 7 -204c0 -18.667 -6.83301 -33.5 -20.5 -44.5s-31.167 -16.5 -52.5 -16.5
c-20.667 0 -37.834 5.5 -51.501 16.5s-20.5 25.833 -20.5 44.5z" />
    <glyph glyph-name="cent" unicode="&#xa2;" horiz-adv-x="448" 
d="M23 362l0.00292969 18.001c0 58.667 16.167 107 48.5 145s80.833 60 145.5 66v64c0 12 4.16699 21.667 12.5 29s18.5 11 30.5 11s22.333 -3.83301 31 -11.5s13 -17.167 13 -28.5v-68c34 -5.33301 61.333 -15.333 82 -30s31 -30.667 31 -48
c0 -16 -5.83301 -31.833 -17.5 -47.5s-25.834 -23.5 -42.501 -23.5c-4.66699 0 -9.66699 1.16699 -15 3.5s-11.5 5.5 -18.5 9.5s-13.5 7 -19.5 9v-177c5.33301 2.66699 11.5 6.16699 18.5 10.5s13.167 7.83301 18.5 10.5s10.666 4 15.999 4
c19.333 0 35.166 -7.5 47.499 -22.5s18.5 -30.833 18.5 -47.5c0 -18 -11.167 -34.833 -33.5 -50.5s-50.833 -26.834 -85.5 -33.501v-73c0 -10.667 -4.5 -20.334 -13.5 -29.001s-19.167 -13 -30.5 -13c-12 0 -22.167 4.33301 -30.5 13s-12.5 18.334 -12.5 29.001v70
c-65.333 6 -114 27.833 -146 65.5s-48 86.167 -48 145.5zM158.003 362.001c0 -44.667 19.667 -72 59 -82v182c-39.333 -10 -59 -37.333 -59 -82v-18z" />
    <glyph glyph-name="sterling" unicode="&#xa3;" horiz-adv-x="565" 
d="M20 68c0 18.667 4 34.667 12 48s19 20 33 20h50l32 230h-47c-12 0 -21.333 5.33301 -28 16s-10 23.667 -10 39c0 14.667 3.33301 27.5 10 38.5s16 16.5 28 16.5h63l10 69c9.33301 64.667 40 118 92 160s111 63 177 63h42c15.333 0 27.5 -6.66699 36.5 -20
s13.5 -29 13.5 -47s-4.5 -33.833 -13.5 -47.5s-21.167 -20.5 -36.5 -20.5h-47c-64.667 0 -101 -29.333 -109 -88l-10 -69h107c12 0 21.333 -5.5 28 -16.5s10 -23.833 10 -38.5c0 -15.333 -3.33301 -28.333 -10 -39s-16 -16 -28 -16h-123l-33 -230h220
c14 0 25 -6.66699 33 -20s12 -29.333 12 -48s-4 -34.667 -12 -48s-19 -20 -33 -20h-424c-14 0 -25 6.66699 -33 20s-12 29.333 -12 48z" />
    <glyph glyph-name="currency" unicode="&#xa4;" horiz-adv-x="440" 
d="M42 335c0 4.66699 2 9.00098 6 13.001l26 24c-20.667 30 -31 63.333 -31 100s10.333 70 31 100l-26 24c-4 4 -6 8.33301 -6 13c0 7.33301 3.16699 14.333 9.5 21s13.5 10 21.5 10c5.33301 0 10 -1.66699 14 -5l24 -22c32.667 26 69 39 109 39
c39.333 0 75.666 -13 108.999 -39l24 22c4 3.33301 8.66699 5 14 5c8 0 15.167 -3.33301 21.5 -10s9.5 -13.667 9.5 -21c0 -4.66699 -2 -9 -6 -13l-26 -24c21.333 -30 32 -63 32 -99c0 -36.667 -10.667 -70.334 -32 -101.001l26 -24c4 -4 6 -8.33301 6 -13
c0 -7.33301 -3.16699 -14.333 -9.5 -21s-13.5 -10 -21.5 -10c-5.33301 0 -10 1.66699 -14 5l-24 22c-32.667 -27.333 -69 -41 -109 -41c-39.333 0 -75.666 13.333 -108.999 40l-24 -21c-4 -3.33301 -8.66699 -5 -14 -5c-8 0 -15.167 3.33301 -21.5 10s-9.5 13.667 -9.5 21z
M123 472.001c0 -26.667 9.5 -50.167 28.5 -70.5s41.833 -30.5 68.5 -30.5s49.667 10.167 69 30.5s29 43.5 29 69.5s-9.66699 49.167 -29 69.5s-42.333 30.5 -69 30.5s-49.5 -10 -68.5 -30s-28.5 -43 -28.5 -69z" />
    <glyph glyph-name="yen" unicode="&#xa5;" horiz-adv-x="587" 
d="M20 674c0 15.333 10.498 29.834 31.498 43.501s41.833 20.5 62.5 20.5c10 0 17.833 -2.83301 23.5 -8.5s11.834 -14.834 18.501 -27.501l138 -251l137 251c6.66699 12.667 12.834 21.834 18.501 27.501s13.5 8.5 23.5 8.5c20 0 40.667 -7 62 -21s32 -28 32 -42
c0 -7.33301 -1.66699 -13.666 -5 -18.999l-156 -239h49c12 0 23 -5.33301 33 -16s15 -23.334 15 -38.001c0 -15.333 -4.83301 -28 -14.5 -38s-20.834 -15 -33.501 -15h-83v-60h83c12 0 23 -5.33301 33 -16s15 -23.334 15 -38.001s-4.83301 -27.167 -14.5 -37.5
s-20.834 -15.5 -33.501 -15.5h-83v-95c0 -15.333 -7.66699 -27.166 -23 -35.499s-33.666 -12.5 -54.999 -12.5s-39.666 4.16699 -54.999 12.5s-23 20.166 -23 35.499v95h-81c-14 0 -25.333 4.83301 -34 14.5s-13 22.167 -13 37.5c0 16 4.33301 29.167 13 39.5
s20 15.5 34 15.5h81v60h-81c-14 0 -25.333 4.83301 -34 14.5s-13 22.167 -13 37.5c0 16 4.33301 29.167 13 39.5s20 15.5 34 15.5h46l-156 239c-3.33301 4 -5 10 -5 18z" />
    <glyph glyph-name="brokenbar" unicode="&#xa6;" horiz-adv-x="255" 
d="M50 27l-0.000976562 240.999c0 14 7.16699 25.333 21.5 34s32.833 13 55.5 13c22 0 40.5 -4.33301 55.5 -13s22.5 -20 22.5 -34v-241c0 -12 -7.66699 -23 -23 -33s-33.666 -15 -54.999 -15c-22 0 -40.333 4.83301 -55 14.5s-22 20.834 -22 33.501zM49.999 479.999
l-0.000976562 240.999c0 14 7.16699 25.333 21.5 34s32.833 13 55.5 13c22 0 40.5 -4.33301 55.5 -13s22.5 -20 22.5 -34v-241c0 -12 -7.66699 -23 -23 -33s-33.666 -15 -54.999 -15c-22 0 -40.333 4.83301 -55 14.5s-22 20.834 -22 33.501z" />
    <glyph glyph-name="section" unicode="&#xa7;" horiz-adv-x="485" 
d="M38 99c0 22.667 5.3291 38.334 15.9961 47.001s27 13 49 13c44 0 66 -13.667 66 -41c0 -40 20 -60 60 -60c22.667 0 39.334 5 50.001 15s16 22.333 16 37c0 18.667 -8.83301 34.5 -26.5 47.5s-39.167 25.167 -64.5 36.5s-50.5 24.666 -75.5 39.999s-46.333 38.5 -64 69.5
s-26.5 68.833 -26.5 113.5v100c0 41.333 6.33301 76.666 19 105.999s29.667 51.5 51 66.5s43 25.667 65 32s45 9.5 69 9.5c60 0 106.5 -17.167 139.5 -51.5s49.5 -73.5 49.5 -117.5c0 -22.667 -4.66699 -38.167 -14 -46.5s-23.666 -12.5 -42.999 -12.5
c-43.333 0 -65 15.667 -65 47c0 38 -20.667 57 -62 57c-22.667 0 -39.5 -5.5 -50.5 -16.5s-16.5 -23.833 -16.5 -38.5c0 -18.667 9.33301 -34.5 28 -47.5s41.334 -25.167 68.001 -36.5s53.167 -24.666 79.5 -39.999s48.833 -38.5 67.5 -69.5s28 -68.833 28 -113.5v-100
c0 -41.333 -6.66699 -76.666 -20 -105.999s-31.166 -51.5 -53.499 -66.5s-45 -25.667 -68 -32s-47.167 -9.5 -72.5 -9.5c-62.667 0 -111.5 17.167 -146.5 51.5s-52.5 73.166 -52.5 116.499zM164.996 384c0 -21.333 6.33301 -39.666 19 -54.999s26.667 -26.333 42 -33l55 -24
c20.667 -8.66699 35.667 -16.667 45 -24v18c0 21.333 -6.33301 39.666 -19 54.999s-27 26.333 -43 33l-54 24c-20.667 8.66699 -35.667 16.667 -45 24v-18z" />
    <glyph glyph-name="dieresis" unicode="&#xa8;" horiz-adv-x="273" 
d="M0 630c0 15.333 5.66699 28.833 17 40.5s24.666 17.5 39.999 17.5s28.5 -5.83301 39.5 -17.5s16.5 -25.167 16.5 -40.5c0 -16 -5.5 -29.833 -16.5 -41.5s-24.167 -17.5 -39.5 -17.5s-28.666 6 -39.999 18s-17 25.667 -17 41zM160 630c0 15.333 5.66699 28.833 17 40.5
s24.666 17.5 39.999 17.5s28.5 -5.83301 39.5 -17.5s16.5 -25.167 16.5 -40.5c0 -16 -5.5 -29.833 -16.5 -41.5s-24.167 -17.5 -39.5 -17.5s-28.666 6 -39.999 18s-17 25.667 -17 41z" />
    <glyph glyph-name="copyright" unicode="&#xa9;" horiz-adv-x="680" 
d="M33 358c0 53.333 9.5 101.5 28.5 144.5s43.833 77.333 74.5 103s63.834 45.334 99.501 59.001s71.5 20.5 107.5 20.5s71.667 -6.83301 107 -20.5s67.833 -33.334 97.5 -59.001s53.667 -59.667 72 -102s27.5 -89.5 27.5 -141.5c0 -53.333 -9.5 -101.5 -28.5 -144.5
s-43.833 -77.333 -74.5 -103s-63.834 -45.334 -99.501 -59.001s-71.5 -20.5 -107.5 -20.5s-71.667 6.83301 -107 20.5s-67.833 33.334 -97.5 59.001s-53.667 59.667 -72 102s-27.5 89.5 -27.5 141.5zM103 358c0 -74.667 21.1689 -135.5 63.502 -182.5
s99.166 -70.5 170.499 -70.5s129.166 23.667 173.499 71s66.5 109.333 66.5 186c0 74.667 -21.333 135.5 -64 182.5s-99.334 70.5 -170.001 70.5c-71.333 0 -129.166 -23.667 -173.499 -71s-66.5 -109.333 -66.5 -186zM216.002 302l0.000976562 130
c0 45.333 11.5 78.5 34.5 99.5s53.167 31.5 90.5 31.5c38 0 69.167 -9.83301 93.5 -29.5s36.5 -46.5 36.5 -80.5c0 -15.333 -3.16699 -25.833 -9.5 -31.5s-16.5 -8.5 -30.5 -8.5c-26.667 0 -40.334 8.66699 -41.001 26c-2 34 -17.333 51 -46 51
c-31.333 0 -47 -19.333 -47 -58v-130c0 -38.667 15.667 -58 47 -58c12.667 0 22.667 3.66699 30 11s11.5 14 12.5 20s2.16699 14.667 3.5 26c0.666992 16.667 14 25 40 25c14.667 0 25.167 -2.83301 31.5 -8.5s9.5 -16.167 9.5 -31.5c0 -35.333 -12.167 -63.333 -36.5 -84
s-55.5 -31 -93.5 -31c-37.333 0 -67.5 10.5 -90.5 31.5s-34.5 54.167 -34.5 99.5z" />
    <glyph glyph-name="ordfeminine" unicode="&#xaa;" horiz-adv-x="338" 
d="M21 524c0 37.333 13.8301 63.667 41.4971 79s66.834 23 117.501 23h25v7c0 14.667 -4.33301 27.334 -13 38.001s-22 16 -40 16c-21.333 0 -39.166 -3.66699 -53.499 -11s-22.833 -11 -25.5 -11c-10 0 -18.167 5.16699 -24.5 15.5s-9.5 21.833 -9.5 34.5
c0 14.667 12.333 27.167 37 37.5s50.334 15.5 77.001 15.5c51.333 0 89.5 -12.833 114.5 -38.5s37.5 -57.5 37.5 -95.5v-163c0 -8.66699 -4.66699 -16 -14 -22s-21 -9 -35 -9c-12.667 0 -23.167 3 -31.5 9s-12.5 13.333 -12.5 22v17
c-23.333 -26.667 -47.666 -43.334 -72.999 -50.001c-8.66699 -2.66699 -19.334 -4 -32.001 -4c-24.667 0.666992 -45.167 8.66699 -61.5 24s-24.5 37.333 -24.5 66zM121.997 538.001c0 -20.667 9.66602 -31.001 28.999 -31.001c12.667 0 24.834 6.33301 36.501 19
s17.5 27.334 17.5 44.001v6h-18c-43.333 0 -65 -12.667 -65 -38z" />
    <glyph glyph-name="guillemotleft" unicode="&#xab;" horiz-adv-x="537" 
d="M21 276c0 5.33301 1 10.333 3 15s6 11.667 12 21l13 24l67 125c6.66699 12.667 20.667 19 42 19c24.667 0 47.167 -8.83301 67.5 -26.5s30.5 -34.834 30.5 -51.501c0 -5.33301 -1 -10 -3 -14l-59 -111l59 -111c2 -4 3 -8.66699 3 -14
c0 -16.667 -10.167 -33.834 -30.5 -51.501s-42.833 -26.5 -67.5 -26.5c-21.333 0 -35.333 6.33301 -42 19l-67 125c-3.33301 6.66699 -7.83301 14.334 -13.5 23.001s-9.5 15.334 -11.5 20.001s-3 9.66699 -3 15zM271 276c0 5.33301 1 10.333 3 15s6 11.667 12 21l13 24
l67 125c6.66699 12.667 20.667 19 42 19c24.667 0 47.167 -8.83301 67.5 -26.5s30.5 -34.834 30.5 -51.501c0 -5.33301 -1 -10 -3 -14l-59 -111l59 -111c2 -4 3 -8.66699 3 -14c0 -16.667 -10.167 -33.834 -30.5 -51.501s-42.833 -26.5 -67.5 -26.5
c-21.333 0 -35.333 6.33301 -42 19l-67 125c-3.33301 6.66699 -7.83301 14.334 -13.5 23.001s-9.5 15.334 -11.5 20.001s-3 9.66699 -3 15z" />
    <glyph glyph-name="logicalnot" unicode="&#xac;" horiz-adv-x="504" 
d="M26 240c0 18 4.33105 33.165 12.998 45.498s20 18.5 34 18.5h341c12.667 0 23.834 -6.33301 33.501 -19s14.5 -27.667 14.5 -45v-129c0 -12 -7.66699 -23 -23 -33s-33.666 -15 -54.999 -15c-22 0 -40.333 4.83301 -55 14.5s-22 20.834 -22 33.501v66h-234
c-14 0 -25.333 5.83301 -34 17.5s-13 26.834 -13 45.501z" />
    <glyph glyph-name="uni00AD" unicode="&#xad;" horiz-adv-x="476" 
d="M31 240c0 18 4.33301 33.166 13 45.499s20 18.5 34 18.5h320c12.667 0 23.834 -6.33301 33.501 -19s14.5 -27.667 14.5 -45c0 -18 -4.83301 -33 -14.5 -45s-20.834 -18 -33.501 -18h-320c-14 0 -25.333 5.83301 -34 17.5s-13 26.834 -13 45.501z" />
    <glyph glyph-name="registered" unicode="&#xae;" horiz-adv-x="680" 
d="M33 358c0 53.333 9.5 101.5 28.5 144.5s43.833 77.333 74.5 103s63.834 45.334 99.501 59.001s71.5 20.5 107.5 20.5s71.667 -6.83301 107 -20.5s67.833 -33.334 97.5 -59.001s53.667 -59.667 72 -102s27.5 -89.5 27.5 -141.5c0 -53.333 -9.5 -101.5 -28.5 -144.5
s-43.833 -77.333 -74.5 -103s-63.834 -45.334 -99.501 -59.001s-71.5 -20.5 -107.5 -20.5s-71.667 6.83301 -107 20.5s-67.833 33.334 -97.5 59.001s-53.667 59.667 -72 102s-27.5 89.5 -27.5 141.5zM103 358c0 -74.667 21.1689 -135.5 63.502 -182.5
s99.166 -70.5 170.499 -70.5s129.166 23.667 173.499 71s66.5 109.333 66.5 186c0 74.667 -21.333 135.5 -64 182.5s-99.334 70.5 -170.001 70.5c-71.333 0 -129.166 -23.667 -173.499 -71s-66.5 -109.333 -66.5 -186zM228.002 208v313.999c0 6.66699 2.33301 12.5 7 17.5
s10.667 7.5 18 7.5h101c36 0 65.333 -8.5 88 -25.5s34 -44.5 34 -82.5c0 -51.333 -21 -85.333 -63 -102l59 -108c0.666992 -1.33301 1 -3.66602 1 -6.99902c0 -10 -4.33301 -19.333 -13 -28s-18 -13 -28 -13c-9.33301 0 -17 5.66699 -23 17l-63 126h-42v-116
c0 -8 -3.5 -14.333 -10.5 -19s-15.5 -7 -25.5 -7c-10.667 0 -20 2.33301 -28 7s-12 11 -12 19zM304.002 387.999h50c31.333 0 47 14.333 47 43c0 32.667 -15.667 49 -47 49h-50v-92z" />
    <glyph glyph-name="macron" unicode="&#xaf;" horiz-adv-x="295" 
d="M0 649c0 14 4.33301 25.833 13 35.5s20 14.5 34 14.5h200c12.667 0 23.834 -4.83301 33.501 -14.5s14.5 -21.5 14.5 -35.5s-4.83301 -25.667 -14.5 -35s-20.834 -14 -33.501 -14h-200c-14 0 -25.333 4.5 -34 13.5s-13 20.833 -13 35.5z" />
    <glyph glyph-name="degree" unicode="&#xb0;" horiz-adv-x="389" 
d="M17 588c0 48 17.499 90.001 52.499 126.001s76.5 54 124.5 54s89.667 -17.667 125 -53s53 -77.333 53 -126s-17.833 -91.334 -53.5 -128.001s-77.167 -55 -124.5 -55s-88.666 18.333 -123.999 55s-53 79 -53 127zM96.999 588.001c0 -26.667 9.5 -50.167 28.5 -70.5
s41.833 -30.5 68.5 -30.5s49.667 10.167 69 30.5s29 43.5 29 69.5s-9.66699 49.167 -29 69.5s-42.333 30.5 -69 30.5s-49.5 -10 -68.5 -30s-28.5 -43 -28.5 -69z" />
    <glyph glyph-name="plusminus" unicode="&#xb1;" horiz-adv-x="473" 
d="M29 85c0 18 4.33301 33.166 13 45.499s20 18.5 34 18.5h320c12.667 0 23.834 -6.33301 33.501 -19s14.5 -27.667 14.5 -45c0 -18 -4.83301 -33 -14.5 -45s-20.834 -18 -33.501 -18h-320c-14 0 -25.333 5.83301 -34 17.5s-13 26.834 -13 45.501zM29 374.999
c0 18 4.33398 33.166 13.001 45.499s20 18.5 34 18.5h97v86c0 12.667 6.33301 23.834 19 33.501s27.667 14.5 45 14.5c18 0 33 -4.83301 45 -14.5s18 -20.834 18 -33.501v-86h96c12.667 0 23.834 -6.33301 33.501 -19s14.5 -27.667 14.5 -45c0 -18 -4.83301 -33 -14.5 -45
s-20.834 -18 -33.501 -18h-96v-87c0 -14 -5.83301 -25.333 -17.5 -34s-26.834 -13 -45.501 -13c-18 0 -33.167 4.33301 -45.5 13s-18.5 20 -18.5 34v87h-97c-14 0 -25.333 5.83301 -34 17.5s-13 26.834 -13 45.501z" />
    <glyph glyph-name="uni00B2" unicode="&#xb2;" horiz-adv-x="326" 
d="M19 352l0.000976562 54.998c0 19.333 9.66699 39 29 59s40.833 37 64.5 51s45.167 29.5 64.5 46.5s29 32.5 29 46.5c0 8 -3.33301 15.167 -10 21.5s-17 9.5 -31 9.5c-27.333 0 -41 -12 -41 -36c0 -9.33301 -4.83301 -17.666 -14.5 -24.999s-22.5 -11 -38.5 -11
c-30 0 -45 17 -45 51s13.667 61 41 81s59.666 30 96.999 30c38 0 71.333 -10.333 100 -31s43 -49.667 43 -87c0 -26.667 -9.5 -51.5 -28.5 -74.5s-40 -41 -63 -54s-44 -26 -63 -39s-28.5 -23.833 -28.5 -32.5v-4h152c8 0 15 -4.33301 21 -13s9 -18.667 9 -30
s-3 -21.5 -9 -30.5s-13 -13.5 -21 -13.5h-213c-10 0 -19.833 2.83301 -29.5 8.5s-14.5 12.834 -14.5 21.501z" />
    <glyph glyph-name="uni00B3" unicode="&#xb3;" horiz-adv-x="336" 
d="M15 428c0 14 3.50195 23.335 10.502 28.002s19.5 7 37.5 7c20 0 33.5 -2.33301 40.5 -7s10.5 -13 10.5 -25c0 -8 3 -13.833 9 -17.5s11.833 -5.83398 17.5 -6.50098s13.5 -1 23.5 -1c19.333 0 32.666 3 39.999 9s11 16.667 11 32v11c0 15.333 -4.5 25.333 -13.5 30
s-22.5 7 -40.5 7c-19.333 0 -29 12.667 -29 38s9.66699 38.333 29 39c7.33301 0.666992 12.5 1.16699 15.5 1.5s7.16699 1.66602 12.5 3.99902s9.16602 6.5 11.499 12.5s3.5 13.667 3.5 23c0 22 -13.667 33 -41 33c-10.667 0 -18.167 -0.333008 -22.5 -1
s-8.33301 -2.5 -12 -5.5s-5.5 -7.83301 -5.5 -14.5c0 -23.333 -15.667 -35 -47 -35c-22.667 0 -37 2.5 -43 7.5s-9 15.167 -9 30.5c0 28 11.167 52.167 33.5 72.5s57.5 30.5 105.5 30.5c91.333 0 137 -34 137 -102c0 -20 -4 -38.667 -12 -56s-19.333 -29 -34 -35
c40.667 -13.333 61 -40 61 -80v-11c0 -44 -14.167 -76.333 -42.5 -97s-65.833 -31 -112.5 -31c-48 0 -84.167 11.167 -108.5 33.5s-36.5 47.5 -36.5 75.5z" />
    <glyph glyph-name="acute" unicode="&#xb4;" horiz-adv-x="221" 
d="M0 617c0 16.667 6.66699 28.333 20 35l140 65c5.33301 2 10 3 14 3c12.667 0 23.667 -6.16699 33 -18.5s14 -25.5 14 -39.5c0 -16 -6.66699 -27.333 -20 -34l-140 -65c-6.66699 -2.66699 -11.667 -4 -15 -4c-12.667 0 -23.5 6.16699 -32.5 18.5s-13.5 25.5 -13.5 39.5z
" />
    <glyph glyph-name="uni00B5" unicode="&#xb5;" horiz-adv-x="529" 
d="M51 -169l0.000976562 596.999c0 12 7.66699 23 23 33s33.666 15 54.999 15c20 0 37.833 -5 53.5 -15s23.5 -21 23.5 -33v-228c0 -19.333 7.33301 -36.666 22 -51.999s31.667 -23 51 -23s36.166 7.66699 50.499 23s21.5 32.666 21.5 51.999v229
c0 12.667 7.83301 23.667 23.5 33s33.834 14 54.501 14c22 0 40.333 -4.66699 55 -14s22 -20.333 22 -33v-229c0 -56 -22.333 -105 -67 -147s-98 -63 -160 -63c-32 0 -63 9.66699 -93 29v-188c0 -12 -5.83301 -23 -17.5 -33s-25.5 -15 -41.5 -15
c-21.333 0 -39.333 4.83301 -54 14.5s-22 20.834 -22 33.501z" />
    <glyph glyph-name="paragraph" unicode="&#xb6;" horiz-adv-x="572" 
d="M22 513l-0.00488281 12c0 71.333 17.833 123.5 53.5 156.5s83.167 49.5 142.5 49.5h247c12.667 0 23.834 -4.16699 33.501 -12.5s14.5 -20.166 14.5 -35.499v-636c0 -15.333 -4.66699 -27 -14 -35s-20.666 -12 -33.999 -12s-24.666 4 -33.999 12s-14 19.667 -14 35v618
h-85v-617c0 -15.333 -4.66699 -27.166 -14 -35.499s-20.666 -12.5 -33.999 -12.5s-24.666 4.16699 -33.999 12.5s-14 20.166 -14 35.499v258h-18c-59.333 0 -106.833 16.667 -142.5 50s-53.5 85.666 -53.5 156.999z" />
    <glyph glyph-name="periodcentered" unicode="&#xb7;" horiz-adv-x="213" 
d="M25 300c0 19.333 8 36 24 50s35.333 21 58 21c22 0 41 -7 57 -21s24 -30.667 24 -50s-8 -36.166 -24 -50.499s-35 -21.5 -57 -21.5c-22.667 0 -42 7.16699 -58 21.5s-24 31.166 -24 50.499z" />
    <glyph glyph-name="cedilla" unicode="&#xb8;" horiz-adv-x="199" 
d="M0 -188c0 6.66699 2.33203 15.334 6.99902 26.001s11 16 19 16c2.66699 0 10 -2.33301 22 -7s24 -7 36 -7c30.667 0 46 10.333 46 31c0 20 -14.333 31.333 -43 34l-62 6l29 98h64l-19 -56c32.667 -1.33301 57.5 -9.33301 74.5 -24s25.5 -33 25.5 -55
c0 -22.667 -8.66699 -43.834 -26 -63.501s-45.666 -29.5 -84.999 -29.5c-21.333 0 -41.333 2.83301 -60 8.5s-28 13.167 -28 22.5z" />
    <glyph glyph-name="uni00B9" unicode="&#xb9;" horiz-adv-x="201" 
d="M1 657c0 15.333 6 26.333 18 33l84 40c4.66699 2 10.334 3 17.001 3c11.333 0 21.666 -2.83301 30.999 -8.5s14 -13.167 14 -22.5v-350c0 -9.33301 -5 -16.666 -15 -21.999s-21.667 -8 -35 -8c-14 0 -26 2.66699 -36 8s-15 12.666 -15 21.999v273l-16 -4
c-6 -2 -11.333 -3 -16 -3c-8.66699 0 -16 4 -22 12s-9 17 -9 27z" />
    <glyph glyph-name="ordmasculine" unicode="&#xba;" horiz-adv-x="349" 
d="M22 576l0.00195312 50c0 38 14.833 71.167 44.5 99.5s65.5 42.5 107.5 42.5c41.333 0 77.166 -14 107.499 -42s45.5 -61.333 45.5 -100v-50c0 -38 -15.333 -71.333 -46 -100s-66.334 -43 -107.001 -43s-76.167 14.333 -106.5 43s-45.5 62 -45.5 100zM122.002 576
c0 -14.667 5.16699 -27.5 15.5 -38.5s22.5 -16.5 36.5 -16.5c14.667 0 27.167 5.5 37.5 16.5s15.5 23.833 15.5 38.5v50c0 14 -5.33301 26.5 -16 37.5s-23 16.5 -37 16.5s-26.167 -5.5 -36.5 -16.5s-15.5 -23.5 -15.5 -37.5v-50z" />
    <glyph glyph-name="guillemotright" unicode="&#xbb;" horiz-adv-x="537" 
d="M31 152c0 5.33301 1 10 3 14l59 111l-59 111c-2 4 -3 8.66699 -3 14c0 16.667 10.167 33.834 30.5 51.501s42.833 26.5 67.5 26.5c22 0 36 -6.33301 42 -19l67 -125l11 -20l9 -15c2 -3.33301 3.83301 -7.33301 5.5 -12s2.5 -9 2.5 -13c0 -5.33301 -1 -10.333 -3 -15
s-5.83301 -11.334 -11.5 -20.001s-10.167 -16.334 -13.5 -23.001l-67 -125c-6 -12.667 -20 -19 -42 -19c-24.667 0 -47.167 8.83301 -67.5 26.5s-30.5 34.834 -30.5 51.501zM281 152c0 5.33301 1 10 3 14l59 111l-59 111c-2 4 -3 8.66699 -3 14
c0 16.667 10.167 33.834 30.5 51.501s42.833 26.5 67.5 26.5c22 0 36 -6.33301 42 -19l67 -125l11 -20l9 -15c2 -3.33301 3.83301 -7.33301 5.5 -12s2.5 -9 2.5 -13c0 -5.33301 -1 -10.333 -3 -15s-5.83301 -11.334 -11.5 -20.001s-10.167 -16.334 -13.5 -23.001l-67 -125
c-6 -12.667 -20 -19 -42 -19c-24.667 0 -47.167 8.83301 -67.5 26.5s-30.5 34.834 -30.5 51.501z" />
    <glyph glyph-name="onequarter" unicode="&#xbc;" horiz-adv-x="691" 
d="M23 657c0 15.333 6 26.333 18 33l84 40c4.66699 2 10.334 3 17.001 3c11.333 0 21.666 -2.83301 30.999 -8.5s14 -13.167 14 -22.5v-350c0 -9.33301 -5 -16.666 -15 -21.999s-21.667 -8 -35 -8c-14 0 -26 2.66699 -36 8s-15 12.666 -15 21.999v273l-16 -4
c-6 -2 -11.333 -3 -16 -3c-8.66699 0 -16 4 -22 12s-9 17 -9 27zM81 7c0 6 1.66699 12.332 5 18.999l351 721c8 16.667 22 25 42 25c14.667 0 28.167 -5 40.5 -15s18.5 -22.667 18.5 -38c0 -7.33301 -1.33301 -13.666 -4 -18.999l-352 -721c-8 -16.667 -23 -25 -45 -25
c-16 0 -29.333 5.5 -40 16.5s-16 23.167 -16 36.5zM345 117.999c0 6 1.66602 12 4.99902 18l137 248c9.33301 16.667 23.333 25 42 25c10 0 20.833 -3.5 32.5 -10.5s17.5 -15.833 17.5 -26.5c0 -4 -1 -8 -3 -12l-102 -184h43v21c0 10 4.83301 17.5 14.5 22.5
s21.5 7.5 35.5 7.5c34 0 51 -10 51 -30v-21h25c9.33301 0 16.666 -4.5 21.999 -13.5s8 -19.833 8 -32.5c0 -11.333 -3.16699 -21.833 -9.5 -31.5s-13.166 -14.5 -20.499 -14.5h-25v-54c0 -9.33301 -5 -16.666 -15 -21.999s-22 -8 -36 -8c-13.333 0 -25 2.66699 -35 8
s-15 12.666 -15 21.999v54h-139c-9.33301 0 -17.166 3 -23.499 9s-9.5 14.333 -9.5 25z" />
    <glyph glyph-name="onehalf" unicode="&#xbd;" horiz-adv-x="674" 
d="M21 657c0 15.333 6 26.333 18 33l84 40c4.66699 2 10.334 3 17.001 3c11.333 0 21.666 -2.83301 30.999 -8.5s14 -13.167 14 -22.5v-350c0 -9.33301 -5 -16.666 -15 -21.999s-21.667 -8 -35 -8c-14 0 -26 2.66699 -36 8s-15 12.666 -15 21.999v273l-16 -4
c-6 -2 -11.333 -3 -16 -3c-8.66699 0 -16 4 -22 12s-9 17 -9 27zM63 7c0 6 1.66699 12.332 5 18.999l351 721c8 16.667 22 25 42 25c14.667 0 28.167 -5 40.5 -15s18.5 -22.667 18.5 -38c0 -7.33301 -1.33301 -13.666 -4 -18.999l-352 -721c-8 -16.667 -23 -25 -45 -25
c-16 0 -29.333 5.5 -40 16.5s-16 23.167 -16 36.5zM360 29.999l0.000976562 54.998c0 19.333 9.66699 39 29 59s40.833 37 64.5 51s45.167 29.5 64.5 46.5s29 32.5 29 46.5c0 8 -3.33301 15.167 -10 21.5s-17 9.5 -31 9.5c-27.333 0 -41 -12 -41 -36
c0 -9.33301 -4.83301 -17.666 -14.5 -24.999s-22.5 -11 -38.5 -11c-30 0 -45 17 -45 51s13.667 61 41 81s59.666 30 96.999 30c38 0 71.333 -10.333 100 -31s43 -49.667 43 -87c0 -26.667 -9.5 -51.5 -28.5 -74.5s-40 -41 -63 -54s-44 -26 -63 -39
s-28.5 -23.833 -28.5 -32.5v-4h152c8 0 15 -4.33301 21 -13s9 -18.667 9 -30s-3 -21.5 -9 -30.5s-13 -13.5 -21 -13.5h-213c-10 0 -19.833 2.83301 -29.5 8.5s-14.5 12.834 -14.5 21.501z" />
    <glyph glyph-name="threequarters" unicode="&#xbe;" horiz-adv-x="826" 
d="M27 428c0 14 3.50195 23.335 10.502 28.002s19.5 7 37.5 7c20 0 33.5 -2.33301 40.5 -7s10.5 -13 10.5 -25c0 -8 3 -13.833 9 -17.5s11.833 -5.83398 17.5 -6.50098s13.5 -1 23.5 -1c19.333 0 32.666 3 39.999 9s11 16.667 11 32v11c0 15.333 -4.5 25.333 -13.5 30
s-22.5 7 -40.5 7c-19.333 0 -29 12.667 -29 38s9.66699 38.333 29 39c7.33301 0.666992 12.5 1.16699 15.5 1.5s7.16699 1.66602 12.5 3.99902s9.16602 6.5 11.499 12.5s3.5 13.667 3.5 23c0 22 -13.667 33 -41 33c-10.667 0 -18.167 -0.333008 -22.5 -1
s-8.33301 -2.5 -12 -5.5s-5.5 -7.83301 -5.5 -14.5c0 -23.333 -15.667 -35 -47 -35c-22.667 0 -37 2.5 -43 7.5s-9 15.167 -9 30.5c0 28 11.167 52.167 33.5 72.5s57.5 30.5 105.5 30.5c91.333 0 137 -34 137 -102c0 -20 -4 -38.667 -12 -56s-19.333 -29 -34 -35
c40.667 -13.333 61 -40 61 -80v-11c0 -44 -14.167 -76.333 -42.5 -97s-65.833 -31 -112.5 -31c-48 0 -84.167 11.167 -108.5 33.5s-36.5 47.5 -36.5 75.5zM210.002 7.00195c0 6 1.66699 12.332 5 18.999l351 721c8 16.667 22 25 42 25c14.667 0 28.167 -5 40.5 -15
s18.5 -22.667 18.5 -38c0 -7.33301 -1.33301 -13.666 -4 -18.999l-352 -721c-8 -16.667 -23 -25 -45 -25c-16 0 -29.333 5.5 -40 16.5s-16 23.167 -16 36.5zM480.002 118.001c0 6 1.66602 12 4.99902 18l137 248c9.33301 16.667 23.333 25 42 25
c10 0 20.833 -3.5 32.5 -10.5s17.5 -15.833 17.5 -26.5c0 -4 -1 -8 -3 -12l-102 -184h43v21c0 10 4.83301 17.5 14.5 22.5s21.5 7.5 35.5 7.5c34 0 51 -10 51 -30v-21h25c9.33301 0 16.666 -4.5 21.999 -13.5s8 -19.833 8 -32.5c0 -11.333 -3.16699 -21.833 -9.5 -31.5
s-13.166 -14.5 -20.499 -14.5h-25v-54c0 -9.33301 -5 -16.666 -15 -21.999s-22 -8 -36 -8c-13.333 0 -25 2.66699 -35 8s-15 12.666 -15 21.999v54h-139c-9.33301 0 -17.166 3 -23.499 9s-9.5 14.333 -9.5 25z" />
    <glyph glyph-name="questiondown" unicode="&#xbf;" horiz-adv-x="452" 
d="M22 159c0 64 37.3311 125.003 111.998 183.003c17.333 14 30.166 27.833 38.499 41.5s13.333 25.667 15 36s2.5 26.166 2.5 47.499c0 27.333 19.667 41 59 41c20.667 0 35 -4.66699 43 -14s12 -27 12 -53c0 -62.667 -22.333 -113.334 -67 -152.001
c-2 -2 -10.667 -9 -26 -21s-26 -21 -32 -27s-12.667 -15.167 -20 -27.5s-11 -24.833 -11 -37.5c0 -22 8.33301 -38.833 25 -50.5s38.334 -17.5 65.001 -17.5c22.667 0 41.334 4 56.001 12s24.334 16.833 29.001 26.5s11 18.5 19 26.5s18 12 30 12
c15.333 0 29.166 -5 41.499 -15s18.5 -24 18.5 -42c0 -32 -17.333 -62.333 -52 -91s-83 -43 -145 -43c-63.333 0 -114.666 15.667 -153.999 47s-59 70.666 -59 117.999zM170.998 654.003c0 20.667 7.5 38.667 22.5 54s33.167 23 54.5 23s39.333 -7.66699 54 -23
s22 -33.333 22 -54c0 -21.333 -7.5 -39.5 -22.5 -54.5s-32.833 -22.5 -53.5 -22.5c-21.333 0 -39.5 7.5 -54.5 22.5s-22.5 33.167 -22.5 54.5z" />
    <glyph glyph-name="Agrave" unicode="&#xc0;" horiz-adv-x="589" 
d="M4 64c0 2 0.666992 5.66699 2 11l186 610c5.33301 16.667 17.5 29.5 36.5 38.5s40.833 13.5 65.5 13.5s46.5 -4.5 65.5 -13.5s31.167 -21.833 36.5 -38.5l187 -610c1.33301 -5.33301 2 -9 2 -11c0 -17.333 -10.833 -32.333 -32.5 -45s-44.167 -19 -67.5 -19
c-28.667 0 -45.667 9.66699 -51 29l-34 125h-211l-34 -125c-5.33301 -19.333 -22.333 -29 -51 -29c-23.333 -0 -45.833 6.33301 -67.5 19s-32.5 27.667 -32.5 45zM166 901c0 14 4.66602 27.168 13.999 39.501s20.333 18.5 33 18.5c4.66699 0 9.33398 -1 14.001 -3l140 -65
c13.333 -6.66699 20 -18.334 20 -35.001c0 -14 -4.5 -27.167 -13.5 -39.5s-19.833 -18.5 -32.5 -18.5c-3.33301 0 -8.33301 1.33301 -15 4l-140 65c-13.333 6.66699 -20 18 -20 34zM220.999 274.001h146l-73 268z" />
    <glyph glyph-name="Aacute" unicode="&#xc1;" horiz-adv-x="589" 
d="M4 64c0 2 0.666992 5.66699 2 11l186 610c5.33301 16.667 17.5 29.5 36.5 38.5s40.833 13.5 65.5 13.5s46.5 -4.5 65.5 -13.5s31.167 -21.833 36.5 -38.5l187 -610c1.33301 -5.33301 2 -9 2 -11c0 -17.333 -10.833 -32.333 -32.5 -45s-44.167 -19 -67.5 -19
c-28.667 0 -45.667 9.66699 -51 29l-34 125h-211l-34 -125c-5.33301 -19.333 -22.333 -29 -51 -29c-23.333 -0 -45.833 6.33301 -67.5 19s-32.5 27.667 -32.5 45zM221 274h146l-73 268zM221 856c0 16.667 6.66602 28.333 19.999 35l140 65c4.66699 2 9.33398 3 14.001 3
c12.667 0 23.667 -6.16699 33 -18.5s14 -25.5 14 -39.5c0 -16 -6.66699 -27.333 -20 -34l-140 -65c-6.66699 -2.66699 -11.667 -4 -15 -4c-12.667 0 -23.5 6.16699 -32.5 18.5s-13.5 25.5 -13.5 39.5z" />
    <glyph glyph-name="Acircumflex" unicode="&#xc2;" horiz-adv-x="589" 
d="M4 64c0 2 0.666992 5.66699 2 11l186 610c5.33301 16.667 17.5 29.5 36.5 38.5s40.833 13.5 65.5 13.5s46.5 -4.5 65.5 -13.5s31.167 -21.833 36.5 -38.5l187 -610c1.33301 -5.33301 2 -9 2 -11c0 -17.333 -10.833 -32.333 -32.5 -45s-44.167 -19 -67.5 -19
c-28.667 0 -45.667 9.66699 -51 29l-34 125h-211l-34 -125c-5.33301 -19.333 -22.333 -29 -51 -29c-23.333 -0 -45.833 6.33301 -67.5 19s-32.5 27.667 -32.5 45zM148 854c0 20 8.33105 34.667 24.998 44l104 56c6.66699 3.33301 12.334 5 17.001 5
s10.334 -1.66699 17.001 -5l104 -56c16.667 -9.33301 25 -24 25 -44c0 -12 -3 -22.667 -9 -32s-13.333 -14 -22 -14c-3.33301 0 -7 1 -11 3l-104 56l-104 -56c-4 -2 -7.66699 -3 -11 -3c-8.66699 0 -16 4.66699 -22 14s-9 20 -9 32zM220.998 274h146l-73 268z" />
    <glyph glyph-name="Atilde" unicode="&#xc3;" horiz-adv-x="589" 
d="M4 64c0 2 0.666992 5.66699 2 11l186 610c5.33301 16.667 17.5 29.5 36.5 38.5s40.833 13.5 65.5 13.5s46.5 -4.5 65.5 -13.5s31.167 -21.833 36.5 -38.5l187 -610c1.33301 -5.33301 2 -9 2 -11c0 -17.333 -10.833 -32.333 -32.5 -45s-44.167 -19 -67.5 -19
c-28.667 0 -45.667 9.66699 -51 29l-34 125h-211l-34 -125c-5.33301 -19.333 -22.333 -29 -51 -29c-23.333 -0 -45.833 6.33301 -67.5 19s-32.5 27.667 -32.5 45zM117 873c0 48.667 28.333 73 85 73c20.667 0 45.667 -4.5 75 -13.5s53 -13.5 71 -13.5
c15.333 0 32 3.5 50 10.5s30 10.5 36 10.5c13.333 0 23 -5.83301 29 -17.5s9 -22.167 9 -31.5c0 -48.667 -28.333 -73 -85 -73c-25.333 0 -52.5 4.5 -81.5 13.5s-50.5 13.5 -64.5 13.5c-15.333 0 -32 -3.5 -50 -10.5s-30 -10.5 -36 -10.5c-13.333 0 -23 5.83301 -29 17.5
s-9 22.167 -9 31.5zM221 274h146l-73 268z" />
    <glyph glyph-name="Adieresis" unicode="&#xc4;" horiz-adv-x="589" 
d="M4 64c0 2 0.666992 5.66699 2 11l186 610c5.33301 16.667 17.5 29.5 36.5 38.5s40.833 13.5 65.5 13.5s46.5 -4.5 65.5 -13.5s31.167 -21.833 36.5 -38.5l187 -610c1.33301 -5.33301 2 -9 2 -11c0 -17.333 -10.833 -32.333 -32.5 -45s-44.167 -19 -67.5 -19
c-28.667 0 -45.667 9.66699 -51 29l-34 125h-211l-34 -125c-5.33301 -19.333 -22.333 -29 -51 -29c-23.333 -0 -45.833 6.33301 -67.5 19s-32.5 27.667 -32.5 45zM159 869c0 15.333 5.66699 28.833 17 40.5s24.666 17.5 39.999 17.5s28.5 -5.83301 39.5 -17.5
s16.5 -25.167 16.5 -40.5c0 -16 -5.5 -29.833 -16.5 -41.5s-24.167 -17.5 -39.5 -17.5s-28.666 6 -39.999 18s-17 25.667 -17 41zM221 274h146l-73 268zM319 869c0 15.333 5.66699 28.833 17 40.5s24.666 17.5 39.999 17.5s28.5 -5.83301 39.5 -17.5
s16.5 -25.167 16.5 -40.5c0 -16 -5.5 -29.833 -16.5 -41.5s-24.167 -17.5 -39.5 -17.5s-28.666 6 -39.999 18s-17 25.667 -17 41z" />
    <glyph glyph-name="Aring" unicode="&#xc5;" horiz-adv-x="589" 
d="M4 64c0 2 0.666992 5.66699 2 11l186 610c5.33301 16.667 17.5 29.5 36.5 38.5s40.833 13.5 65.5 13.5s46.5 -4.5 65.5 -13.5s31.167 -21.833 36.5 -38.5l187 -610c1.33301 -5.33301 2 -9 2 -11c0 -17.333 -10.833 -32.333 -32.5 -45s-44.167 -19 -67.5 -19
c-28.667 0 -45.667 9.66699 -51 29l-34 125h-211l-34 -125c-5.33301 -19.333 -22.333 -29 -51 -29c-23.333 -0 -45.833 6.33301 -67.5 19s-32.5 27.667 -32.5 45zM194 907c0 26.667 9.66895 50.167 29.002 70.5s42.666 30.5 69.999 30.5c26.667 0 50.167 -10.167 70.5 -30.5
s30.5 -43.833 30.5 -70.5c0 -27.333 -10.167 -51.333 -30.5 -72s-43.833 -31 -70.5 -31s-49.834 10.333 -69.501 31s-29.5 44.667 -29.5 72zM221.002 274h146l-73 268zM253.002 906c0 -10.667 4 -20.334 12 -29.001s17.667 -13 29 -13c10.667 0 19.834 4.33301 27.501 13
s11.5 18.334 11.5 29.001c0 10 -3.83301 19 -11.5 27s-16.834 12 -27.501 12c-11.333 0 -21 -4 -29 -12s-12 -17 -12 -27z" />
    <glyph glyph-name="AE" unicode="&#xc6;" horiz-adv-x="817" 
d="M51 53l-0.000976562 441.999c0 81.333 21.5 141 64.5 179s100.167 57 171.5 57h469c15.333 0 27 -6.66699 35 -20s12 -29 12 -47c0 -19.333 -4.16699 -35.666 -12.5 -48.999s-19.833 -20 -34.5 -20h-226v-169h108c14.667 0 26.167 -6 34.5 -18s12.5 -26.333 12.5 -43
c0 -15.333 -4 -29 -12 -41s-19.667 -18 -35 -18h-108v-170h226c14.667 0 26.167 -6.66699 34.5 -20s12.5 -29.666 12.5 -48.999c0 -18 -4 -33.667 -12 -47s-19.667 -20 -35 -20h-314c-18.667 0 -34.667 4.16699 -48 12.5s-20 20.166 -20 35.499v258h-177v-253
c0 -17.333 -5.16699 -30.5 -15.5 -39.5s-31.166 -13.5 -62.499 -13.5c-45.333 0 -68 17.667 -68 53zM196.999 425.999h177v169h-87c-60 0 -90 -33.333 -90 -100v-69z" />
    <glyph glyph-name="Ccedilla" unicode="&#xc7;" horiz-adv-x="562" 
d="M46 230v264.999c0 81.333 22.167 141 66.5 179s102.166 57 173.499 57c73.333 0 133.5 -17.667 180.5 -53s70.5 -84 70.5 -146c0 -28.667 -6 -48.167 -18 -58.5s-32 -15.5 -60 -15.5c-50 0 -76 15.667 -78 47c-2 60 -31.667 90 -89 90c-60 0 -90 -33.333 -90 -100v-265
c0 -66.667 30.333 -100 91 -100c18.667 0 34.167 3 46.5 9s21.166 15.167 26.499 27.5s8.83301 22.5 10.5 30.5s3.16699 19 4.5 33c2.66699 31.333 28.334 47 77.001 47c28.667 0 49 -5.16699 61 -15.5s18 -29.833 18 -58.5c0 -59.333 -19.667 -107.166 -59 -143.499
s-91.333 -57.5 -156 -63.5l-14 -43c32.667 -1.33301 57.5 -9.33301 74.5 -24s25.5 -33 25.5 -55c0 -22.667 -8.66699 -43.834 -26 -63.501s-45.666 -29.5 -84.999 -29.5c-21.333 0 -41.333 2.83301 -60 8.5s-28 13.167 -28 22.5c0 6.66699 2.33301 15.334 7 26.001
s11 16 19 16c2 0 9 -2.33301 21 -7s24.333 -7 37 -7c30.667 0 46 10.333 46 31c0 20 -14.333 31.333 -43 34l-62 6l25 84c-64 4 -115.5 25.167 -154.5 63.5s-58.5 95.5 -58.5 171.5z" />
    <glyph glyph-name="Egrave" unicode="&#xc8;" horiz-adv-x="539" 
d="M54 48v635c0 15.333 6.66699 27.166 20 35.499s29.333 12.5 48 12.5h356c15.333 0 27 -6.66699 35 -20s12 -29 12 -47c0 -19.333 -4.16699 -35.666 -12.5 -48.999s-19.833 -20 -34.5 -20h-268v-169h150c14.667 0 26.167 -6 34.5 -18s12.5 -26.333 12.5 -43
c0 -15.333 -4 -29 -12 -41s-19.667 -18 -35 -18h-150v-170h268c14.667 0 26.167 -6.66699 34.5 -20s12.5 -29.666 12.5 -48.999c0 -18 -4 -33.667 -12 -47s-19.667 -20 -35 -20h-356c-18.667 0 -34.667 4.16699 -48 12.5s-20 20.166 -20 35.499zM173 901
c0 14 4.66699 27.168 14 39.501s20.333 18.5 33 18.5c4 0 8.66699 -1 14 -3l140 -65c13.333 -6.66699 20 -18.334 20 -35.001c0 -14 -4.5 -27.167 -13.5 -39.5s-19.833 -18.5 -32.5 -18.5c-3.33301 0 -8.33301 1.33301 -15 4l-140 65c-13.333 6.66699 -20 18 -20 34z" />
    <glyph glyph-name="Eacute" unicode="&#xc9;" horiz-adv-x="539" 
d="M54 48v635c0 15.333 6.66699 27.166 20 35.499s29.333 12.5 48 12.5h356c15.333 0 27 -6.66699 35 -20s12 -29 12 -47c0 -19.333 -4.16699 -35.666 -12.5 -48.999s-19.833 -20 -34.5 -20h-268v-169h150c14.667 0 26.167 -6 34.5 -18s12.5 -26.333 12.5 -43
c0 -15.333 -4 -29 -12 -41s-19.667 -18 -35 -18h-150v-170h268c14.667 0 26.167 -6.66699 34.5 -20s12.5 -29.666 12.5 -48.999c0 -18 -4 -33.667 -12 -47s-19.667 -20 -35 -20h-356c-18.667 0 -34.667 4.16699 -48 12.5s-20 20.166 -20 35.499zM203 856
c0 16.667 6.66602 28.333 19.999 35l140 65c4.66699 2 9.33398 3 14.001 3c12.667 0 23.667 -6.16699 33 -18.5s14 -25.5 14 -39.5c0 -16 -6.66699 -27.333 -20 -34l-140 -65c-6.66699 -2.66699 -11.667 -4 -15 -4c-12.667 0 -23.5 6.16699 -32.5 18.5
s-13.5 25.5 -13.5 39.5z" />
    <glyph glyph-name="Ecircumflex" unicode="&#xca;" horiz-adv-x="539" 
d="M54 48v635c0 15.333 6.66699 27.166 20 35.499s29.333 12.5 48 12.5h356c15.333 0 27 -6.66699 35 -20s12 -29 12 -47c0 -19.333 -4.16699 -35.666 -12.5 -48.999s-19.833 -20 -34.5 -20h-268v-169h150c14.667 0 26.167 -6 34.5 -18s12.5 -26.333 12.5 -43
c0 -15.333 -4 -29 -12 -41s-19.667 -18 -35 -18h-150v-170h268c14.667 0 26.167 -6.66699 34.5 -20s12.5 -29.666 12.5 -48.999c0 -18 -4 -33.667 -12 -47s-19.667 -20 -35 -20h-356c-18.667 0 -34.667 4.16699 -48 12.5s-20 20.166 -20 35.499zM153 854
c0 20 8.33105 34.667 24.998 44l104 56c6.66699 3.33301 12.334 5 17.001 5s10.334 -1.66699 17.001 -5l104 -56c16.667 -9.33301 25 -24 25 -44c0 -12 -3 -22.667 -9 -32s-13.333 -14 -22 -14c-3.33301 0 -7 1 -11 3l-104 56l-104 -56c-4 -2 -7.66699 -3 -11 -3
c-8.66699 0 -16 4.66699 -22 14s-9 20 -9 32z" />
    <glyph glyph-name="Edieresis" unicode="&#xcb;" horiz-adv-x="539" 
d="M54 48v635c0 15.333 6.66699 27.166 20 35.499s29.333 12.5 48 12.5h356c15.333 0 27 -6.66699 35 -20s12 -29 12 -47c0 -19.333 -4.16699 -35.666 -12.5 -48.999s-19.833 -20 -34.5 -20h-268v-169h150c14.667 0 26.167 -6 34.5 -18s12.5 -26.333 12.5 -43
c0 -15.333 -4 -29 -12 -41s-19.667 -18 -35 -18h-150v-170h268c14.667 0 26.167 -6.66699 34.5 -20s12.5 -29.666 12.5 -48.999c0 -18 -4 -33.667 -12 -47s-19.667 -20 -35 -20h-356c-18.667 0 -34.667 4.16699 -48 12.5s-20 20.166 -20 35.499zM156 869
c0 15.333 5.66699 28.833 17 40.5s24.666 17.5 39.999 17.5s28.5 -5.83301 39.5 -17.5s16.5 -25.167 16.5 -40.5c0 -16 -5.5 -29.833 -16.5 -41.5s-24.167 -17.5 -39.5 -17.5s-28.666 6 -39.999 18s-17 25.667 -17 41zM316 869c0 15.333 5.66699 28.833 17 40.5
s24.666 17.5 39.999 17.5s28.5 -5.83301 39.5 -17.5s16.5 -25.167 16.5 -40.5c0 -16 -5.5 -29.833 -16.5 -41.5s-24.167 -17.5 -39.5 -17.5s-28.666 6 -39.999 18s-17 25.667 -17 41z" />
    <glyph glyph-name="Igrave" unicode="&#xcc;" horiz-adv-x="264" 
d="M13 901c0 14 4.66699 27.168 14 39.501s20.333 18.5 33 18.5c4 0 8.66699 -1 14 -3l140 -65c13.333 -6.66699 20 -18.334 20 -35.001c0 -14 -4.5 -27.167 -13.5 -39.5s-19.833 -18.5 -32.5 -18.5c-3.33301 0 -8.33301 1.33301 -15 4l-140 65
c-13.333 6.66699 -20 18 -20 34zM54 48.001v636c0 15.333 7.66699 27 23 35s33.666 12 54.999 12s39.666 -4 54.999 -12s23 -19.667 23 -35v-636c0 -15.333 -7.66699 -27.166 -23 -35.499s-33.666 -12.5 -54.999 -12.5s-39.666 4.16699 -54.999 12.5s-23 20.166 -23 35.499z
" />
    <glyph glyph-name="Iacute" unicode="&#xcd;" horiz-adv-x="264" 
d="M31 856c0 16.667 6.66602 28.333 19.999 35l140 65c4.66699 2 9.33398 3 14.001 3c12.667 0 23.667 -6.16699 33 -18.5s14 -25.5 14 -39.5c0 -16 -6.66699 -27.333 -20 -34l-140 -65c-6.66699 -2.66699 -11.667 -4 -15 -4c-12.667 0 -23.5 6.16699 -32.5 18.5
s-13.5 25.5 -13.5 39.5zM53.999 47.999v636c0 15.333 7.66699 27 23 35s33.666 12 54.999 12s39.666 -4 54.999 -12s23 -19.667 23 -35v-636c0 -15.333 -7.66699 -27.166 -23 -35.499s-33.666 -12.5 -54.999 -12.5s-39.666 4.16699 -54.999 12.5s-23 20.166 -23 35.499z" />
    <glyph glyph-name="Icircumflex" unicode="&#xce;" horiz-adv-x="264" 
d="M-12 854c0 20 8.33105 34.667 24.998 44l104 56c6.66699 3.33301 12.334 5 17.001 5s10.334 -1.66699 17.001 -5l104 -56c16.667 -9.33301 25 -24 25 -44c0 -12 -3 -22.667 -9 -32s-13.333 -14 -22 -14c-3.33301 0 -7 1 -11 3l-104 56l-104 -56c-4 -2 -7.66699 -3 -11 -3
c-8.66699 0 -16 4.66699 -22 14s-9 20 -9 32zM53.998 48v636c0 15.333 7.66699 27 23 35s33.666 12 54.999 12s39.666 -4 54.999 -12s23 -19.667 23 -35v-636c0 -15.333 -7.66699 -27.166 -23 -35.499s-33.666 -12.5 -54.999 -12.5s-39.666 4.16699 -54.999 12.5
s-23 20.166 -23 35.499z" />
    <glyph glyph-name="Idieresis" unicode="&#xcf;" horiz-adv-x="264" 
d="M-3 869c0 15.333 5.66699 28.833 17 40.5s24.666 17.5 39.999 17.5s28.5 -5.83301 39.5 -17.5s16.5 -25.167 16.5 -40.5c0 -16 -5.5 -29.833 -16.5 -41.5s-24.167 -17.5 -39.5 -17.5s-28.666 6 -39.999 18s-17 25.667 -17 41zM54 48v636c0 15.333 7.66699 27 23 35
s33.666 12 54.999 12s39.666 -4 54.999 -12s23 -19.667 23 -35v-636c0 -15.333 -7.66699 -27.166 -23 -35.499s-33.666 -12.5 -54.999 -12.5s-39.666 4.16699 -54.999 12.5s-23 20.166 -23 35.499zM157 869c0 15.333 5.66699 28.833 17 40.5s24.666 17.5 39.999 17.5
s28.5 -5.83301 39.5 -17.5s16.5 -25.167 16.5 -40.5c0 -16 -5.5 -29.833 -16.5 -41.5s-24.167 -17.5 -39.5 -17.5s-28.666 6 -39.999 18s-17 25.667 -17 41z" />
    <glyph glyph-name="Eth" unicode="&#xd0;" horiz-adv-x="596" 
d="M-10 382c0 14.667 3.33301 27.5 10 38.5s16 16.5 28 16.5h32v247c0 12.667 6.33301 23.667 19 33s29 14 49 14h177c74.667 0 134.334 -19 179.001 -57s67 -97.667 67 -179v-259c0 -81.333 -22.333 -141 -67 -179s-104.334 -57 -179.001 -57h-177
c-20 0 -36.333 4.66699 -49 14s-19 20.333 -19 33v280h-32c-12 0 -21.333 5.33301 -28 16s-10 23.667 -10 39zM216 136h89c60 0 90 33.333 90 100v259c0 66.667 -30 100 -90 100h-89v-158h62c12 0 21.333 -5.5 28 -16.5s10 -23.833 10 -38.5
c0 -15.333 -3.33301 -28.333 -10 -39s-16 -16 -28 -16h-62v-191z" />
    <glyph glyph-name="Ntilde" unicode="&#xd1;" horiz-adv-x="619" 
d="M54 48v635.001c0 15.333 7.66699 27.166 23 35.499s33.666 12.5 54.999 12.5c30 0 52.167 -4.33301 66.5 -13s30.5 -30.334 48.5 -65.001l162 -309v340c0 15.333 7.66699 27 23 35s33.666 12 54.999 12s39.666 -4 54.999 -12s23 -19.667 23 -35v-636
c0 -15.333 -7.66699 -27.166 -23 -35.499s-33.666 -12.5 -54.999 -12.5c-42.667 0 -71.667 14 -87 42l-190 346v-340c0 -15.333 -7.66699 -27.166 -23 -35.499s-33.666 -12.5 -54.999 -12.5s-39.666 4.16699 -54.999 12.5s-23 20.166 -23 35.499zM123 873.001
c0 48.667 28.333 73 85 73c20.667 0 45.667 -4.5 75 -13.5s53 -13.5 71 -13.5c15.333 0 32 3.5 50 10.5s30 10.5 36 10.5c13.333 0 23 -5.83301 29 -17.5s9 -22.167 9 -31.5c0 -48.667 -28.333 -73 -85 -73c-25.333 0 -52.5 4.5 -81.5 13.5s-50.5 13.5 -64.5 13.5
c-15.333 0 -32 -3.5 -50 -10.5s-30 -10.5 -36 -10.5c-13.333 0 -23 5.83301 -29 17.5s-9 22.167 -9 31.5z" />
    <glyph glyph-name="Ograve" unicode="&#xd2;" horiz-adv-x="583" 
d="M46 230v265c0 81.333 22.333 141 67 179s104 57 178 57c74.667 0 134.334 -19 179.001 -57s67 -97.667 67 -179v-265c0 -81.333 -22.333 -141 -67 -179s-104.334 -57 -179.001 -57c-74 0 -133.333 19 -178 57s-67 97.667 -67 179zM165 901c0 14 4.66699 27.168 14 39.501
s20.333 18.5 33 18.5c4 0 8.66699 -1 14 -3l140 -65c13.333 -6.66699 20 -18.334 20 -35.001c0 -14 -4.5 -27.167 -13.5 -39.5s-19.833 -18.5 -32.5 -18.5c-3.33301 0 -8.33301 1.33301 -15 4l-140 65c-13.333 6.66699 -20 18 -20 34zM202 230.001
c0 -66.667 29.667 -100 89 -100c60 0 90 33.333 90 100v265c0 66.667 -30 100 -90 100c-59.333 0 -89 -33.333 -89 -100v-265z" />
    <glyph glyph-name="Oacute" unicode="&#xd3;" horiz-adv-x="583" 
d="M46 230v265c0 81.333 22.333 141 67 179s104 57 178 57c74.667 0 134.334 -19 179.001 -57s67 -97.667 67 -179v-265c0 -81.333 -22.333 -141 -67 -179s-104.334 -57 -179.001 -57c-74 0 -133.333 19 -178 57s-67 97.667 -67 179zM202 230c0 -66.667 29.667 -100 89 -100
c60 0 90 33.333 90 100v265c0 66.667 -30 100 -90 100c-59.333 0 -89 -33.333 -89 -100v-265zM225 856c0 16.667 6.66602 28.333 19.999 35l140 65c4.66699 2 9.33398 3 14.001 3c12.667 0 23.667 -6.16699 33 -18.5s14 -25.5 14 -39.5c0 -16 -6.66699 -27.333 -20 -34
l-140 -65c-6.66699 -2.66699 -11.667 -4 -15 -4c-12.667 0 -23.5 6.16699 -32.5 18.5s-13.5 25.5 -13.5 39.5z" />
    <glyph glyph-name="Ocircumflex" unicode="&#xd4;" horiz-adv-x="583" 
d="M46 230v265c0 81.333 22.333 141 67 179s104 57 178 57c74.667 0 134.334 -19 179.001 -57s67 -97.667 67 -179v-265c0 -81.333 -22.333 -141 -67 -179s-104.334 -57 -179.001 -57c-74 0 -133.333 19 -178 57s-67 97.667 -67 179zM145 854c0 20 8.33105 34.667 24.998 44
l104 56c6.66699 3.33301 12.334 5 17.001 5s10.334 -1.66699 17.001 -5l104 -56c16.667 -9.33301 25 -24 25 -44c0 -12 -3 -22.667 -9 -32s-13.333 -14 -22 -14c-3.33301 0 -7 1 -11 3l-104 56l-104 -56c-4 -2 -7.66699 -3 -11 -3c-8.66699 0 -16 4.66699 -22 14
s-9 20 -9 32zM201.998 230c0 -66.667 29.667 -100 89 -100c60 0 90 33.333 90 100v265c0 66.667 -30 100 -90 100c-59.333 0 -89 -33.333 -89 -100v-265z" />
    <glyph glyph-name="Otilde" unicode="&#xd5;" horiz-adv-x="583" 
d="M46 230v265c0 81.333 22.333 141 67 179s104 57 178 57c74.667 0 134.334 -19 179.001 -57s67 -97.667 67 -179v-265c0 -81.333 -22.333 -141 -67 -179s-104.334 -57 -179.001 -57c-74 0 -133.333 19 -178 57s-67 97.667 -67 179zM114 873c0 48.667 28.333 73 85 73
c20.667 0 45.667 -4.5 75 -13.5s53 -13.5 71 -13.5c15.333 0 32 3.5 50 10.5s30 10.5 36 10.5c13.333 0 23 -5.83301 29 -17.5s9 -22.167 9 -31.5c0 -48.667 -28.333 -73 -85 -73c-25.333 0 -52.5 4.5 -81.5 13.5s-50.5 13.5 -64.5 13.5c-15.333 0 -32 -3.5 -50 -10.5
s-30 -10.5 -36 -10.5c-13.333 0 -23 5.83301 -29 17.5s-9 22.167 -9 31.5zM202 230c0 -66.667 29.667 -100 89 -100c60 0 90 33.333 90 100v265c0 66.667 -30 100 -90 100c-59.333 0 -89 -33.333 -89 -100v-265z" />
    <glyph glyph-name="Odieresis" unicode="&#xd6;" horiz-adv-x="583" 
d="M46 230v265c0 81.333 22.333 141 67 179s104 57 178 57c74.667 0 134.334 -19 179.001 -57s67 -97.667 67 -179v-265c0 -81.333 -22.333 -141 -67 -179s-104.334 -57 -179.001 -57c-74 0 -133.333 19 -178 57s-67 97.667 -67 179zM156 869
c0 15.333 5.66699 28.833 17 40.5s24.666 17.5 39.999 17.5s28.5 -5.83301 39.5 -17.5s16.5 -25.167 16.5 -40.5c0 -16 -5.5 -29.833 -16.5 -41.5s-24.167 -17.5 -39.5 -17.5s-28.666 6 -39.999 18s-17 25.667 -17 41zM202 230c0 -66.667 29.667 -100 89 -100
c60 0 90 33.333 90 100v265c0 66.667 -30 100 -90 100c-59.333 0 -89 -33.333 -89 -100v-265zM316 869c0 15.333 5.66699 28.833 17 40.5s24.666 17.5 39.999 17.5s28.5 -5.83301 39.5 -17.5s16.5 -25.167 16.5 -40.5c0 -16 -5.5 -29.833 -16.5 -41.5
s-24.167 -17.5 -39.5 -17.5s-28.666 6 -39.999 18s-17 25.667 -17 41z" />
    <glyph glyph-name="multiply" unicode="&#xd7;" horiz-adv-x="410" 
d="M34 177c0 11.333 4 20.999 12 28.999l79 69l-78 67c-7.33301 7.33301 -11 17 -11 29c0 18 7.5 34.5 22.5 49.5s31.167 22.5 48.5 22.5c11.333 0 21.333 -3.66699 30 -11l67 -68l68 68c7.33301 7.33301 17 11 29 11c18 0 34.5 -7.5 49.5 -22.5s22.5 -31.167 22.5 -48.5
c0 -12.667 -3.66699 -22.667 -11 -30l-78 -67l79 -69c8 -8 12 -18 12 -30c0 -17.333 -7.83301 -33.666 -23.5 -48.999s-32.167 -23 -49.5 -23c-11.333 0 -21 4 -29 12l-69 69l-68 -69c-8 -8 -18 -12 -30 -12c-16 0 -32 8 -48 24s-24 32.333 -24 49z" />
    <glyph glyph-name="Oslash" unicode="&#xd8;" horiz-adv-x="583" 
d="M46 230l0.000976562 264.999c0 81.333 22.333 141 67 179s104 57 178 57c42.667 0 80.667 -6.33301 114 -19l17 35c8 16.667 22 25 42 25c14.667 0 28.167 -5 40.5 -15s18.5 -22.667 18.5 -38c0 -7.33301 -1.33301 -13.666 -4 -18.999l-26 -52
c29.333 -38.667 44 -89.667 44 -153v-265c0 -81.333 -22.333 -141 -67 -179s-104.334 -57 -179.001 -57c-40.667 0 -77 5.33301 -109 16l-15 -31c-8 -16.667 -23 -25 -45 -25c-16 0 -29.333 5.5 -40 16.5s-16 23.167 -16 36.5c0 6 1.66699 12.333 5 19l22 45
c-31.333 38.667 -47 91.667 -47 159zM202.001 294.999l140 288c-14 8 -31 12 -51 12c-59.333 0 -89 -33.333 -89 -100v-200zM245.001 138.999c12.667 -6 28 -9 46 -9c60 0 90 33.333 90 100v187z" />
    <glyph glyph-name="Ugrave" unicode="&#xd9;" horiz-adv-x="606" 
d="M51 230l0.00292969 454c0 15.333 7.5 27 22.5 35s33.5 12 55.5 12c21.333 0 39.666 -4 54.999 -12s23 -19.667 23 -35v-454c0 -66.667 32 -100 96 -100s96 33.333 96 100v454c0 15.333 7.5 27 22.5 35s33.5 12 55.5 12c21.333 0 39.666 -4 54.999 -12s23 -19.667 23 -35
v-454c0 -81.333 -23 -141 -69 -179s-107 -57 -183 -57c-76.667 0 -137.834 19 -183.501 57s-68.5 97.667 -68.5 179zM170.003 901c0 14 4.66602 27.168 13.999 39.501s20.333 18.5 33 18.5c4.66699 0 9.33398 -1 14.001 -3l140 -65c13.333 -6.66699 20 -18.334 20 -35.001
c0 -14 -4.5 -27.167 -13.5 -39.5s-19.833 -18.5 -32.5 -18.5c-3.33301 0 -8.33301 1.33301 -15 4l-140 65c-13.333 6.66699 -20 18 -20 34z" />
    <glyph glyph-name="Uacute" unicode="&#xda;" horiz-adv-x="606" 
d="M51 230l0.00292969 454c0 15.333 7.5 27 22.5 35s33.5 12 55.5 12c21.333 0 39.666 -4 54.999 -12s23 -19.667 23 -35v-454c0 -66.667 32 -100 96 -100s96 33.333 96 100v454c0 15.333 7.5 27 22.5 35s33.5 12 55.5 12c21.333 0 39.666 -4 54.999 -12s23 -19.667 23 -35
v-454c0 -81.333 -23 -141 -69 -179s-107 -57 -183 -57c-76.667 0 -137.834 19 -183.501 57s-68.5 97.667 -68.5 179zM220.003 856c0 16.667 6.66699 28.333 20 35l140 65c5.33301 2 10 3 14 3c12.667 0 23.667 -6.16699 33 -18.5s14 -25.5 14 -39.5
c0 -16 -6.66699 -27.333 -20 -34l-140 -65c-6.66699 -2.66699 -11.667 -4 -15 -4c-12.667 0 -23.5 6.16699 -32.5 18.5s-13.5 25.5 -13.5 39.5z" />
    <glyph glyph-name="Ucircumflex" unicode="&#xdb;" horiz-adv-x="606" 
d="M51 230l0.00292969 454c0 15.333 7.5 27 22.5 35s33.5 12 55.5 12c21.333 0 39.666 -4 54.999 -12s23 -19.667 23 -35v-454c0 -66.667 32 -100 96 -100s96 33.333 96 100v454c0 15.333 7.5 27 22.5 35s33.5 12 55.5 12c21.333 0 39.666 -4 54.999 -12s23 -19.667 23 -35
v-454c0 -81.333 -23 -141 -69 -179s-107 -57 -183 -57c-76.667 0 -137.834 19 -183.501 57s-68.5 97.667 -68.5 179zM150.003 854c0 20 8.33105 34.667 24.998 44l104 56c6.66699 3.33301 12.334 5 17.001 5s10.334 -1.66699 17.001 -5l104 -56
c16.667 -9.33301 25 -24 25 -44c0 -12 -3 -22.667 -9 -32s-13.333 -14 -22 -14c-3.33301 0 -7 1 -11 3l-104 56l-104 -56c-4 -2 -7.66699 -3 -11 -3c-8.66699 0 -16 4.66699 -22 14s-9 20 -9 32z" />
    <glyph glyph-name="Udieresis" unicode="&#xdc;" horiz-adv-x="606" 
d="M51 230l0.00292969 454c0 15.333 7.5 27 22.5 35s33.5 12 55.5 12c21.333 0 39.666 -4 54.999 -12s23 -19.667 23 -35v-454c0 -66.667 32 -100 96 -100s96 33.333 96 100v454c0 15.333 7.5 27 22.5 35s33.5 12 55.5 12c21.333 0 39.666 -4 54.999 -12s23 -19.667 23 -35
v-454c0 -81.333 -23 -141 -69 -179s-107 -57 -183 -57c-76.667 0 -137.834 19 -183.501 57s-68.5 97.667 -68.5 179zM166.003 869c0 15.333 5.66699 28.833 17 40.5s24.666 17.5 39.999 17.5s28.5 -5.83301 39.5 -17.5s16.5 -25.167 16.5 -40.5
c0 -16 -5.5 -29.833 -16.5 -41.5s-24.167 -17.5 -39.5 -17.5s-28.666 6 -39.999 18s-17 25.667 -17 41zM326.003 869c0 15.333 5.66699 28.833 17 40.5s24.666 17.5 39.999 17.5s28.5 -5.83301 39.5 -17.5s16.5 -25.167 16.5 -40.5c0 -16 -5.5 -29.833 -16.5 -41.5
s-24.167 -17.5 -39.5 -17.5s-28.666 6 -39.999 18s-17 25.667 -17 41z" />
    <glyph glyph-name="Yacute" unicode="&#xdd;" horiz-adv-x="590" 
d="M4 667c0 17.333 11.8311 32.333 35.498 45s47.167 19 70.5 19c12 0 21 -2.16699 27 -6.5s12 -11.833 18 -22.5l140 -257l139 257c10 19.333 25 29 45 29c23.333 0 46.833 -6.33301 70.5 -19s35.5 -27.667 35.5 -45c0 -4.66699 -0.666992 -8.33398 -2 -11.001l-206 -343
c-2.66699 -4 -4 -8.66699 -4 -14v-251c0 -15.333 -7.66699 -27.166 -23 -35.499s-33.666 -12.5 -54.999 -12.5s-39.666 4.16699 -54.999 12.5s-23 20.166 -23 35.499v251c0 5.33301 -1.33301 10 -4 14l-207 343c-1.33301 2.66699 -2 6.33398 -2 11.001zM204.998 856
c0 16.667 6.66602 28.333 19.999 35l140 65c4.66699 2 9.33398 3 14.001 3c12.667 0 23.667 -6.16699 33 -18.5s14 -25.5 14 -39.5c0 -16 -6.66699 -27.333 -20 -34l-140 -65c-6.66699 -2.66699 -11.667 -4 -15 -4c-12.667 0 -23.5 6.16699 -32.5 18.5
s-13.5 25.5 -13.5 39.5z" />
    <glyph glyph-name="Thorn" unicode="&#xde;" horiz-adv-x="529" 
d="M54 48l0.00292969 652.999c0 14 7.16699 25.333 21.5 34s31.833 13 52.5 13c23.333 0 42.666 -4.33301 57.999 -13s23 -20 23 -34v-154c11.333 21.333 28.166 39.333 50.499 54s47.166 22 74.499 22c50 0 92.333 -20.5 127 -61.5s52 -90.5 52 -148.5v-70
c0 -56 -17.5 -105.333 -52.5 -148s-75.5 -64 -121.5 -64c-28 0 -54.167 7.83301 -78.5 23.5s-41.5 34.5 -51.5 56.5v-163c0 -12 -7.83301 -23 -23.5 -33s-34.167 -15 -55.5 -15s-39.333 4.83301 -54 14.5s-22 20.834 -22 33.501zM209.003 329.999
c0 -10.667 7.5 -23.998 22.5 -39.998s32.5 -24 52.5 -24c19.333 0 36.5 7.83301 51.5 23.5s22.5 33.5 22.5 53.5v70c0 19.333 -7.5 36.666 -22.5 51.999s-32.833 23 -53.5 23c-19.333 0 -36.333 -6.83301 -51 -20.5s-22 -31.834 -22 -54.501v-83z" />
    <glyph glyph-name="germandbls" unicode="&#xdf;" horiz-adv-x="617" 
d="M-1 421c0 14.667 3.33301 27.5 10 38.5s16 16.5 28 16.5h49v84c0 60.667 16.667 110.5 50 149.5s85.666 58.5 156.999 58.5c60.667 0 110.334 -15.667 149.001 -47s58 -77.666 58 -138.999c0 -32.667 -6 -63.334 -18 -92.001s-28 -48.334 -48 -59.001
c40 -7.33301 76.667 -30 110 -68s50 -84 50 -138v-11c0 -72 -22.667 -129 -68 -171s-101 -63 -167 -63c-12.667 0 -22.667 0.166992 -30 0.5s-15.833 1.66602 -25.5 3.99902s-17.167 5.83301 -22.5 10.5s-9.83301 11.334 -13.5 20.001s-5.5 19.334 -5.5 32.001
c0 16.667 3 33 9 49s15 24 27 24c3.33301 0 11.833 -1.5 25.5 -4.5s25.834 -4.5 36.501 -4.5c26 0 46.167 7.83301 60.5 23.5s21.5 37.5 21.5 65.5v11c0 24 -2.83301 44.333 -8.5 61s-14.5 30 -26.5 40s-22.833 17.333 -32.5 22s-23.167 10 -40.5 16
c-14.667 4.66699 -25.334 11 -32.001 19s-10 22.667 -10 44c0 20 3 33.167 9 39.5s17.333 11.833 34 16.5c26 7.33301 39 33.333 39 78c0 57.333 -23 86 -69 86c-42.667 0 -64 -24.333 -64 -73v-513c0 -13.333 -7.83301 -24.5 -23.5 -33.5s-34.167 -13.5 -55.5 -13.5
c-22 -0 -40.167 4.33301 -54.5 13s-21.5 20 -21.5 34v319h-49c-12 0 -21.333 5.33301 -28 16s-10 23.667 -10 39z" />
    <glyph glyph-name="agrave" unicode="&#xe0;" horiz-adv-x="484" 
d="M18 123c0 55.333 20.167 94.333 60.5 117s98.166 34 173.499 34h36v10c0 20 -6 37.333 -18 52s-31 22 -57 22c-32 0 -58.333 -5.5 -79 -16.5s-33.334 -16.5 -38.001 -16.5c-16 0 -28.667 7.83301 -38 23.5s-14 33.5 -14 53.5c0 22 18.5 40.833 55.5 56.5
s75.5 23.5 115.5 23.5c76.667 0 133.834 -18.667 171.501 -56s56.5 -84 56.5 -140v-238c0 -13.333 -7.16699 -24.666 -21.5 -33.999s-32.5 -14 -54.5 -14c-19.333 0 -35.666 4.66699 -48.999 14s-20 20.666 -20 33.999v22c-46 -53.333 -96.667 -80 -152 -80
c-36.667 0 -67.167 11.333 -91.5 34s-36.5 55.667 -36.5 99zM125 662c0 14 4.66699 27.168 14 39.501s20.333 18.5 33 18.5c4 0 8.66699 -1 14 -3l140 -65c13.333 -6.66699 20 -18.334 20 -35.001c0 -14 -4.5 -27.167 -13.5 -39.5s-19.833 -18.5 -32.5 -18.5
c-3.33301 0 -8.33301 1.33301 -15 4l-140 65c-13.333 6.66699 -20 18 -20 34zM174 145.001c0 -28 12.998 -42.001 38.998 -42.001c16.667 0 33.334 9.33301 50.001 28s25 40 25 64v4h-4c-22 0 -40.167 -1 -54.5 -3s-27.166 -7.16699 -38.499 -15.5s-17 -20.166 -17 -35.499z
" />
    <glyph glyph-name="aacute" unicode="&#xe1;" horiz-adv-x="484" 
d="M18 123c0 55.333 20.167 94.333 60.5 117s98.166 34 173.499 34h36v10c0 20 -6 37.333 -18 52s-31 22 -57 22c-32 0 -58.333 -5.5 -79 -16.5s-33.334 -16.5 -38.001 -16.5c-16 0 -28.667 7.83301 -38 23.5s-14 33.5 -14 53.5c0 22 18.5 40.833 55.5 56.5
s75.5 23.5 115.5 23.5c76.667 0 133.834 -18.667 171.501 -56s56.5 -84 56.5 -140v-238c0 -13.333 -7.16699 -24.666 -21.5 -33.999s-32.5 -14 -54.5 -14c-19.333 0 -35.666 4.66699 -48.999 14s-20 20.666 -20 33.999v22c-46 -53.333 -96.667 -80 -152 -80
c-36.667 0 -67.167 11.333 -91.5 34s-36.5 55.667 -36.5 99zM145 617c0 16.667 6.66602 28.333 19.999 35l140 65c4.66699 2 9.33398 3 14.001 3c12.667 0 23.667 -6.16699 33 -18.5s14 -25.5 14 -39.5c0 -16 -6.66699 -27.333 -20 -34l-140 -65
c-6.66699 -2.66699 -11.667 -4 -15 -4c-12.667 0 -23.5 6.16699 -32.5 18.5s-13.5 25.5 -13.5 39.5zM173.999 144.999c0 -28 12.998 -42.001 38.998 -42.001c16.667 0 33.334 9.33301 50.001 28s25 40 25 64v4h-4c-22 0 -40.167 -1 -54.5 -3s-27.166 -7.16699 -38.499 -15.5
s-17 -20.166 -17 -35.499z" />
    <glyph glyph-name="acircumflex" unicode="&#xe2;" horiz-adv-x="484" 
d="M18 123c0 55.333 20.167 94.333 60.5 117s98.166 34 173.499 34h36v10c0 20 -6 37.333 -18 52s-31 22 -57 22c-32 0 -58.333 -5.5 -79 -16.5s-33.334 -16.5 -38.001 -16.5c-16 0 -28.667 7.83301 -38 23.5s-14 33.5 -14 53.5c0 22 18.5 40.833 55.5 56.5
s75.5 23.5 115.5 23.5c76.667 0 133.834 -18.667 171.501 -56s56.5 -84 56.5 -140v-238c0 -13.333 -7.16699 -24.666 -21.5 -33.999s-32.5 -14 -54.5 -14c-19.333 0 -35.666 4.66699 -48.999 14s-20 20.666 -20 33.999v22c-46 -53.333 -96.667 -80 -152 -80
c-36.667 0 -67.167 11.333 -91.5 34s-36.5 55.667 -36.5 99zM80 615c0 20 8.33105 34.667 24.998 44l104 56c6.66699 3.33301 12.334 5 17.001 5s10.334 -1.66699 17.001 -5l104 -56c16.667 -9.33301 25 -24 25 -44c0 -12 -3 -22.667 -9 -32s-13.333 -14 -22 -14
c-3.33301 0 -7 1 -11 3l-104 56l-104 -56c-4 -2 -7.66699 -3 -11 -3c-8.66699 0 -16 4.66699 -22 14s-9 20 -9 32zM173.998 145c0 -28 12.998 -42.001 38.998 -42.001c16.667 0 33.334 9.33301 50.001 28s25 40 25 64v4h-4c-22 0 -40.167 -1 -54.5 -3
s-27.166 -7.16699 -38.499 -15.5s-17 -20.166 -17 -35.499z" />
    <glyph glyph-name="atilde" unicode="&#xe3;" horiz-adv-x="484" 
d="M18 123c0 55.333 20.167 94.333 60.5 117s98.166 34 173.499 34h36v10c0 20 -6 37.333 -18 52s-31 22 -57 22c-32 0 -58.333 -5.5 -79 -16.5s-33.334 -16.5 -38.001 -16.5c-16 0 -28.667 7.83301 -38 23.5s-14 33.5 -14 53.5c0 22 18.5 40.833 55.5 56.5
s75.5 23.5 115.5 23.5c76.667 0 133.834 -18.667 171.501 -56s56.5 -84 56.5 -140v-238c0 -13.333 -7.16699 -24.666 -21.5 -33.999s-32.5 -14 -54.5 -14c-19.333 0 -35.666 4.66699 -48.999 14s-20 20.666 -20 33.999v22c-46 -53.333 -96.667 -80 -152 -80
c-36.667 0 -67.167 11.333 -91.5 34s-36.5 55.667 -36.5 99zM58 634c0 48.667 28.333 73 85 73c20.667 0 45.667 -4.5 75 -13.5s53 -13.5 71 -13.5c15.333 0 32 3.5 50 10.5s30 10.5 36 10.5c13.333 0 23 -5.83301 29 -17.5s9 -22.167 9 -31.5
c0 -48.667 -28.333 -73 -85 -73c-25.333 0 -52.5 4.5 -81.5 13.5s-50.5 13.5 -64.5 13.5c-15.333 0 -32 -3.5 -50 -10.5s-30 -10.5 -36 -10.5c-13.333 0 -23 5.83301 -29 17.5s-9 22.167 -9 31.5zM174 145c0 -28 12.998 -42.001 38.998 -42.001
c16.667 0 33.334 9.33301 50.001 28s25 40 25 64v4h-4c-22 0 -40.167 -1 -54.5 -3s-27.166 -7.16699 -38.499 -15.5s-17 -20.166 -17 -35.499z" />
    <glyph glyph-name="adieresis" unicode="&#xe4;" horiz-adv-x="484" 
d="M18 123c0 55.333 20.167 94.333 60.5 117s98.166 34 173.499 34h36v10c0 20 -6 37.333 -18 52s-31 22 -57 22c-32 0 -58.333 -5.5 -79 -16.5s-33.334 -16.5 -38.001 -16.5c-16 0 -28.667 7.83301 -38 23.5s-14 33.5 -14 53.5c0 22 18.5 40.833 55.5 56.5
s75.5 23.5 115.5 23.5c76.667 0 133.834 -18.667 171.501 -56s56.5 -84 56.5 -140v-238c0 -13.333 -7.16699 -24.666 -21.5 -33.999s-32.5 -14 -54.5 -14c-19.333 0 -35.666 4.66699 -48.999 14s-20 20.666 -20 33.999v22c-46 -53.333 -96.667 -80 -152 -80
c-36.667 0 -67.167 11.333 -91.5 34s-36.5 55.667 -36.5 99zM97 630c0 15.333 5.66699 28.833 17 40.5s24.666 17.5 39.999 17.5s28.5 -5.83301 39.5 -17.5s16.5 -25.167 16.5 -40.5c0 -16 -5.5 -29.833 -16.5 -41.5s-24.167 -17.5 -39.5 -17.5s-28.666 6 -39.999 18
s-17 25.667 -17 41zM174 145c0 -28 12.998 -42.001 38.998 -42.001c16.667 0 33.334 9.33301 50.001 28s25 40 25 64v4h-4c-22 0 -40.167 -1 -54.5 -3s-27.166 -7.16699 -38.499 -15.5s-17 -20.166 -17 -35.499zM256.998 629.999c0 15.333 5.66699 28.833 17 40.5
s24.666 17.5 39.999 17.5s28.5 -5.83301 39.5 -17.5s16.5 -25.167 16.5 -40.5c0 -16 -5.5 -29.833 -16.5 -41.5s-24.167 -17.5 -39.5 -17.5s-28.666 6 -39.999 18s-17 25.667 -17 41z" />
    <glyph glyph-name="aring" unicode="&#xe5;" horiz-adv-x="484" 
d="M18 123c0 55.333 20.167 94.333 60.5 117s98.166 34 173.499 34h36v10c0 20 -6 37.333 -18 52s-31 22 -57 22c-32 0 -58.333 -5.5 -79 -16.5s-33.334 -16.5 -38.001 -16.5c-16 0 -28.667 7.83301 -38 23.5s-14 33.5 -14 53.5c0 22 18.5 40.833 55.5 56.5
s75.5 23.5 115.5 23.5c76.667 0 133.834 -18.667 171.501 -56s56.5 -84 56.5 -140v-238c0 -13.333 -7.16699 -24.666 -21.5 -33.999s-32.5 -14 -54.5 -14c-19.333 0 -35.666 4.66699 -48.999 14s-20 20.666 -20 33.999v22c-46 -53.333 -96.667 -80 -152 -80
c-36.667 0 -67.167 11.333 -91.5 34s-36.5 55.667 -36.5 99zM137 668c0 26.667 9.66895 50.167 29.002 70.5s42.666 30.5 69.999 30.5c26.667 0 50.167 -10.167 70.5 -30.5s30.5 -43.833 30.5 -70.5c0 -27.333 -10.167 -51.333 -30.5 -72s-43.833 -31 -70.5 -31
s-49.834 10.333 -69.501 31s-29.5 44.667 -29.5 72zM174.002 145c0 -28 12.998 -42.001 38.998 -42.001c16.667 0 33.334 9.33301 50.001 28s25 40 25 64v4h-4c-22 0 -40.167 -1 -54.5 -3s-27.166 -7.16699 -38.499 -15.5s-17 -20.166 -17 -35.499zM196 666.999
c0 -10.667 4 -20.334 12 -29.001s17.667 -13 29 -13c10.667 0 19.834 4.33301 27.501 13s11.5 18.334 11.5 29.001c0 10 -3.83301 19 -11.5 27s-16.834 12 -27.501 12c-11.333 0 -21 -4 -29 -12s-12 -17 -12 -27z" />
    <glyph glyph-name="ae" unicode="&#xe6;" horiz-adv-x="756" 
d="M17 123c0 55.333 20.168 94.332 60.501 116.999s98.166 34 173.499 34h36v10c0 20 -6 37.333 -18 52s-31 22 -57 22c-32 0 -58.333 -5.5 -79 -16.5s-33.334 -16.5 -38.001 -16.5c-16 0 -28.667 7.83301 -38 23.5s-14 33.5 -14 53.5c0 22 18.5 40.833 55.5 56.5
s75.5 23.5 115.5 23.5c67.333 0 120 -24 158 -72c42.667 48 91 72 145 72c59.333 0 110 -17.833 152 -53.5s63 -81.167 63 -136.5c0 -21.333 -2.66699 -38.666 -8 -51.999s-13.333 -22.666 -24 -27.999s-20.5 -8.83301 -29.5 -10.5s-20.833 -2.5 -35.5 -2.5h-193v-6
c0 -24.667 9.33301 -44.5 28 -59.5s43.334 -22.5 74.001 -22.5c23.333 0 47.833 6.16699 73.5 18.5s42.834 18.5 51.501 18.5c16.667 0 30.334 -7.83301 41.001 -23.5s16 -30.5 16 -44.5c0 -20.667 -17.833 -40.834 -53.5 -60.501s-79.834 -29.5 -132.501 -29.5
c-79.333 0 -142.333 31.333 -189 94c-54.667 -62.667 -113.334 -94 -176.001 -94c-45.333 0 -83 11.333 -113 34s-45 55.667 -45 99zM173.001 144.999c0 -28 12.998 -42.001 38.998 -42.001c16.667 0 33.334 9.33301 50.001 28s25 40 25 64v4h-4c-22 0 -40.167 -1 -54.5 -3
s-27.166 -7.16699 -38.499 -15.5s-17 -20.166 -17 -35.499zM441.999 285.998h123.999c14 0 21 8 21 24c0 18.667 -7.16699 33.334 -21.5 44.001s-31.5 16 -51.5 16c-19.333 0 -36.166 -5.33301 -50.499 -16s-21.5 -25.334 -21.5 -44.001v-24z" />
    <glyph glyph-name="ccedilla" unicode="&#xe7;" horiz-adv-x="442" 
d="M28 202v67.999c0 63.333 18.833 114.5 56.5 153.5s93.834 58.5 168.501 58.5c48 0 88.167 -8.16699 120.5 -24.5s48.5 -35.833 48.5 -58.5c0 -16.667 -5.83301 -33.5 -17.5 -50.5s-25.834 -25.5 -42.501 -25.5c-5.33301 0 -17.5 4 -36.5 12s-38.833 12 -59.5 12
c-55.333 0 -83 -25.667 -83 -77v-68c0 -51.333 28 -77 84 -77c20 0 39.167 4.5 57.5 13.5s30.833 13.5 37.5 13.5c19.333 0 35.166 -8 47.499 -24s18.5 -32.667 18.5 -50c0 -20.667 -14 -39.5 -42 -56.5s-62.667 -27.167 -104 -30.5l-13 -38
c32.667 -1.33301 57.5 -9.33301 74.5 -24s25.5 -33 25.5 -55c0 -22.667 -8.66699 -43.834 -26 -63.501s-45.666 -29.5 -84.999 -29.5c-21.333 0 -41.333 2.83301 -60 8.5s-28 13.167 -28 22.5c0 6.66699 2.33301 15.334 7 26.001s11 16 19 16c2.66699 0 10 -2.33301 22 -7
s24 -7 36 -7c30.667 0 46 10.333 46 31c0 20 -14.333 31.333 -43 34l-62 6l24 81c-64 6 -111.833 27.833 -143.5 65.5s-47.5 85.834 -47.5 144.501z" />
    <glyph glyph-name="egrave" unicode="&#xe8;" 
d="M27 202l-0.00195312 72.998c0 56.667 22.5 105.334 67.5 146.001s99.167 61 162.5 61c59.333 0 110 -17.833 152 -53.5s63 -81.167 63 -136.5c0 -21.333 -2.66699 -38.666 -8 -51.999s-13.333 -22.666 -24 -27.999s-20.5 -8.83301 -29.5 -10.5s-20.833 -2.5 -35.5 -2.5
h-193v-6c0 -24.667 9.33301 -44.5 28 -59.5s43.334 -22.5 74.001 -22.5c23.333 0 47.833 6.16699 73.5 18.5s42.834 18.5 51.501 18.5c16.667 0 30.334 -7.83301 41.001 -23.5s16 -30.5 16 -44.5c0 -20.667 -17.833 -40.834 -53.5 -60.501s-79.834 -29.5 -132.501 -29.5
c-74.667 0 -135.5 19.5 -182.5 58.5s-70.5 90.167 -70.5 153.5zM127.998 661.998c0 14 4.66602 27.168 13.999 39.501s20.333 18.5 33 18.5c4.66699 0 9.33398 -1 14.001 -3l140 -65c13.333 -6.66699 20 -18.334 20 -35.001c0 -14 -4.5 -27.167 -13.5 -39.5
s-19.833 -18.5 -32.5 -18.5c-3.33301 0 -8.33301 1.33301 -15 4l-140 65c-13.333 6.66699 -20 18 -20 34zM181.997 285.999h123.999c14 0 21 8 21 24c0 18.667 -7.16699 33.334 -21.5 44.001s-31.5 16 -51.5 16c-19.333 0 -36.166 -5.33301 -50.499 -16
s-21.5 -25.334 -21.5 -44.001v-24z" />
    <glyph glyph-name="eacute" unicode="&#xe9;" 
d="M27 202l-0.00195312 72.998c0 56.667 22.5 105.334 67.5 146.001s99.167 61 162.5 61c59.333 0 110 -17.833 152 -53.5s63 -81.167 63 -136.5c0 -21.333 -2.66699 -38.666 -8 -51.999s-13.333 -22.666 -24 -27.999s-20.5 -8.83301 -29.5 -10.5s-20.833 -2.5 -35.5 -2.5
h-193v-6c0 -24.667 9.33301 -44.5 28 -59.5s43.334 -22.5 74.001 -22.5c23.333 0 47.833 6.16699 73.5 18.5s42.834 18.5 51.501 18.5c16.667 0 30.334 -7.83301 41.001 -23.5s16 -30.5 16 -44.5c0 -20.667 -17.833 -40.834 -53.5 -60.501s-79.834 -29.5 -132.501 -29.5
c-74.667 0 -135.5 19.5 -182.5 58.5s-70.5 90.167 -70.5 153.5zM147.998 616.998c0 16.667 6.66699 28.333 20 35l140 65c5.33301 2 10 3 14 3c12.667 0 23.667 -6.16699 33 -18.5s14 -25.5 14 -39.5c0 -16 -6.66699 -27.333 -20 -34l-140 -65
c-6.66699 -2.66699 -11.667 -4 -15 -4c-12.667 0 -23.5 6.16699 -32.5 18.5s-13.5 25.5 -13.5 39.5zM181.998 285.997h123.999c14 0 21 8 21 24c0 18.667 -7.16699 33.334 -21.5 44.001s-31.5 16 -51.5 16c-19.333 0 -36.166 -5.33301 -50.499 -16
s-21.5 -25.334 -21.5 -44.001v-24z" />
    <glyph glyph-name="ecircumflex" unicode="&#xea;" 
d="M27 202l-0.00195312 72.998c0 56.667 22.5 105.334 67.5 146.001s99.167 61 162.5 61c59.333 0 110 -17.833 152 -53.5s63 -81.167 63 -136.5c0 -21.333 -2.66699 -38.666 -8 -51.999s-13.333 -22.666 -24 -27.999s-20.5 -8.83301 -29.5 -10.5s-20.833 -2.5 -35.5 -2.5
h-193v-6c0 -24.667 9.33301 -44.5 28 -59.5s43.334 -22.5 74.001 -22.5c23.333 0 47.833 6.16699 73.5 18.5s42.834 18.5 51.501 18.5c16.667 0 30.334 -7.83301 41.001 -23.5s16 -30.5 16 -44.5c0 -20.667 -17.833 -40.834 -53.5 -60.501s-79.834 -29.5 -132.501 -29.5
c-74.667 0 -135.5 19.5 -182.5 58.5s-70.5 90.167 -70.5 153.5zM108.998 614.998c0 20 8.33105 34.667 24.998 44l104 56c6.66699 3.33301 12.334 5 17.001 5s10.334 -1.66699 17.001 -5l104 -56c16.667 -9.33301 25 -24 25 -44c0 -12 -3 -22.667 -9 -32
s-13.333 -14 -22 -14c-3.33301 0 -7 1 -11 3l-104 56l-104 -56c-4 -2 -7.66699 -3 -11 -3c-8.66699 0 -16 4.66699 -22 14s-9 20 -9 32zM181.996 285.998h123.999c14 0 21 8 21 24c0 18.667 -7.16699 33.334 -21.5 44.001s-31.5 16 -51.5 16
c-19.333 0 -36.166 -5.33301 -50.499 -16s-21.5 -25.334 -21.5 -44.001v-24z" />
    <glyph glyph-name="edieresis" unicode="&#xeb;" 
d="M27 202l-0.00195312 72.998c0 56.667 22.5 105.334 67.5 146.001s99.167 61 162.5 61c59.333 0 110 -17.833 152 -53.5s63 -81.167 63 -136.5c0 -21.333 -2.66699 -38.666 -8 -51.999s-13.333 -22.666 -24 -27.999s-20.5 -8.83301 -29.5 -10.5s-20.833 -2.5 -35.5 -2.5
h-193v-6c0 -24.667 9.33301 -44.5 28 -59.5s43.334 -22.5 74.001 -22.5c23.333 0 47.833 6.16699 73.5 18.5s42.834 18.5 51.501 18.5c16.667 0 30.334 -7.83301 41.001 -23.5s16 -30.5 16 -44.5c0 -20.667 -17.833 -40.834 -53.5 -60.501s-79.834 -29.5 -132.501 -29.5
c-74.667 0 -135.5 19.5 -182.5 58.5s-70.5 90.167 -70.5 153.5zM116.998 629.998c0 15.333 5.66699 28.833 17 40.5s24.666 17.5 39.999 17.5s28.5 -5.83301 39.5 -17.5s16.5 -25.167 16.5 -40.5c0 -16 -5.5 -29.833 -16.5 -41.5s-24.167 -17.5 -39.5 -17.5
s-28.666 6 -39.999 18s-17 25.667 -17 41zM181.998 285.998h123.999c14 0 21 8 21 24c0 18.667 -7.16699 33.334 -21.5 44.001s-31.5 16 -51.5 16c-19.333 0 -36.166 -5.33301 -50.499 -16s-21.5 -25.334 -21.5 -44.001v-24zM276.997 629.998
c0 15.333 5.66699 28.833 17 40.5s24.666 17.5 39.999 17.5s28.5 -5.83301 39.5 -17.5s16.5 -25.167 16.5 -40.5c0 -16 -5.5 -29.833 -16.5 -41.5s-24.167 -17.5 -39.5 -17.5s-28.666 6 -39.999 18s-17 25.667 -17 41z" />
    <glyph glyph-name="igrave" unicode="&#xec;" horiz-adv-x="244" 
d="M-7 662c0 14 4.66699 27.168 14 39.501s20.333 18.5 33 18.5c4 0 8.66699 -1 14 -3l140 -65c13.333 -6.66699 20 -18.334 20 -35.001c0 -14 -4.5 -27.167 -13.5 -39.5s-19.833 -18.5 -32.5 -18.5c-3.33301 0 -8.33301 1.33301 -15 4l-140 65
c-13.333 6.66699 -20 18 -20 34zM45 48.001l-0.000976562 380.999c0 14 7.16699 25.333 21.5 34s32.833 13 55.5 13c22 0 40.5 -4.33301 55.5 -13s22.5 -20 22.5 -34v-381c0 -12 -7.66699 -23 -23 -33s-33.666 -15 -54.999 -15c-22 -0 -40.333 4.83301 -55 14.5
s-22 20.834 -22 33.501z" />
    <glyph glyph-name="iacute" unicode="&#xed;" horiz-adv-x="244" 
d="M33 617c0 16.667 6.66602 28.333 19.999 35l140 65c4.66699 2 9.33398 3 14.001 3c12.667 0 23.667 -6.16699 33 -18.5s14 -25.5 14 -39.5c0 -16 -6.66699 -27.333 -20 -34l-140 -65c-6.66699 -2.66699 -11.667 -4 -15 -4c-12.667 0 -23.5 6.16699 -32.5 18.5
s-13.5 25.5 -13.5 39.5zM44.999 47.999l-0.000976562 380.999c0 14 7.16699 25.333 21.5 34s32.833 13 55.5 13c22 0 40.5 -4.33301 55.5 -13s22.5 -20 22.5 -34v-381c0 -12 -7.66699 -23 -23 -33s-33.666 -15 -54.999 -15c-22 0 -40.333 4.83301 -55 14.5
s-22 20.834 -22 33.501z" />
    <glyph glyph-name="icircumflex" unicode="&#xee;" horiz-adv-x="244" 
d="M-23 615c0 20 8.33105 34.667 24.998 44l104 56c6.66699 3.33301 12.334 5 17.001 5s10.334 -1.66699 17.001 -5l104 -56c16.667 -9.33301 25 -24 25 -44c0 -12 -3 -22.667 -9 -32s-13.333 -14 -22 -14c-3.33301 0 -7 1 -11 3l-104 56l-104 -56c-4 -2 -7.66699 -3 -11 -3
c-8.66699 0 -16 4.66699 -22 14s-9 20 -9 32zM44.998 48l-0.000976562 380.999c0 14 7.16699 25.333 21.5 34s32.833 13 55.5 13c22 0 40.5 -4.33301 55.5 -13s22.5 -20 22.5 -34v-381c0 -12 -7.66699 -23 -23 -33s-33.666 -15 -54.999 -15c-22 0 -40.333 4.83301 -55 14.5
s-22 20.834 -22 33.501z" />
    <glyph glyph-name="idieresis" unicode="&#xef;" horiz-adv-x="244" 
d="M-10 630c0 15.333 5.66699 28.833 17 40.5s24.666 17.5 39.999 17.5s28.5 -5.83301 39.5 -17.5s16.5 -25.167 16.5 -40.5c0 -16 -5.5 -29.833 -16.5 -41.5s-24.167 -17.5 -39.5 -17.5s-28.666 6 -39.999 18s-17 25.667 -17 41zM45 48l-0.000976562 380.999
c0 14 7.16699 25.333 21.5 34s32.833 13 55.5 13c22 0 40.5 -4.33301 55.5 -13s22.5 -20 22.5 -34v-381c0 -12 -7.66699 -23 -23 -33s-33.666 -15 -54.999 -15c-22 0 -40.333 4.83301 -55 14.5s-22 20.834 -22 33.501zM149.999 629.999c0 15.333 5.66699 28.833 17 40.5
s24.666 17.5 39.999 17.5s28.5 -5.83301 39.5 -17.5s16.5 -25.167 16.5 -40.5c0 -16 -5.5 -29.833 -16.5 -41.5s-24.167 -17.5 -39.5 -17.5s-28.666 6 -39.999 18s-17 25.667 -17 41z" />
    <glyph glyph-name="eth" unicode="&#xf0;" horiz-adv-x="525" 
d="M27 202l0.000976562 70.002c0 57.333 17.333 106.666 52 147.999s76.334 62 125.001 62c28.667 0 54.167 -7.33301 76.5 -22s39.166 -32.667 50.499 -54c0 41.333 -11.667 84.333 -35 129l-41 -25c-3.33301 -2.66699 -8 -4 -14 -4c-12.667 0 -24.667 6.66699 -36 20
s-17 27 -17 41c0 12 5.33301 21.333 16 28l33 20c-0.666992 1.33301 -2.16699 2.83301 -4.5 4.5s-3.83301 2.83398 -4.5 3.50098l-6 6l-6 6l-6 6c-2.66699 2.66699 -4.5 5.16699 -5.5 7.5s-2.16699 4.83301 -3.5 7.5s-2.33301 5.66699 -3 9s-1 6.66602 -1 9.99902
c0 17.333 6.16699 34 18.5 50s31.166 24 56.499 24c35.333 0 68 -17.667 98 -53l49 30c4.66699 2.66699 9.66699 4 15 4c12.667 0 24.5 -6.5 35.5 -19.5s16.5 -26.5 16.5 -40.5c0 -12.667 -5.33301 -22.334 -16 -29.001l-47 -29c42 -87.333 63 -177 63 -269v-141
c0 -56 -22.833 -105.333 -68.5 -148s-99.167 -64 -160.5 -64s-115 21.333 -161 64s-69 92 -69 148zM182.001 202.002c0 -20 7.5 -37.834 22.5 -53.501s32.5 -23.5 52.5 -23.5s37.333 7.83301 52 23.5s22 33.5 22 53.5v70c0 22 -7.83301 40 -23.5 54s-33.167 21 -52.5 21
c-20 0 -37.167 -7.66699 -51.5 -23s-21.5 -32.666 -21.5 -51.999v-70z" />
    <glyph glyph-name="ntilde" unicode="&#xf1;" horiz-adv-x="534" 
d="M45 48l-0.00195312 380.998c0 14 7.16699 25.333 21.5 34s32.833 13 55.5 13c18.667 0 34.667 -4.33301 48 -13s20 -20 20 -34v-23c10.667 21.333 27.834 39.333 51.501 54s51.167 22 82.5 22c46 0 85.833 -20.667 119.5 -62s50.5 -90.666 50.5 -147.999v-224
c0 -15.333 -7.66699 -27.166 -23 -35.499s-33.666 -12.5 -54.999 -12.5c-20 -0 -37.833 4.33301 -53.5 13s-23.5 20.334 -23.5 35.001v224c0 19.333 -7.16699 36.666 -21.5 51.999s-31.166 23 -50.499 23c-17.333 0 -32.833 -6.83301 -46.5 -20.5
s-20.5 -31.834 -20.5 -54.501v-224c0 -12 -7.83301 -23 -23.5 -33s-33.834 -15 -54.501 -15c-22 0 -40.333 4.83301 -55 14.5s-22 20.834 -22 33.501zM88.998 633.998c0 48.667 28.333 73 85 73c20.667 0 45.667 -4.5 75 -13.5s53 -13.5 71 -13.5c15.333 0 32 3.5 50 10.5
s30 10.5 36 10.5c13.333 0 23 -5.83301 29 -17.5s9 -22.167 9 -31.5c0 -48.667 -28.333 -73 -85 -73c-25.333 0 -52.5 4.5 -81.5 13.5s-50.5 13.5 -64.5 13.5c-15.333 0 -32 -3.5 -50 -10.5s-30 -10.5 -36 -10.5c-13.333 0 -23 5.83301 -29 17.5s-9 22.167 -9 31.5z" />
    <glyph glyph-name="ograve" unicode="&#xf2;" horiz-adv-x="509" 
d="M27 202l0.00195312 69.998c0 56.667 22.333 105.834 67 147.501s98 62.5 160 62.5c61.333 0 114.666 -20.667 159.999 -62s68 -90.666 68 -147.999v-70c0 -56 -22.833 -105.333 -68.5 -148s-98.834 -64 -159.501 -64s-113.667 21.333 -159 64s-68 92 -68 148z
M128.002 661.998c0 14 4.66602 27.168 13.999 39.501s20.333 18.5 33 18.5c4.66699 0 9.33398 -1 14.001 -3l140 -65c13.333 -6.66699 20 -18.334 20 -35.001c0 -14 -4.5 -27.167 -13.5 -39.5s-19.833 -18.5 -32.5 -18.5c-3.33301 0 -8.33301 1.33301 -15 4l-140 65
c-13.333 6.66699 -20 18 -20 34zM182.001 201.999c0 -20 6.99902 -37.833 20.999 -53.5s31 -23.5 51 -23.5s37.167 7.83301 51.5 23.5s21.5 33.5 21.5 53.5v70c0 19.333 -7.33301 36.666 -22 51.999s-31.667 23 -51 23s-36.166 -7.66699 -50.499 -23
s-21.5 -32.666 -21.5 -51.999v-70z" />
    <glyph glyph-name="oacute" unicode="&#xf3;" horiz-adv-x="509" 
d="M27 202l0.00195312 69.998c0 56.667 22.333 105.834 67 147.501s98 62.5 160 62.5c61.333 0 114.666 -20.667 159.999 -62s68 -90.666 68 -147.999v-70c0 -56 -22.833 -105.333 -68.5 -148s-98.834 -64 -159.501 -64s-113.667 21.333 -159 64s-68 92 -68 148z
M148.002 616.998c0 16.667 6.66699 28.333 20 35l140 65c5.33301 2 10 3 14 3c12.667 0 23.667 -6.16699 33 -18.5s14 -25.5 14 -39.5c0 -16 -6.66699 -27.333 -20 -34l-140 -65c-6.66699 -2.66699 -11.667 -4 -15 -4c-12.667 0 -23.5 6.16699 -32.5 18.5
s-13.5 25.5 -13.5 39.5zM182.002 201.997c0 -20 6.99902 -37.833 20.999 -53.5s31 -23.5 51 -23.5s37.167 7.83301 51.5 23.5s21.5 33.5 21.5 53.5v70c0 19.333 -7.33301 36.666 -22 51.999s-31.667 23 -51 23s-36.166 -7.66699 -50.499 -23s-21.5 -32.666 -21.5 -51.999
v-70z" />
    <glyph glyph-name="ocircumflex" unicode="&#xf4;" horiz-adv-x="509" 
d="M27 202l0.00195312 69.998c0 56.667 22.333 105.834 67 147.501s98 62.5 160 62.5c61.333 0 114.666 -20.667 159.999 -62s68 -90.666 68 -147.999v-70c0 -56 -22.833 -105.333 -68.5 -148s-98.834 -64 -159.501 -64s-113.667 21.333 -159 64s-68 92 -68 148z
M108.002 614.998c0 20 8.33105 34.667 24.998 44l104 56c6.66699 3.33301 12.334 5 17.001 5s10.334 -1.66699 17.001 -5l104 -56c16.667 -9.33301 25 -24 25 -44c0 -12 -3 -22.667 -9 -32s-13.333 -14 -22 -14c-3.33301 0 -7 1 -11 3l-104 56l-104 -56
c-4 -2 -7.66699 -3 -11 -3c-8.66699 0 -16 4.66699 -22 14s-9 20 -9 32zM182 201.998c0 -20 6.99902 -37.833 20.999 -53.5s31 -23.5 51 -23.5s37.167 7.83301 51.5 23.5s21.5 33.5 21.5 53.5v70c0 19.333 -7.33301 36.666 -22 51.999s-31.667 23 -51 23
s-36.166 -7.66699 -50.499 -23s-21.5 -32.666 -21.5 -51.999v-70z" />
    <glyph glyph-name="otilde" unicode="&#xf5;" horiz-adv-x="509" 
d="M27 202l0.00195312 69.998c0 56.667 22.333 105.834 67 147.501s98 62.5 160 62.5c61.333 0 114.666 -20.667 159.999 -62s68 -90.666 68 -147.999v-70c0 -56 -22.833 -105.333 -68.5 -148s-98.834 -64 -159.501 -64s-113.667 21.333 -159 64s-68 92 -68 148z
M78.002 633.998c0 48.667 28.333 73 85 73c20.667 0 45.667 -4.5 75 -13.5s53 -13.5 71 -13.5c15.333 0 32 3.5 50 10.5s30 10.5 36 10.5c13.333 0 23 -5.83301 29 -17.5s9 -22.167 9 -31.5c0 -48.667 -28.333 -73 -85 -73c-25.333 0 -52.5 4.5 -81.5 13.5
s-50.5 13.5 -64.5 13.5c-15.333 0 -32 -3.5 -50 -10.5s-30 -10.5 -36 -10.5c-13.333 0 -23 5.83301 -29 17.5s-9 22.167 -9 31.5zM182.002 201.998c0 -20 6.99902 -37.833 20.999 -53.5s31 -23.5 51 -23.5s37.167 7.83301 51.5 23.5s21.5 33.5 21.5 53.5v70
c0 19.333 -7.33301 36.666 -22 51.999s-31.667 23 -51 23s-36.166 -7.66699 -50.499 -23s-21.5 -32.666 -21.5 -51.999v-70z" />
    <glyph glyph-name="odieresis" unicode="&#xf6;" horiz-adv-x="509" 
d="M27 202l0.00195312 69.998c0 56.667 22.333 105.834 67 147.501s98 62.5 160 62.5c61.333 0 114.666 -20.667 159.999 -62s68 -90.666 68 -147.999v-70c0 -56 -22.833 -105.333 -68.5 -148s-98.834 -64 -159.501 -64s-113.667 21.333 -159 64s-68 92 -68 148z
M119.002 629.998c0 15.333 5.66699 28.833 17 40.5s24.666 17.5 39.999 17.5s28.5 -5.83301 39.5 -17.5s16.5 -25.167 16.5 -40.5c0 -16 -5.5 -29.833 -16.5 -41.5s-24.167 -17.5 -39.5 -17.5s-28.666 6 -39.999 18s-17 25.667 -17 41zM182.002 201.998
c0 -20 6.99902 -37.833 20.999 -53.5s31 -23.5 51 -23.5s37.167 7.83301 51.5 23.5s21.5 33.5 21.5 53.5v70c0 19.333 -7.33301 36.666 -22 51.999s-31.667 23 -51 23s-36.166 -7.66699 -50.499 -23s-21.5 -32.666 -21.5 -51.999v-70zM279.001 629.998
c0 15.333 5.66699 28.833 17 40.5s24.666 17.5 39.999 17.5s28.5 -5.83301 39.5 -17.5s16.5 -25.167 16.5 -40.5c0 -16 -5.5 -29.833 -16.5 -41.5s-24.167 -17.5 -39.5 -17.5s-28.666 6 -39.999 18s-17 25.667 -17 41z" />
    <glyph glyph-name="divide" unicode="&#xf7;" horiz-adv-x="455" 
d="M20 238c0 17.333 4.5 31.668 13.5 43.001s20.833 17 35.5 17h316c12.667 0 24.167 -5.83301 34.5 -17.5s15.5 -25.834 15.5 -42.501c0 -17.333 -5 -31.5 -15 -42.5s-21.667 -16.5 -35 -16.5h-316c-14.667 0 -26.5 5.33301 -35.5 16s-13.5 25 -13.5 43zM157 66.002
c0 18 6.66699 33 20 45s29 18 47 18c16.667 0 31.834 -6 45.501 -18s20.5 -27 20.5 -45c0 -16.667 -6.83301 -31.5 -20.5 -44.5s-28.834 -19.5 -45.501 -19.5c-17.333 0 -32.833 6.5 -46.5 19.5s-20.5 27.833 -20.5 44.5zM157 411.002c0 17.333 6.66699 32.333 20 45
s29 19 47 19c16.667 0 31.834 -6.33301 45.501 -19s20.5 -27.667 20.5 -45s-6.83301 -32.166 -20.5 -44.499s-28.834 -18.5 -45.501 -18.5c-18 0 -33.667 6.16699 -47 18.5s-20 27.166 -20 44.499z" />
    <glyph glyph-name="oslash" unicode="&#xf8;" horiz-adv-x="509" 
d="M27 202v69.999c0 56.667 22.333 105.834 67 147.501s98 62.5 160 62.5c42.667 0 83 -11 121 -33l36 48c6 8.66699 13.333 13 22 13s16.334 -3.16699 23.001 -9.5s10 -13.833 10 -22.5c0 -6.66699 -2.66699 -13.667 -8 -21l-35 -46c39.333 -40.667 59 -87 59 -139v-70
c0 -56 -22.833 -105.333 -68.5 -148s-98.834 -64 -159.501 -64c-44 0 -86 12.333 -126 37l-39 -51c-4 -5.33301 -9.66699 -8 -17 -8c-8 0 -15.167 3 -21.5 9s-9.5 13 -9.5 21c0 6 2.33301 12 7 18l36 48c-38 41.333 -57 87.333 -57 138zM182 193.999l107.999 141.999
c-11.333 7.33301 -23.333 11 -36 11c-19.333 0 -36.166 -7.66699 -50.499 -23s-21.5 -32.666 -21.5 -51.999v-78zM213.999 137.998c12 -8.66699 25.333 -13 40 -13c20 0 37.167 7.83301 51.5 23.5s21.5 33.5 21.5 53.5v70c0 1.33301 -0.166992 3.33301 -0.5 6
s-0.5 4.66699 -0.5 6z" />
    <glyph glyph-name="ugrave" unicode="&#xf9;" horiz-adv-x="535" 
d="M40 200l0.000976562 228c0 12 7.66699 23 23 33s33.666 15 54.999 15c20 0 37.833 -5 53.5 -15s23.5 -21 23.5 -33v-228c0 -19.333 7.33301 -36.666 22 -51.999s31.667 -23 51 -23s36.166 7.66699 50.499 23s21.5 32.666 21.5 51.999v229
c0 12.667 7.83301 23.667 23.5 33s33.834 14 54.501 14c22 0 40.333 -4.66699 55 -14s22 -20.333 22 -33v-229c0 -56 -22.5 -105 -67.5 -147s-98.167 -63 -159.5 -63c-62 0 -115.5 21 -160.5 63s-67.5 91 -67.5 147zM141.001 662c0 14 4.66699 27.168 14 39.501
s20.333 18.5 33 18.5c4 0 8.66699 -1 14 -3l140 -65c13.333 -6.66699 20 -18.334 20 -35.001c0 -14 -4.5 -27.167 -13.5 -39.5s-19.833 -18.5 -32.5 -18.5c-3.33301 0 -8.33301 1.33301 -15 4l-140 65c-13.333 6.66699 -20 18 -20 34z" />
    <glyph glyph-name="uacute" unicode="&#xfa;" horiz-adv-x="535" 
d="M40 200l0.000976562 228c0 12 7.66699 23 23 33s33.666 15 54.999 15c20 0 37.833 -5 53.5 -15s23.5 -21 23.5 -33v-228c0 -19.333 7.33301 -36.666 22 -51.999s31.667 -23 51 -23s36.166 7.66699 50.499 23s21.5 32.666 21.5 51.999v229
c0 12.667 7.83301 23.667 23.5 33s33.834 14 54.501 14c22 0 40.333 -4.66699 55 -14s22 -20.333 22 -33v-229c0 -56 -22.5 -105 -67.5 -147s-98.167 -63 -159.5 -63c-62 0 -115.5 21 -160.5 63s-67.5 91 -67.5 147zM171.001 617c0 16.667 6.66602 28.333 19.999 35l140 65
c4.66699 2 9.33398 3 14.001 3c12.667 0 23.667 -6.16699 33 -18.5s14 -25.5 14 -39.5c0 -16 -6.66699 -27.333 -20 -34l-140 -65c-6.66699 -2.66699 -11.667 -4 -15 -4c-12.667 0 -23.5 6.16699 -32.5 18.5s-13.5 25.5 -13.5 39.5z" />
    <glyph glyph-name="ucircumflex" unicode="&#xfb;" horiz-adv-x="535" 
d="M40 200l0.000976562 228c0 12 7.66699 23 23 33s33.666 15 54.999 15c20 0 37.833 -5 53.5 -15s23.5 -21 23.5 -33v-228c0 -19.333 7.33301 -36.666 22 -51.999s31.667 -23 51 -23s36.166 7.66699 50.499 23s21.5 32.666 21.5 51.999v229
c0 12.667 7.83301 23.667 23.5 33s33.834 14 54.501 14c22 0 40.333 -4.66699 55 -14s22 -20.333 22 -33v-229c0 -56 -22.5 -105 -67.5 -147s-98.167 -63 -159.5 -63c-62 0 -115.5 21 -160.5 63s-67.5 91 -67.5 147zM123.001 615c0 20 8.33105 34.667 24.998 44l104 56
c6.66699 3.33301 12.334 5 17.001 5s10.334 -1.66699 17.001 -5l104 -56c16.667 -9.33301 25 -24 25 -44c0 -12 -3 -22.667 -9 -32s-13.333 -14 -22 -14c-3.33301 0 -7 1 -11 3l-104 56l-104 -56c-4 -2 -7.66699 -3 -11 -3c-8.66699 0 -16 4.66699 -22 14s-9 20 -9 32z" />
    <glyph glyph-name="udieresis" unicode="&#xfc;" horiz-adv-x="535" 
d="M40 200l0.000976562 228c0 12 7.66699 23 23 33s33.666 15 54.999 15c20 0 37.833 -5 53.5 -15s23.5 -21 23.5 -33v-228c0 -19.333 7.33301 -36.666 22 -51.999s31.667 -23 51 -23s36.166 7.66699 50.499 23s21.5 32.666 21.5 51.999v229
c0 12.667 7.83301 23.667 23.5 33s33.834 14 54.501 14c22 0 40.333 -4.66699 55 -14s22 -20.333 22 -33v-229c0 -56 -22.5 -105 -67.5 -147s-98.167 -63 -159.5 -63c-62 0 -115.5 21 -160.5 63s-67.5 91 -67.5 147zM132.001 630c0 15.333 5.66699 28.833 17 40.5
s24.666 17.5 39.999 17.5s28.5 -5.83301 39.5 -17.5s16.5 -25.167 16.5 -40.5c0 -16 -5.5 -29.833 -16.5 -41.5s-24.167 -17.5 -39.5 -17.5s-28.666 6 -39.999 18s-17 25.667 -17 41zM292.001 630c0 15.333 5.66699 28.833 17 40.5s24.666 17.5 39.999 17.5
s28.5 -5.83301 39.5 -17.5s16.5 -25.167 16.5 -40.5c0 -16 -5.5 -29.833 -16.5 -41.5s-24.167 -17.5 -39.5 -17.5s-28.666 6 -39.999 18s-17 25.667 -17 41z" />
    <glyph glyph-name="yacute" unicode="&#xfd;" 
d="M1 -151c0 42.667 12.6689 63.999 38.002 63.999c94.667 0 142 42.667 142 128l-175 348c-3.33301 6.66699 -5 13.334 -5 20.001c0 18.667 12 35.667 36 51s47 23 69 23s36.333 -8.33301 43 -25l113 -271l83 271c6.66699 16.667 20 25 40 25
c20.667 0 43.667 -7.83301 69 -23.5s38 -33.5 38 -53.5c0 -6.66699 -1.33301 -12.334 -4 -17.001l-142 -354c-3.33301 -9.33301 -9.33301 -25 -18 -47l-18 -46c-3.33301 -10 -9.5 -23.833 -18.5 -41.5s-17.333 -30.834 -25 -39.501s-18.167 -19 -31.5 -31
s-27.333 -20.667 -42 -26s-32.334 -10.166 -53.001 -14.499s-43.334 -6.5 -68.001 -6.5c-23.333 0 -41 4.33301 -53 13s-18 26.334 -18 53.001zM187.002 616.999c0 16.667 6.66602 28.333 19.999 35l140 65c4.66699 2 9.33398 3 14.001 3c12.667 0 23.667 -6.16699 33 -18.5
s14 -25.5 14 -39.5c0 -16 -6.66699 -27.333 -20 -34l-140 -65c-6.66699 -2.66699 -11.667 -4 -15 -4c-12.667 0 -23.5 6.16699 -32.5 18.5s-13.5 25.5 -13.5 39.5z" />
    <glyph glyph-name="thorn" unicode="&#xfe;" horiz-adv-x="533" 
d="M46 -169l0.00292969 869.999c0 14 7.16699 25.333 21.5 34s31.833 13 52.5 13c23.333 0 42.666 -4.33301 57.999 -13s23 -20 23 -34v-295c11.333 21.333 28.166 39.333 50.499 54s47.166 22 74.499 22c50 0 92.333 -20.5 127 -61.5s52 -90.5 52 -148.5v-70
c0 -56 -17.5 -105.333 -52.5 -148s-75.5 -64 -121.5 -64c-28 0 -54.167 7.83301 -78.5 23.5s-41.5 34.5 -51.5 56.5v-239c0 -12 -7.83301 -23 -23.5 -33s-34.167 -15 -55.5 -15s-39.333 4.83301 -54 14.5s-22 20.834 -22 33.501zM201.003 188.999
c0 -10.667 7.5 -23.998 22.5 -39.998s32.5 -24 52.5 -24c19.333 0 36.5 7.83301 51.5 23.5s22.5 33.5 22.5 53.5v70c0 19.333 -7.5 36.666 -22.5 51.999s-32.833 23 -53.5 23c-19.333 0 -36.333 -6.83301 -51 -20.5s-22 -31.834 -22 -54.501v-83z" />
    <glyph glyph-name="ydieresis" unicode="&#xff;" 
d="M1 -151c0 42.667 12.6689 63.999 38.002 63.999c94.667 0 142 42.667 142 128l-175 348c-3.33301 6.66699 -5 13.334 -5 20.001c0 18.667 12 35.667 36 51s47 23 69 23s36.333 -8.33301 43 -25l113 -271l83 271c6.66699 16.667 20 25 40 25
c20.667 0 43.667 -7.83301 69 -23.5s38 -33.5 38 -53.5c0 -6.66699 -1.33301 -12.334 -4 -17.001l-142 -354c-3.33301 -9.33301 -9.33301 -25 -18 -47l-18 -46c-3.33301 -10 -9.5 -23.833 -18.5 -41.5s-17.333 -30.834 -25 -39.501s-18.167 -19 -31.5 -31
s-27.333 -20.667 -42 -26s-32.334 -10.166 -53.001 -14.499s-43.334 -6.5 -68.001 -6.5c-23.333 0 -41 4.33301 -53 13s-18 26.334 -18 53.001zM124.002 629.999c0 15.333 5.66699 28.833 17 40.5s24.666 17.5 39.999 17.5s28.5 -5.83301 39.5 -17.5
s16.5 -25.167 16.5 -40.5c0 -16 -5.5 -29.833 -16.5 -41.5s-24.167 -17.5 -39.5 -17.5s-28.666 6 -39.999 18s-17 25.667 -17 41zM284.002 629.999c0 15.333 5.66699 28.833 17 40.5s24.666 17.5 39.999 17.5s28.5 -5.83301 39.5 -17.5s16.5 -25.167 16.5 -40.5
c0 -16 -5.5 -29.833 -16.5 -41.5s-24.167 -17.5 -39.5 -17.5s-28.666 6 -39.999 18s-17 25.667 -17 41z" />
    <glyph glyph-name="Amacron" unicode="&#x100;" horiz-adv-x="589" 
d="M4 64c0 2 0.666992 5.66699 2 11l186 610c5.33301 16.667 17.5 29.5 36.5 38.5s40.833 13.5 65.5 13.5s46.5 -4.5 65.5 -13.5s31.167 -21.833 36.5 -38.5l187 -610c1.33301 -5.33301 2 -9 2 -11c0 -17.333 -10.833 -32.333 -32.5 -45s-44.167 -19 -67.5 -19
c-28.667 0 -45.667 9.66699 -51 29l-34 125h-211l-34 -125c-5.33301 -19.333 -22.333 -29 -51 -29c-23.333 -0 -45.833 6.33301 -67.5 19s-32.5 27.667 -32.5 45zM147 888c0 14 4.33398 25.833 13.001 35.5s20 14.5 34 14.5h200c12 0 23 -5 33 -15s15 -21.667 15 -35
c0 -14 -4.83301 -25.667 -14.5 -35s-20.834 -14 -33.501 -14h-200c-14 0 -25.333 4.5 -34 13.5s-13 20.833 -13 35.5zM221.001 274h146l-73 268z" />
    <glyph glyph-name="amacron" unicode="&#x101;" horiz-adv-x="484" 
d="M18 123c0 55.333 20.167 94.333 60.5 117s98.166 34 173.499 34h36v10c0 20 -6 37.333 -18 52s-31 22 -57 22c-32 0 -58.333 -5.5 -79 -16.5s-33.334 -16.5 -38.001 -16.5c-16 0 -28.667 7.83301 -38 23.5s-14 33.5 -14 53.5c0 22 18.5 40.833 55.5 56.5
s75.5 23.5 115.5 23.5c76.667 0 133.834 -18.667 171.501 -56s56.5 -84 56.5 -140v-238c0 -13.333 -7.16699 -24.666 -21.5 -33.999s-32.5 -14 -54.5 -14c-19.333 0 -35.666 4.66699 -48.999 14s-20 20.666 -20 33.999v22c-46 -53.333 -96.667 -80 -152 -80
c-36.667 0 -67.167 11.333 -91.5 34s-36.5 55.667 -36.5 99zM91 649c0 14 4.33398 25.833 13.001 35.5s20 14.5 34 14.5h200c12 0 23 -4.83301 33 -14.5s15 -21.5 15 -35.5s-4.83301 -25.667 -14.5 -35s-20.834 -14 -33.501 -14h-200c-14 0 -25.333 4.5 -34 13.5
s-13 20.833 -13 35.5zM174.001 145c0 -28 12.998 -42.001 38.998 -42.001c16.667 0 33.334 9.33301 50.001 28s25 40 25 64v4h-4c-22 0 -40.167 -1 -54.5 -3s-27.166 -7.16699 -38.499 -15.5s-17 -20.166 -17 -35.499z" />
    <glyph glyph-name="Abreve" unicode="&#x102;" horiz-adv-x="589" 
d="M4 64c0 2 0.666992 5.66699 2 11l186 610c5.33301 16.667 17.5 29.5 36.5 38.5s40.833 13.5 65.5 13.5s46.5 -4.5 65.5 -13.5s31.167 -21.833 36.5 -38.5l187 -610c1.33301 -5.33301 2 -9 2 -11c0 -17.333 -10.833 -32.333 -32.5 -45s-44.167 -19 -67.5 -19
c-28.667 0 -45.667 9.66699 -51 29l-34 125h-211l-34 -125c-5.33301 -19.333 -22.333 -29 -51 -29c-23.333 -0 -45.833 6.33301 -67.5 19s-32.5 27.667 -32.5 45zM155 963h80.001c0 -20.667 6.16699 -38 18.5 -52s26.166 -21 41.499 -21c14.667 0 28.167 7 40.5 21
s18.5 31.333 18.5 52h80c0 -36.667 -14.167 -69 -42.5 -97s-60.5 -42 -96.5 -42s-68.333 14 -97 42s-43 60.333 -43 97zM221.001 274h146l-73 268z" />
    <glyph glyph-name="abreve" unicode="&#x103;" horiz-adv-x="484" 
d="M18 123c0 55.333 20.167 94.333 60.5 117s98.166 34 173.499 34h36v10c0 20 -6 37.333 -18 52s-31 22 -57 22c-32 0 -58.333 -5.5 -79 -16.5s-33.334 -16.5 -38.001 -16.5c-16 0 -28.667 7.83301 -38 23.5s-14 33.5 -14 53.5c0 22 18.5 40.833 55.5 56.5
s75.5 23.5 115.5 23.5c76.667 0 133.834 -18.667 171.501 -56s56.5 -84 56.5 -140v-238c0 -13.333 -7.16699 -24.666 -21.5 -33.999s-32.5 -14 -54.5 -14c-19.333 0 -35.666 4.66699 -48.999 14s-20 20.666 -20 33.999v22c-46 -53.333 -96.667 -80 -152 -80
c-36.667 0 -67.167 11.333 -91.5 34s-36.5 55.667 -36.5 99zM94 724h80.001c0 -20.667 6.16699 -38 18.5 -52s26.166 -21 41.499 -21c14.667 0 28.167 7 40.5 21s18.5 31.333 18.5 52h80c0 -36.667 -14.167 -69 -42.5 -97s-60.5 -42 -96.5 -42s-68.333 14 -97 42
s-43 60.333 -43 97zM174.001 145c0 -28 12.998 -42.001 38.998 -42.001c16.667 0 33.334 9.33301 50.001 28s25 40 25 64v4h-4c-22 0 -40.167 -1 -54.5 -3s-27.166 -7.16699 -38.499 -15.5s-17 -20.166 -17 -35.499z" />
    <glyph glyph-name="Aogonek" unicode="&#x104;" horiz-adv-x="589" 
d="M4 64c0 2 0.666992 5.66797 2 11.001l186 610c5.33301 16.667 17.5 29.5 36.5 38.5s40.833 13.5 65.5 13.5s46.5 -4.5 65.5 -13.5s31.167 -21.833 36.5 -38.5l187 -610c1.33301 -5.33301 2 -9 2 -11c0 -24 -19.333 -43 -58 -57
c-22 -12.667 -40.167 -29.834 -54.5 -51.501s-21.5 -42.5 -21.5 -62.5c0 -32 19.333 -48 58 -48c16.667 0 25 -11.333 25 -34c0 -19.333 -10.333 -29 -31 -29c-42 0 -73.333 9 -94 27s-31 41.333 -31 70c0 22 6.16699 44.833 18.5 68.5s29.5 44.167 51.5 61.5
c-7.33301 4 -12 10.667 -14 20l-34 125h-211l-34 -125c-5.33301 -19.333 -22.333 -29 -51 -29c-23.333 -0 -45.833 6.33301 -67.5 19s-32.5 27.667 -32.5 45zM221 274.001h146l-73 268z" />
    <glyph glyph-name="aogonek" unicode="&#x105;" horiz-adv-x="484" 
d="M18 123c0 55.333 20.168 94.333 60.501 117s98.166 34 173.499 34h36v10c0 20 -6 37.333 -18 52s-31 22 -57 22c-32 0 -58.333 -5.5 -79 -16.5s-33.334 -16.5 -38.001 -16.5c-16 0 -28.667 7.83301 -38 23.5s-14 33.5 -14 53.5c0 22 18.5 40.833 55.5 56.5
s75.5 23.5 115.5 23.5c76.667 0 133.834 -18.667 171.501 -56s56.5 -84 56.5 -140v-238c0 -19.333 -12.333 -33.333 -37 -42c-21.333 -12 -39 -29 -53 -51s-21 -42.667 -21 -62c0 -32 19.333 -48 58 -48c16.667 0 25 -11.333 25 -34c0 -19.333 -10.333 -29 -31 -29
c-42 0 -73.333 9 -94 27s-31 41.333 -31 70c0 49.333 23 92.333 69 129c-20 8.66699 -30 22 -30 40v22c-46 -53.333 -96.667 -80 -152 -80c-36.667 0 -67.167 11.333 -91.5 34s-36.5 55.667 -36.5 99zM174.001 145c0 -28 12.998 -42.001 38.998 -42.001
c16.667 0 33.334 9.33301 50.001 28s25 40 25 64v4h-4c-22 0 -40.167 -1 -54.5 -3s-27.166 -7.16699 -38.499 -15.5s-17 -20.166 -17 -35.499z" />
    <glyph glyph-name="Cacute" unicode="&#x106;" horiz-adv-x="562" 
d="M46 230v265c0 81.333 22.167 141 66.5 179s102.166 57 173.499 57c73.333 0 133.5 -17.667 180.5 -53s70.5 -84 70.5 -146c0 -28.667 -6 -48.167 -18 -58.5s-32 -15.5 -60 -15.5c-50 0 -76 15.667 -78 47c-2 60 -31.667 90 -89 90c-60 0 -90 -33.333 -90 -100v-265
c0 -66.667 30.333 -100 91 -100c18.667 0 34.167 3 46.5 9s21.166 15.167 26.499 27.5s8.83301 22.5 10.5 30.5s3.16699 19 4.5 33c2.66699 31.333 28.334 47 77.001 47c28.667 0 49 -5.16699 61 -15.5s18 -29.833 18 -58.5c0 -64.667 -23.5 -115.667 -70.5 -153
s-107.167 -56 -180.5 -56c-71.333 0 -129.166 19 -173.499 57s-66.5 97.667 -66.5 179zM205 856c0 16.667 6.66602 28.333 19.999 35l140 65c4.66699 2 9.33398 3 14.001 3c12.667 0 23.667 -6.16699 33 -18.5s14 -25.5 14 -39.5c0 -16 -6.66699 -27.333 -20 -34l-140 -65
c-6.66699 -2.66699 -11.667 -4 -15 -4c-12.667 0 -23.5 6.16699 -32.5 18.5s-13.5 25.5 -13.5 39.5z" />
    <glyph glyph-name="cacute" unicode="&#x107;" horiz-adv-x="442" 
d="M28 202l0.000976562 68c0 63.333 18.833 114.5 56.5 153.5s93.834 58.5 168.501 58.5c48 0 88.167 -8.16699 120.5 -24.5s48.5 -35.833 48.5 -58.5c0 -16.667 -5.83301 -33.5 -17.5 -50.5s-25.834 -25.5 -42.501 -25.5c-5.33301 0 -17.5 4 -36.5 12s-38.833 12 -59.5 12
c-55.333 0 -83 -25.667 -83 -77v-68c0 -51.333 28 -77 84 -77c20 0 39.167 4.5 57.5 13.5s30.833 13.5 37.5 13.5c19.333 0 35.166 -8 47.499 -24s18.5 -32.667 18.5 -50c0 -23.333 -17 -43.833 -51 -61.5s-74.667 -26.5 -122 -26.5c-76 0 -132.833 19.333 -170.5 58
s-56.5 90 -56.5 154zM141.001 617c0 16.667 6.66602 28.333 19.999 35l140 65c4.66699 2 9.33398 3 14.001 3c12.667 0 23.667 -6.16699 33 -18.5s14 -25.5 14 -39.5c0 -16 -6.66699 -27.333 -20 -34l-140 -65c-6.66699 -2.66699 -11.667 -4 -15 -4
c-12.667 0 -23.5 6.16699 -32.5 18.5s-13.5 25.5 -13.5 39.5z" />
    <glyph glyph-name="Ccircumflex" unicode="&#x108;" horiz-adv-x="562" 
d="M46 230v265c0 81.333 22.167 141 66.5 179s102.166 57 173.499 57c73.333 0 133.5 -17.667 180.5 -53s70.5 -84 70.5 -146c0 -28.667 -6 -48.167 -18 -58.5s-32 -15.5 -60 -15.5c-50 0 -76 15.667 -78 47c-2 60 -31.667 90 -89 90c-60 0 -90 -33.333 -90 -100v-265
c0 -66.667 30.333 -100 91 -100c18.667 0 34.167 3 46.5 9s21.166 15.167 26.499 27.5s8.83301 22.5 10.5 30.5s3.16699 19 4.5 33c2.66699 31.333 28.334 47 77.001 47c28.667 0 49 -5.16699 61 -15.5s18 -29.833 18 -58.5c0 -64.667 -23.5 -115.667 -70.5 -153
s-107.167 -56 -180.5 -56c-71.333 0 -129.166 19 -173.499 57s-66.5 97.667 -66.5 179zM145 854c0 20 8.33105 34.667 24.998 44l104 56c6.66699 3.33301 12.334 5 17.001 5s10.334 -1.66699 17.001 -5l104 -56c16.667 -9.33301 25 -24 25 -44c0 -12 -3 -22.667 -9 -32
s-13.333 -14 -22 -14c-3.33301 0 -7 1 -11 3l-104 56l-104 -56c-4 -2 -7.66699 -3 -11 -3c-8.66699 0 -16 4.66699 -22 14s-9 20 -9 32z" />
    <glyph glyph-name="ccircumflex" unicode="&#x109;" horiz-adv-x="442" 
d="M28 202l0.000976562 68c0 63.333 18.833 114.5 56.5 153.5s93.834 58.5 168.501 58.5c48 0 88.167 -8.16699 120.5 -24.5s48.5 -35.833 48.5 -58.5c0 -16.667 -5.83301 -33.5 -17.5 -50.5s-25.834 -25.5 -42.501 -25.5c-5.33301 0 -17.5 4 -36.5 12s-38.833 12 -59.5 12
c-55.333 0 -83 -25.667 -83 -77v-68c0 -51.333 28 -77 84 -77c20 0 39.167 4.5 57.5 13.5s30.833 13.5 37.5 13.5c19.333 0 35.166 -8 47.499 -24s18.5 -32.667 18.5 -50c0 -23.333 -17 -43.833 -51 -61.5s-74.667 -26.5 -122 -26.5c-76 0 -132.833 19.333 -170.5 58
s-56.5 90 -56.5 154zM96.001 615c0 20 8.33105 34.667 24.998 44l104 56c6.66699 3.33301 12.334 5 17.001 5s10.334 -1.66699 17.001 -5l104 -56c16.667 -9.33301 25 -24 25 -44c0 -12 -3 -22.667 -9 -32s-13.333 -14 -22 -14c-3.33301 0 -7 1 -11 3l-104 56l-104 -56
c-4 -2 -7.66699 -3 -11 -3c-8.66699 0 -16 4.66699 -22 14s-9 20 -9 32z" />
    <glyph glyph-name="Cdotaccent" unicode="&#x10a;" horiz-adv-x="562" 
d="M46 230v265c0 81.333 22.167 141 66.5 179s102.166 57 173.499 57c73.333 0 133.5 -17.667 180.5 -53s70.5 -84 70.5 -146c0 -28.667 -6 -48.167 -18 -58.5s-32 -15.5 -60 -15.5c-50 0 -76 15.667 -78 47c-2 60 -31.667 90 -89 90c-60 0 -90 -33.333 -90 -100v-265
c0 -66.667 30.333 -100 91 -100c18.667 0 34.167 3 46.5 9s21.166 15.167 26.499 27.5s8.83301 22.5 10.5 30.5s3.16699 19 4.5 33c2.66699 31.333 28.334 47 77.001 47c28.667 0 49 -5.16699 61 -15.5s18 -29.833 18 -58.5c0 -64.667 -23.5 -115.667 -70.5 -153
s-107.167 -56 -180.5 -56c-71.333 0 -129.166 19 -173.499 57s-66.5 97.667 -66.5 179zM236 869c0 15.333 5.66699 28.833 17 40.5s24.666 17.5 39.999 17.5s28.5 -5.83301 39.5 -17.5s16.5 -25.167 16.5 -40.5c0 -16 -5.5 -29.833 -16.5 -41.5s-24.167 -17.5 -39.5 -17.5
s-28.666 6 -39.999 18s-17 25.667 -17 41z" />
    <glyph glyph-name="cdotaccent" unicode="&#x10b;" horiz-adv-x="442" 
d="M28 202l0.000976562 68c0 63.333 18.833 114.5 56.5 153.5s93.834 58.5 168.501 58.5c48 0 88.167 -8.16699 120.5 -24.5s48.5 -35.833 48.5 -58.5c0 -16.667 -5.83301 -33.5 -17.5 -50.5s-25.834 -25.5 -42.501 -25.5c-5.33301 0 -17.5 4 -36.5 12s-38.833 12 -59.5 12
c-55.333 0 -83 -25.667 -83 -77v-68c0 -51.333 28 -77 84 -77c20 0 39.167 4.5 57.5 13.5s30.833 13.5 37.5 13.5c19.333 0 35.166 -8 47.499 -24s18.5 -32.667 18.5 -50c0 -23.333 -17 -43.833 -51 -61.5s-74.667 -26.5 -122 -26.5c-76 0 -132.833 19.333 -170.5 58
s-56.5 90 -56.5 154zM181.001 630c0 15.333 5.66699 28.833 17 40.5s24.666 17.5 39.999 17.5s28.5 -5.83301 39.5 -17.5s16.5 -25.167 16.5 -40.5c0 -16 -5.5 -29.833 -16.5 -41.5s-24.167 -17.5 -39.5 -17.5s-28.666 6 -39.999 18s-17 25.667 -17 41z" />
    <glyph glyph-name="Ccaron" unicode="&#x10c;" horiz-adv-x="562" 
d="M46 230v265c0 81.333 22.167 141 66.5 179s102.166 57 173.499 57c73.333 0 133.5 -17.667 180.5 -53s70.5 -84 70.5 -146c0 -28.667 -6 -48.167 -18 -58.5s-32 -15.5 -60 -15.5c-50 0 -76 15.667 -78 47c-2 60 -31.667 90 -89 90c-60 0 -90 -33.333 -90 -100v-265
c0 -66.667 30.333 -100 91 -100c18.667 0 34.167 3 46.5 9s21.166 15.167 26.499 27.5s8.83301 22.5 10.5 30.5s3.16699 19 4.5 33c2.66699 31.333 28.334 47 77.001 47c28.667 0 49 -5.16699 61 -15.5s18 -29.833 18 -58.5c0 -64.667 -23.5 -115.667 -70.5 -153
s-107.167 -56 -180.5 -56c-71.333 0 -129.166 19 -173.499 57s-66.5 97.667 -66.5 179zM144 925c0 12 3.00195 22.667 9.00195 32s13.333 14 22 14c3.33301 0 7 -1 11 -3l104 -56l104 56c4 2 7.66699 3 11 3c8.66699 0 16 -4.66699 22 -14s9 -20 9 -32
c0 -20 -8.33301 -34.667 -25 -44l-104 -56c-6.66699 -3.33301 -12.334 -5 -17.001 -5s-10.334 1.66699 -17.001 5l-104 56c-16.667 9.33301 -25 24 -25 44z" />
    <glyph glyph-name="ccaron" unicode="&#x10d;" horiz-adv-x="442" 
d="M28 202l0.000976562 68c0 63.333 18.833 114.5 56.5 153.5s93.834 58.5 168.501 58.5c48 0 88.167 -8.16699 120.5 -24.5s48.5 -35.833 48.5 -58.5c0 -16.667 -5.83301 -33.5 -17.5 -50.5s-25.834 -25.5 -42.501 -25.5c-5.33301 0 -17.5 4 -36.5 12s-38.833 12 -59.5 12
c-55.333 0 -83 -25.667 -83 -77v-68c0 -51.333 28 -77 84 -77c20 0 39.167 4.5 57.5 13.5s30.833 13.5 37.5 13.5c19.333 0 35.166 -8 47.499 -24s18.5 -32.667 18.5 -50c0 -23.333 -17 -43.833 -51 -61.5s-74.667 -26.5 -122 -26.5c-76 0 -132.833 19.333 -170.5 58
s-56.5 90 -56.5 154zM89.001 686c0 12 3.00195 22.667 9.00195 32s13.333 14 22 14c3.33301 0 7 -1 11 -3l104 -56l104 56c4 2 7.66699 3 11 3c8.66699 0 16 -4.66699 22 -14s9 -20 9 -32c0 -20 -8.33301 -34.667 -25 -44l-104 -56c-6.66699 -3.33301 -12.334 -5 -17.001 -5
s-10.334 1.66699 -17.001 5l-104 56c-16.667 9.33301 -25 24 -25 44z" />
    <glyph glyph-name="Dcaron" unicode="&#x10e;" horiz-adv-x="590" 
d="M54 47v637c0 12.667 6.33301 23.667 19 33s29 14 49 14h177c74.667 0 134.334 -19 179.001 -57s67 -97.667 67 -179v-259c0 -81.333 -22.333 -141 -67 -179s-104.334 -57 -179.001 -57h-177c-20 0 -36.333 4.66699 -49 14s-19 20.333 -19 33zM128 925
c0 12 3.00195 22.667 9.00195 32s13.333 14 22 14c3.33301 0 7 -1 11 -3l104 -56l104 56c4 2 7.66699 3 11 3c8.66699 0 16 -4.66699 22 -14s9 -20 9 -32c0 -20 -8.33301 -34.667 -25 -44l-104 -56c-6.66699 -3.33301 -12.334 -5 -17.001 -5s-10.334 1.66699 -17.001 5
l-104 56c-16.667 9.33301 -25 24 -25 44zM210.002 136h89c60 0 90 33.333 90 100v259c0 66.667 -30 100 -90 100h-89v-459z" />
    <glyph glyph-name="dcaron" unicode="&#x10f;" horiz-adv-x="533" 
d="M28 202l0.000976562 70.002c0 57.333 17.333 106.666 52 147.999s76.334 62 125.001 62c28.667 0 54.167 -7.33301 76.5 -22s39.166 -32.667 50.499 -54v295c0 14 7.5 25.333 22.5 34s33.833 13 56.5 13c22 0 40.167 -4.33301 54.5 -13s21.5 -20 21.5 -34v-653
c0 -12.667 -7.33301 -23.834 -22 -33.501s-32.667 -14.5 -54 -14.5c-18.667 0 -34.834 5 -48.501 15s-20.5 21 -20.5 33v22c-10.667 -22 -29 -40.833 -55 -56.5s-54.333 -23.5 -85 -23.5c-46 0 -86.5 21.333 -121.5 64s-52.5 92 -52.5 148zM183.001 202.002
c0 -20 7.16797 -37.834 21.501 -53.501s31.166 -23.5 50.499 -23.5s37 8 53 24s24 29.333 24 40v83c0 22 -7.83301 40 -23.5 54s-33.167 21 -52.5 21c-20 0 -37.167 -7.66699 -51.5 -23s-21.5 -32.666 -21.5 -51.999v-70zM534.002 664.001c0 21.333 7.5 39.502 22.5 54.502
s32.833 22.5 53.5 22.5s38.667 -7.5 54 -22.5s23 -32.833 23 -53.5c0 -10.667 -20.667 -64 -62 -160c-5.33301 -12 -15.333 -18 -30 -18c-12 0 -23.333 3.66699 -34 11s-16 16.666 -16 27.999c0 5.33301 1.33301 10.666 4 15.999l25 54c-26.667 15.333 -40 38 -40 68z" />
    <glyph glyph-name="Dcroat" unicode="&#x110;" horiz-adv-x="596" 
d="M-10 382c0 14.667 3.33301 27.5 10 38.5s16 16.5 28 16.5h32v247c0 12.667 6.33301 23.667 19 33s29 14 49 14h177c74.667 0 134.334 -19 179.001 -57s67 -97.667 67 -179v-259c0 -81.333 -22.333 -141 -67 -179s-104.334 -57 -179.001 -57h-177
c-20 0 -36.333 4.66699 -49 14s-19 20.333 -19 33v280h-32c-12 0 -21.333 5.33301 -28 16s-10 23.667 -10 39zM216 136h89c60 0 90 33.333 90 100v259c0 66.667 -30 100 -90 100h-89v-158h62c12 0 21.333 -5.5 28 -16.5s10 -23.833 10 -38.5
c0 -15.333 -3.33301 -28.333 -10 -39s-16 -16 -28 -16h-62v-191z" />
    <glyph glyph-name="dcroat" unicode="&#x111;" horiz-adv-x="533" 
d="M28 202l0.000976562 70.002c0 57.333 17.333 106.666 52 147.999s76.334 62 125.001 62c28.667 0 54.167 -7.33301 76.5 -22s39.166 -32.667 50.499 -54v139h-61c-12 0 -21.333 5.33301 -28 16s-10 23.667 -10 39c0 14.667 3.33301 27.5 10 38.5s16 16.5 28 16.5h61v46
c0 14 7.5 25.333 22.5 34s33.833 13 56.5 13c22 0 40.167 -4.33301 54.5 -13s21.5 -20 21.5 -34v-46h22c12 0 21.333 -5.5 28 -16.5s10 -23.833 10 -38.5c0 -15.333 -3.33301 -28.333 -10 -39s-16 -16 -28 -16h-22v-497c0 -12.667 -7.33301 -23.834 -22 -33.501
s-32.667 -14.5 -54 -14.5c-18.667 0 -34.834 5 -48.501 15s-20.5 21 -20.5 33v22c-10.667 -22 -29 -40.833 -55 -56.5s-54.333 -23.5 -85 -23.5c-46 0 -86.5 21.333 -121.5 64s-52.5 92 -52.5 148zM183.001 202.002c0 -20 7.16797 -37.834 21.501 -53.501
s31.166 -23.5 50.499 -23.5s37 8 53 24s24 29.333 24 40v83c0 22 -7.83301 40 -23.5 54s-33.167 21 -52.5 21c-20 0 -37.167 -7.66699 -51.5 -23s-21.5 -32.666 -21.5 -51.999v-70z" />
    <glyph glyph-name="Emacron" unicode="&#x112;" horiz-adv-x="539" 
d="M54 48v635c0 15.333 6.66699 27.166 20 35.499s29.333 12.5 48 12.5h356c15.333 0 27 -6.66699 35 -20s12 -29 12 -47c0 -19.333 -4.16699 -35.666 -12.5 -48.999s-19.833 -20 -34.5 -20h-268v-169h150c14.667 0 26.167 -6 34.5 -18s12.5 -26.333 12.5 -43
c0 -15.333 -4 -29 -12 -41s-19.667 -18 -35 -18h-150v-170h268c14.667 0 26.167 -6.66699 34.5 -20s12.5 -29.666 12.5 -48.999c0 -18 -4 -33.667 -12 -47s-19.667 -20 -35 -20h-356c-18.667 0 -34.667 4.16699 -48 12.5s-20 20.166 -20 35.499zM147 888
c0 14 4.33398 25.833 13.001 35.5s20 14.5 34 14.5h200c12 0 23 -5 33 -15s15 -21.667 15 -35c0 -14 -4.83301 -25.667 -14.5 -35s-20.834 -14 -33.501 -14h-200c-14 0 -25.333 4.5 -34 13.5s-13 20.833 -13 35.5z" />
    <glyph glyph-name="emacron" unicode="&#x113;" 
d="M27 202l-0.00195312 72.998c0 56.667 22.5 105.334 67.5 146.001s99.167 61 162.5 61c59.333 0 110 -17.833 152 -53.5s63 -81.167 63 -136.5c0 -21.333 -2.66699 -38.666 -8 -51.999s-13.333 -22.666 -24 -27.999s-20.5 -8.83301 -29.5 -10.5s-20.833 -2.5 -35.5 -2.5
h-193v-6c0 -24.667 9.33301 -44.5 28 -59.5s43.334 -22.5 74.001 -22.5c23.333 0 47.833 6.16699 73.5 18.5s42.834 18.5 51.501 18.5c16.667 0 30.334 -7.83301 41.001 -23.5s16 -30.5 16 -44.5c0 -20.667 -17.833 -40.834 -53.5 -60.501s-79.834 -29.5 -132.501 -29.5
c-74.667 0 -135.5 19.5 -182.5 58.5s-70.5 90.167 -70.5 153.5zM108.998 648.998c0 14 4.33398 25.833 13.001 35.5s20 14.5 34 14.5h200c12 0 23 -4.83301 33 -14.5s15 -21.5 15 -35.5s-4.83301 -25.667 -14.5 -35s-20.834 -14 -33.501 -14h-200
c-14 0 -25.333 4.5 -34 13.5s-13 20.833 -13 35.5zM181.999 285.998h123.999c14 0 21 8 21 24c0 18.667 -7.16699 33.334 -21.5 44.001s-31.5 16 -51.5 16c-19.333 0 -36.166 -5.33301 -50.499 -16s-21.5 -25.334 -21.5 -44.001v-24z" />
    <glyph glyph-name="Ebreve" unicode="&#x114;" horiz-adv-x="539" 
d="M54 48v635c0 15.333 6.66699 27.166 20 35.499s29.333 12.5 48 12.5h356c15.333 0 27 -6.66699 35 -20s12 -29 12 -47c0 -19.333 -4.16699 -35.666 -12.5 -48.999s-19.833 -20 -34.5 -20h-268v-169h150c14.667 0 26.167 -6 34.5 -18s12.5 -26.333 12.5 -43
c0 -15.333 -4 -29 -12 -41s-19.667 -18 -35 -18h-150v-170h268c14.667 0 26.167 -6.66699 34.5 -20s12.5 -29.666 12.5 -48.999c0 -18 -4 -33.667 -12 -47s-19.667 -20 -35 -20h-356c-18.667 0 -34.667 4.16699 -48 12.5s-20 20.166 -20 35.499zM149 963h80.001
c0 -20.667 6.16699 -38 18.5 -52s26.166 -21 41.499 -21c14.667 0 28.167 7 40.5 21s18.5 31.333 18.5 52h80c0 -36.667 -14.167 -69 -42.5 -97s-60.5 -42 -96.5 -42s-68.333 14 -97 42s-43 60.333 -43 97z" />
    <glyph glyph-name="ebreve" unicode="&#x115;" 
d="M27 202l-0.00195312 72.998c0 56.667 22.5 105.334 67.5 146.001s99.167 61 162.5 61c59.333 0 110 -17.833 152 -53.5s63 -81.167 63 -136.5c0 -21.333 -2.66699 -38.666 -8 -51.999s-13.333 -22.666 -24 -27.999s-20.5 -8.83301 -29.5 -10.5s-20.833 -2.5 -35.5 -2.5
h-193v-6c0 -24.667 9.33301 -44.5 28 -59.5s43.334 -22.5 74.001 -22.5c23.333 0 47.833 6.16699 73.5 18.5s42.834 18.5 51.501 18.5c16.667 0 30.334 -7.83301 41.001 -23.5s16 -30.5 16 -44.5c0 -20.667 -17.833 -40.834 -53.5 -60.501s-79.834 -29.5 -132.501 -29.5
c-74.667 0 -135.5 19.5 -182.5 58.5s-70.5 90.167 -70.5 153.5zM114.998 723.998h80.001c0 -20.667 6.16699 -38 18.5 -52s26.166 -21 41.499 -21c14.667 0 28.167 7 40.5 21s18.5 31.333 18.5 52h80c0 -36.667 -14.167 -69 -42.5 -97s-60.5 -42 -96.5 -42
s-68.333 14 -97 42s-43 60.333 -43 97zM181.999 285.998h123.999c14 0 21 8 21 24c0 18.667 -7.16699 33.334 -21.5 44.001s-31.5 16 -51.5 16c-19.333 0 -36.166 -5.33301 -50.499 -16s-21.5 -25.334 -21.5 -44.001v-24z" />
    <glyph glyph-name="Edotaccent" unicode="&#x116;" horiz-adv-x="539" 
d="M54 48v635c0 15.333 6.66699 27.166 20 35.499s29.333 12.5 48 12.5h356c15.333 0 27 -6.66699 35 -20s12 -29 12 -47c0 -19.333 -4.16699 -35.666 -12.5 -48.999s-19.833 -20 -34.5 -20h-268v-169h150c14.667 0 26.167 -6 34.5 -18s12.5 -26.333 12.5 -43
c0 -15.333 -4 -29 -12 -41s-19.667 -18 -35 -18h-150v-170h268c14.667 0 26.167 -6.66699 34.5 -20s12.5 -29.666 12.5 -48.999c0 -18 -4 -33.667 -12 -47s-19.667 -20 -35 -20h-356c-18.667 0 -34.667 4.16699 -48 12.5s-20 20.166 -20 35.499zM246 869
c0 15.333 5.66699 28.833 17 40.5s24.666 17.5 39.999 17.5s28.5 -5.83301 39.5 -17.5s16.5 -25.167 16.5 -40.5c0 -16 -5.5 -29.833 -16.5 -41.5s-24.167 -17.5 -39.5 -17.5s-28.666 6 -39.999 18s-17 25.667 -17 41z" />
    <glyph glyph-name="edotaccent" unicode="&#x117;" 
d="M27 202l-0.00195312 72.998c0 56.667 22.5 105.334 67.5 146.001s99.167 61 162.5 61c59.333 0 110 -17.833 152 -53.5s63 -81.167 63 -136.5c0 -21.333 -2.66699 -38.666 -8 -51.999s-13.333 -22.666 -24 -27.999s-20.5 -8.83301 -29.5 -10.5s-20.833 -2.5 -35.5 -2.5
h-193v-6c0 -24.667 9.33301 -44.5 28 -59.5s43.334 -22.5 74.001 -22.5c23.333 0 47.833 6.16699 73.5 18.5s42.834 18.5 51.501 18.5c16.667 0 30.334 -7.83301 41.001 -23.5s16 -30.5 16 -44.5c0 -20.667 -17.833 -40.834 -53.5 -60.501s-79.834 -29.5 -132.501 -29.5
c-74.667 0 -135.5 19.5 -182.5 58.5s-70.5 90.167 -70.5 153.5zM181.998 285.998h123.999c14 0 21 8 21 24c0 18.667 -7.16699 33.334 -21.5 44.001s-31.5 16 -51.5 16c-19.333 0 -36.166 -5.33301 -50.499 -16s-21.5 -25.334 -21.5 -44.001v-24zM197.997 629.998
c0 15.333 5.66699 28.833 17 40.5s24.666 17.5 39.999 17.5s28.5 -5.83301 39.5 -17.5s16.5 -25.167 16.5 -40.5c0 -16 -5.5 -29.833 -16.5 -41.5s-24.167 -17.5 -39.5 -17.5s-28.666 6 -39.999 18s-17 25.667 -17 41z" />
    <glyph glyph-name="Eogonek" unicode="&#x118;" horiz-adv-x="539" 
d="M54 48v635c0 15.333 6.66699 27.166 20 35.499s29.333 12.5 48 12.5h356c15.333 0 27 -6.66699 35 -20s12 -29 12 -47c0 -19.333 -4.16699 -35.666 -12.5 -48.999s-19.833 -20 -34.5 -20h-268v-169h150c14.667 0 26.167 -6 34.5 -18s12.5 -26.333 12.5 -43
c0 -15.333 -4 -29 -12 -41s-19.667 -18 -35 -18h-150v-170h268c14.667 0 26.167 -6.66699 34.5 -20s12.5 -29.666 12.5 -48.999c0 -36 -11.333 -57.667 -34 -65c-19.333 -13.333 -35.333 -30.333 -48 -51s-19 -40 -19 -58c0 -32 19.333 -48 58 -48
c16.667 0 25 -11.333 25 -34c0 -19.333 -10.333 -29 -31 -29c-42 0 -73.333 9 -94 27s-31 41.333 -31 70c0 44.667 20 85 60 121h-289c-18.667 0 -34.667 4.16699 -48 12.5s-20 20.166 -20 35.499z" />
    <glyph glyph-name="eogonek" unicode="&#x119;" 
d="M27 202l-0.00292969 72.9971c0 56.667 22.5 105.334 67.5 146.001s99.167 61 162.5 61c59.333 0 110 -17.833 152 -53.5s63 -81.167 63 -136.5c0 -21.333 -2.66699 -38.666 -8 -51.999s-13.333 -22.666 -24 -27.999s-20.5 -8.83301 -29.5 -10.5s-20.833 -2.5 -35.5 -2.5
h-193v-6c0 -24.667 9.33301 -44.5 28 -59.5s43.334 -22.5 74.001 -22.5c23.333 0 47.833 6.16699 73.5 18.5s42.834 18.5 51.501 18.5c16.667 0 30.334 -7.83301 41.001 -23.5s16 -30.5 16 -44.5c0 -12.667 -6.83301 -25.5 -20.5 -38.5s-32.167 -23.833 -55.5 -32.5
c-22 -12.667 -40.667 -30.167 -56 -52.5s-23 -43.5 -23 -63.5c0 -32 19.333 -48 58 -48c16.667 0 25 -11.333 25 -34c0 -19.333 -10.333 -29 -31 -29c-42 0 -73.333 9 -94 27s-31 41.333 -31 70c0 39.333 16.333 76.333 49 111h-7c-74.667 0 -135.5 19.5 -182.5 58.5
s-70.5 90.167 -70.5 153.5zM181.997 285.997h123.999c14 0 21 8 21 24c0 18.667 -7.16699 33.334 -21.5 44.001s-31.5 16 -51.5 16c-19.333 0 -36.166 -5.33301 -50.499 -16s-21.5 -25.334 -21.5 -44.001v-24z" />
    <glyph glyph-name="Ecaron" unicode="&#x11a;" horiz-adv-x="539" 
d="M54 48v635c0 15.333 6.66699 27.166 20 35.499s29.333 12.5 48 12.5h356c15.333 0 27 -6.66699 35 -20s12 -29 12 -47c0 -19.333 -4.16699 -35.666 -12.5 -48.999s-19.833 -20 -34.5 -20h-268v-169h150c14.667 0 26.167 -6 34.5 -18s12.5 -26.333 12.5 -43
c0 -15.333 -4 -29 -12 -41s-19.667 -18 -35 -18h-150v-170h268c14.667 0 26.167 -6.66699 34.5 -20s12.5 -29.666 12.5 -48.999c0 -18 -4 -33.667 -12 -47s-19.667 -20 -35 -20h-356c-18.667 0 -34.667 4.16699 -48 12.5s-20 20.166 -20 35.499zM142 925
c0 12 3.00195 22.667 9.00195 32s13.333 14 22 14c3.33301 0 7 -1 11 -3l104 -56l104 56c4 2 7.66699 3 11 3c8.66699 0 16 -4.66699 22 -14s9 -20 9 -32c0 -20 -8.33301 -34.667 -25 -44l-104 -56c-6.66699 -3.33301 -12.334 -5 -17.001 -5s-10.334 1.66699 -17.001 5
l-104 56c-16.667 9.33301 -25 24 -25 44z" />
    <glyph glyph-name="ecaron" unicode="&#x11b;" 
d="M27 202l-0.00195312 72.998c0 56.667 22.5 105.334 67.5 146.001s99.167 61 162.5 61c59.333 0 110 -17.833 152 -53.5s63 -81.167 63 -136.5c0 -21.333 -2.66699 -38.666 -8 -51.999s-13.333 -22.666 -24 -27.999s-20.5 -8.83301 -29.5 -10.5s-20.833 -2.5 -35.5 -2.5
h-193v-6c0 -24.667 9.33301 -44.5 28 -59.5s43.334 -22.5 74.001 -22.5c23.333 0 47.833 6.16699 73.5 18.5s42.834 18.5 51.501 18.5c16.667 0 30.334 -7.83301 41.001 -23.5s16 -30.5 16 -44.5c0 -20.667 -17.833 -40.834 -53.5 -60.501s-79.834 -29.5 -132.501 -29.5
c-74.667 0 -135.5 19.5 -182.5 58.5s-70.5 90.167 -70.5 153.5zM110.998 685.998c0 12 3.00195 22.667 9.00195 32s13.333 14 22 14c3.33301 0 7 -1 11 -3l104 -56l104 56c4 2 7.66699 3 11 3c8.66699 0 16 -4.66699 22 -14s9 -20 9 -32c0 -20 -8.33301 -34.667 -25 -44
l-104 -56c-6.66699 -3.33301 -12.334 -5 -17.001 -5s-10.334 1.66699 -17.001 5l-104 56c-16.667 9.33301 -25 24 -25 44zM182 285.998h123.999c14 0 21 8 21 24c0 18.667 -7.16699 33.334 -21.5 44.001s-31.5 16 -51.5 16c-19.333 0 -36.166 -5.33301 -50.499 -16
s-21.5 -25.334 -21.5 -44.001v-24z" />
    <glyph glyph-name="Gcircumflex" unicode="&#x11c;" horiz-adv-x="573" 
d="M46 230l0.00195312 265.004c0 81.333 22.167 141 66.5 179s102.166 57 173.499 57c73.333 0 133.5 -17.667 180.5 -53s70.5 -84 70.5 -146c0 -28.667 -6 -48.167 -18 -58.5s-32 -15.5 -60 -15.5c-51.333 0 -77.333 15.667 -78 47c0 9.33301 -0.333008 17.166 -1 23.499
s-2.66699 14.166 -6 23.499s-8 16.666 -14 21.999s-14.833 10.166 -26.5 14.499s-25.5 6.5 -41.5 6.5c-60 0 -90 -33.333 -90 -100v-265c0 -66.667 29.667 -100 89 -100c60 0 90 33.333 90 100v34h-59c-14.667 0 -26.167 5.83301 -34.5 17.5s-12.5 25.834 -12.5 42.501
c0 15.333 4.33301 29.166 13 41.499s20 18.5 34 18.5h168c14.667 0 26.167 -4.83301 34.5 -14.5s12.5 -21.167 12.5 -34.5v-105c0 -81.333 -22.333 -141 -67 -179s-104.334 -57 -179.001 -57c-74 0 -133.333 19 -178 57s-67 97.667 -67 179zM130.002 854.004
c0 20 8.33105 34.667 24.998 44l104 56c6.66699 3.33301 12.334 5 17.001 5s10.334 -1.66699 17.001 -5l104 -56c16.667 -9.33301 25 -24 25 -44c0 -12 -3 -22.667 -9 -32s-13.333 -14 -22 -14c-3.33301 0 -7 1 -11 3l-104 56l-104 -56c-4 -2 -7.66699 -3 -11 -3
c-8.66699 0 -16 4.66699 -22 14s-9 20 -9 32z" />
    <glyph glyph-name="gcircumflex" unicode="&#x11d;" horiz-adv-x="478" 
d="M12 -72c0 44 22.334 78.666 67.001 103.999c-24 14 -36 34.667 -36 62c0 29.333 17 56.333 51 81c-43.333 32 -65 74.333 -65 127v15c0 48.667 18.833 88.334 56.5 119.001s87.167 46 148.5 46c42 0 79.667 -8 113 -24c11.333 27.333 21.333 45.833 30 55.5
s17.667 14.5 27 14.5c17.333 0 31.5 -5.16699 42.5 -15.5s16.5 -20.5 16.5 -30.5c0 -10.667 -5.33301 -20.667 -16 -30l-20 -16c-10 -8 -17.667 -14.667 -23 -20c25.333 -27.333 38 -60.333 38 -99v-15c0 -48 -19.5 -87.833 -58.5 -119.5s-88.833 -47.5 -149.5 -47.5
c-22 0 -42 2 -60 6c-2.66699 -4.66699 -4 -9 -4 -13c0 -9.33301 10.167 -16.333 30.5 -21s45 -9 74 -13s58 -9.83301 87 -17.5s53.667 -22.5 74 -44.5s30.5 -50.667 30.5 -86c0 -54.667 -22 -95.5 -66 -122.5s-97.333 -40.5 -160 -40.5s-116.334 13 -161.001 39
s-67 61.333 -67 106zM89.001 614.999c0 20 8.33105 34.667 24.998 44l104 56c6.66699 3.33301 12.334 5 17.001 5s10.334 -1.66699 17.001 -5l104 -56c16.667 -9.33301 25 -24 25 -44c0 -12 -3 -22.667 -9 -32s-13.333 -14 -22 -14c-3.33301 0 -7 1 -11 3l-104 56l-104 -56
c-4 -2 -7.66699 -3 -11 -3c-8.66699 0 -16 4.66699 -22 14s-9 20 -9 32zM157.999 -56.001c0 -19.333 7.83398 -34.6641 23.501 -45.9971s34.167 -17 55.5 -17s39.833 5.66699 55.5 17s23.5 26 23.5 44c0 11.333 -3 20.666 -9 27.999s-15.167 13.166 -27.5 17.499
s-24.333 7.66602 -36 9.99902s-26.834 4.5 -45.501 6.5c-26.667 -14 -40 -34 -40 -60zM179 303.001c0 -22.667 5 -41.333 15 -56s24 -22 42 -22c17.333 0 31 7.16699 41 21.5s15 32.833 15 55.5v15c0 21.333 -5 39.166 -15 53.499s-24 21.5 -42 21.5
c-17.333 0 -31 -7.16699 -41 -21.5s-15 -32.166 -15 -53.499v-14z" />
    <glyph glyph-name="Gbreve" unicode="&#x11e;" horiz-adv-x="573" 
d="M46 230l0.00195312 265.004c0 81.333 22.167 141 66.5 179s102.166 57 173.499 57c73.333 0 133.5 -17.667 180.5 -53s70.5 -84 70.5 -146c0 -28.667 -6 -48.167 -18 -58.5s-32 -15.5 -60 -15.5c-51.333 0 -77.333 15.667 -78 47c0 9.33301 -0.333008 17.166 -1 23.499
s-2.66699 14.166 -6 23.499s-8 16.666 -14 21.999s-14.833 10.166 -26.5 14.499s-25.5 6.5 -41.5 6.5c-60 0 -90 -33.333 -90 -100v-265c0 -66.667 29.667 -100 89 -100c60 0 90 33.333 90 100v34h-59c-14.667 0 -26.167 5.83301 -34.5 17.5s-12.5 25.834 -12.5 42.501
c0 15.333 4.33301 29.166 13 41.499s20 18.5 34 18.5h168c14.667 0 26.167 -4.83301 34.5 -14.5s12.5 -21.167 12.5 -34.5v-105c0 -81.333 -22.333 -141 -67 -179s-104.334 -57 -179.001 -57c-74 0 -133.333 19 -178 57s-67 97.667 -67 179zM150.002 963.004h80.001
c0 -20.667 6.16699 -38 18.5 -52s26.166 -21 41.499 -21c14.667 0 28.167 7 40.5 21s18.5 31.333 18.5 52h80c0 -36.667 -14.167 -69 -42.5 -97s-60.5 -42 -96.5 -42s-68.333 14 -97 42s-43 60.333 -43 97z" />
    <glyph glyph-name="gbreve" unicode="&#x11f;" horiz-adv-x="478" 
d="M12 -72c0 44 22.334 78.666 67.001 103.999c-24 14 -36 34.667 -36 62c0 29.333 17 56.333 51 81c-43.333 32 -65 74.333 -65 127v15c0 48.667 18.833 88.334 56.5 119.001s87.167 46 148.5 46c42 0 79.667 -8 113 -24c11.333 27.333 21.333 45.833 30 55.5
s17.667 14.5 27 14.5c17.333 0 31.5 -5.16699 42.5 -15.5s16.5 -20.5 16.5 -30.5c0 -10.667 -5.33301 -20.667 -16 -30l-20 -16c-10 -8 -17.667 -14.667 -23 -20c25.333 -27.333 38 -60.333 38 -99v-15c0 -48 -19.5 -87.833 -58.5 -119.5s-88.833 -47.5 -149.5 -47.5
c-22 0 -42 2 -60 6c-2.66699 -4.66699 -4 -9 -4 -13c0 -9.33301 10.167 -16.333 30.5 -21s45 -9 74 -13s58 -9.83301 87 -17.5s53.667 -22.5 74 -44.5s30.5 -50.667 30.5 -86c0 -54.667 -22 -95.5 -66 -122.5s-97.333 -40.5 -160 -40.5s-116.334 13 -161.001 39
s-67 61.333 -67 106zM95.001 723.999h80.001c0 -20.667 6.16699 -38 18.5 -52s26.166 -21 41.499 -21c14.667 0 28.167 7 40.5 21s18.5 31.333 18.5 52h80c0 -36.667 -14.167 -69 -42.5 -97s-60.5 -42 -96.5 -42s-68.333 14 -97 42s-43 60.333 -43 97zM158.002 -56.001
c0 -19.333 7.83398 -34.6641 23.501 -45.9971s34.167 -17 55.5 -17s39.833 5.66699 55.5 17s23.5 26 23.5 44c0 11.333 -3 20.666 -9 27.999s-15.167 13.166 -27.5 17.499s-24.333 7.66602 -36 9.99902s-26.834 4.5 -45.501 6.5c-26.667 -14 -40 -34 -40 -60z
M179.003 303.001c0 -22.667 5 -41.333 15 -56s24 -22 42 -22c17.333 0 31 7.16699 41 21.5s15 32.833 15 55.5v15c0 21.333 -5 39.166 -15 53.499s-24 21.5 -42 21.5c-17.333 0 -31 -7.16699 -41 -21.5s-15 -32.166 -15 -53.499v-14z" />
    <glyph glyph-name="Gdotaccent" unicode="&#x120;" horiz-adv-x="573" 
d="M46 230l0.00195312 265.004c0 81.333 22.167 141 66.5 179s102.166 57 173.499 57c73.333 0 133.5 -17.667 180.5 -53s70.5 -84 70.5 -146c0 -28.667 -6 -48.167 -18 -58.5s-32 -15.5 -60 -15.5c-51.333 0 -77.333 15.667 -78 47c0 9.33301 -0.333008 17.166 -1 23.499
s-2.66699 14.166 -6 23.499s-8 16.666 -14 21.999s-14.833 10.166 -26.5 14.499s-25.5 6.5 -41.5 6.5c-60 0 -90 -33.333 -90 -100v-265c0 -66.667 29.667 -100 89 -100c60 0 90 33.333 90 100v34h-59c-14.667 0 -26.167 5.83301 -34.5 17.5s-12.5 25.834 -12.5 42.501
c0 15.333 4.33301 29.166 13 41.499s20 18.5 34 18.5h168c14.667 0 26.167 -4.83301 34.5 -14.5s12.5 -21.167 12.5 -34.5v-105c0 -81.333 -22.333 -141 -67 -179s-104.334 -57 -179.001 -57c-74 0 -133.333 19 -178 57s-67 97.667 -67 179zM230.002 869.004
c0 15.333 5.66699 28.833 17 40.5s24.666 17.5 39.999 17.5s28.5 -5.83301 39.5 -17.5s16.5 -25.167 16.5 -40.5c0 -16 -5.5 -29.833 -16.5 -41.5s-24.167 -17.5 -39.5 -17.5s-28.666 6 -39.999 18s-17 25.667 -17 41z" />
    <glyph glyph-name="gdotaccent" unicode="&#x121;" horiz-adv-x="478" 
d="M12 -72c0 44 22.334 78.666 67.001 103.999c-24 14 -36 34.667 -36 62c0 29.333 17 56.333 51 81c-43.333 32 -65 74.333 -65 127v15c0 48.667 18.833 88.334 56.5 119.001s87.167 46 148.5 46c42 0 79.667 -8 113 -24c11.333 27.333 21.333 45.833 30 55.5
s17.667 14.5 27 14.5c17.333 0 31.5 -5.16699 42.5 -15.5s16.5 -20.5 16.5 -30.5c0 -10.667 -5.33301 -20.667 -16 -30l-20 -16c-10 -8 -17.667 -14.667 -23 -20c25.333 -27.333 38 -60.333 38 -99v-15c0 -48 -19.5 -87.833 -58.5 -119.5s-88.833 -47.5 -149.5 -47.5
c-22 0 -42 2 -60 6c-2.66699 -4.66699 -4 -9 -4 -13c0 -9.33301 10.167 -16.333 30.5 -21s45 -9 74 -13s58 -9.83301 87 -17.5s53.667 -22.5 74 -44.5s30.5 -50.667 30.5 -86c0 -54.667 -22 -95.5 -66 -122.5s-97.333 -40.5 -160 -40.5s-116.334 13 -161.001 39
s-67 61.333 -67 106zM158.001 -56.001c0 -19.333 7.83398 -34.6641 23.501 -45.9971s34.167 -17 55.5 -17s39.833 5.66699 55.5 17s23.5 26 23.5 44c0 11.333 -3 20.666 -9 27.999s-15.167 13.166 -27.5 17.499s-24.333 7.66602 -36 9.99902s-26.834 4.5 -45.501 6.5
c-26.667 -14 -40 -34 -40 -60zM178.002 630.001c0 15.333 5.66699 28.833 17 40.5s24.666 17.5 39.999 17.5s28.5 -5.83301 39.5 -17.5s16.5 -25.167 16.5 -40.5c0 -16 -5.5 -29.833 -16.5 -41.5s-24.167 -17.5 -39.5 -17.5s-28.666 6 -39.999 18s-17 25.667 -17 41z
M179.002 303.001c0 -22.667 5 -41.333 15 -56s24 -22 42 -22c17.333 0 31 7.16699 41 21.5s15 32.833 15 55.5v15c0 21.333 -5 39.166 -15 53.499s-24 21.5 -42 21.5c-17.333 0 -31 -7.16699 -41 -21.5s-15 -32.166 -15 -53.499v-14z" />
    <glyph glyph-name="Gcommaaccent" unicode="&#x122;" horiz-adv-x="573" 
d="M46 230l0.00195312 265.004c0 81.333 22.167 141 66.5 179s102.166 57 173.499 57c73.333 0 133.5 -17.667 180.5 -53s70.5 -84 70.5 -146c0 -28.667 -6 -48.167 -18 -58.5s-32 -15.5 -60 -15.5c-51.333 0 -77.333 15.667 -78 47c0 9.33301 -0.333008 17.166 -1 23.499
s-2.66699 14.166 -6 23.499s-8 16.666 -14 21.999s-14.833 10.166 -26.5 14.499s-25.5 6.5 -41.5 6.5c-60 0 -90 -33.333 -90 -100v-265c0 -66.667 29.667 -100 89 -100c60 0 90 33.333 90 100v34h-59c-14.667 0 -26.167 5.83301 -34.5 17.5s-12.5 25.834 -12.5 42.501
c0 15.333 4.33301 29.166 13 41.499s20 18.5 34 18.5h168c14.667 0 26.167 -4.83301 34.5 -14.5s12.5 -21.167 12.5 -34.5v-105c0 -81.333 -22.333 -141 -67 -179s-104.334 -57 -179.001 -57c-74 0 -133.333 19 -178 57s-67 97.667 -67 179zM180.002 -150.996
c0 16.667 6.66699 28.333 20 35l140 65c5.33301 2 10 3 14 3c12.667 0 23.667 -6.16699 33 -18.5s14 -25.5 14 -39.5c0 -16 -6.66699 -27.333 -20 -34l-140 -65c-6.66699 -2.66699 -11.667 -4 -15 -4c-12.667 0 -23.5 6.16699 -32.5 18.5s-13.5 25.5 -13.5 39.5z" />
    <glyph glyph-name="gcommaaccent" unicode="&#x123;" horiz-adv-x="478" 
d="M12 -72c0 44 22.334 78.666 67.001 103.999c-24 14 -36 34.667 -36 62c0 29.333 17 56.333 51 81c-43.333 32 -65 74.333 -65 127v15c0 48.667 18.833 88.334 56.5 119.001s87.167 46 148.5 46c42 0 79.667 -8 113 -24c11.333 27.333 21.333 45.833 30 55.5
s17.667 14.5 27 14.5c17.333 0 31.5 -5.16699 42.5 -15.5s16.5 -20.5 16.5 -30.5c0 -10.667 -5.33301 -20.667 -16 -30l-20 -16c-10 -8 -17.667 -14.667 -23 -20c25.333 -27.333 38 -60.333 38 -99v-15c0 -48 -19.5 -87.833 -58.5 -119.5s-88.833 -47.5 -149.5 -47.5
c-22 0 -42 2 -60 6c-2.66699 -4.66699 -4 -9 -4 -13c0 -9.33301 10.167 -16.333 30.5 -21s45 -9 74 -13s58 -9.83301 87 -17.5s53.667 -22.5 74 -44.5s30.5 -50.667 30.5 -86c0 -54.667 -22 -95.5 -66 -122.5s-97.333 -40.5 -160 -40.5s-116.334 13 -161.001 39
s-67 61.333 -67 106zM147.001 616.999c0 16.667 6.66602 28.333 19.999 35l140 65c4.66699 2 9.33398 3 14.001 3c12.667 0 23.667 -6.16699 33 -18.5s14 -25.5 14 -39.5c0 -16 -6.66699 -27.333 -20 -34l-140 -65c-6.66699 -2.66699 -11.667 -4 -15 -4
c-12.667 0 -23.5 6.16699 -32.5 18.5s-13.5 25.5 -13.5 39.5zM158 -56.002c0 -19.333 7.83398 -34.6641 23.501 -45.9971s34.167 -17 55.5 -17s39.833 5.66699 55.5 17s23.5 26 23.5 44c0 11.333 -3 20.666 -9 27.999s-15.167 13.166 -27.5 17.499
s-24.333 7.66602 -36 9.99902s-26.834 4.5 -45.501 6.5c-26.667 -14 -40 -34 -40 -60zM166.001 822c0 10.667 20.667 63.998 62 159.998c5.33301 12 15.333 18 30 18c12 0 23.333 -3.66699 34 -11s16 -16.666 16 -27.999c0 -5.33301 -1.33301 -10.666 -4 -15.999l-25 -54
c26.667 -15.333 40 -38 40 -68c0 -21.333 -7.5 -39.5 -22.5 -54.5s-32.833 -22.5 -53.5 -22.5s-38.667 7.5 -54 22.5s-23 32.833 -23 53.5zM179.001 302.998c0 -22.667 5 -41.333 15 -56s24 -22 42 -22c17.333 0 31 7.16699 41 21.5s15 32.833 15 55.5v15
c0 21.333 -5 39.166 -15 53.499s-24 21.5 -42 21.5c-17.333 0 -31 -7.16699 -41 -21.5s-15 -32.166 -15 -53.499v-14z" />
    <glyph glyph-name="Hcircumflex" unicode="&#x124;" horiz-adv-x="619" 
d="M54 48v636c0 15.333 7.66699 27 23 35s33.666 12 54.999 12s39.666 -4 54.999 -12s23 -19.667 23 -35v-245h199v245c0 15.333 7.66699 27 23 35s33.666 12 54.999 12s39.666 -4 54.999 -12s23 -19.667 23 -35v-636c0 -15.333 -7.66699 -27.166 -23 -35.499
s-33.666 -12.5 -54.999 -12.5s-39.666 4.16699 -54.999 12.5s-23 20.166 -23 35.499v271h-199v-271c0 -15.333 -7.66699 -27.166 -23 -35.499s-33.666 -12.5 -54.999 -12.5s-39.666 4.16699 -54.999 12.5s-23 20.166 -23 35.499zM164 854c0 20 8.33105 34.667 24.998 44
l104 56c6.66699 3.33301 12.334 5 17.001 5s10.334 -1.66699 17.001 -5l104 -56c16.667 -9.33301 25 -24 25 -44c0 -12 -3 -22.667 -9 -32s-13.333 -14 -22 -14c-3.33301 0 -7 1 -11 3l-104 56l-104 -56c-4 -2 -7.66699 -3 -11 -3c-8.66699 0 -16 4.66699 -22 14
s-9 20 -9 32z" />
    <glyph glyph-name="hcircumflex" unicode="&#x125;" horiz-adv-x="535" 
d="M-26 870c0 20 8.33105 34.667 24.998 44l104 56c6.66699 3.33301 12.334 5 17.001 5s10.334 -1.66699 17.001 -5l104 -56c16.667 -9.33301 25 -24 25 -44c0 -12 -3 -22.667 -9 -32s-13.333 -14 -22 -14c-3.33301 0 -7 1 -11 3l-104 56l-104 -56c-4 -2 -7.66699 -3 -11 -3
c-8.66699 0 -16 4.66699 -22 14s-9 20 -9 32zM45.998 48v652.998c0 14 7.16699 25.333 21.5 34s32.833 13 55.5 13c21.333 0 39.666 -4.33301 54.999 -13s23 -20 23 -34v-295c10 21.333 25.833 39.333 47.5 54s47.167 22 76.5 22c46 0 85.833 -20.667 119.5 -62
s50.5 -90.666 50.5 -147.999v-224c0 -15.333 -7.66699 -27.166 -23 -35.499s-33.666 -12.5 -54.999 -12.5c-20 -0 -37.833 4.33301 -53.5 13s-23.5 20.334 -23.5 35.001v224c0 19.333 -7.16699 36.666 -21.5 51.999s-31.166 23 -50.499 23
c-17.333 0 -32.833 -6.83301 -46.5 -20.5s-20.5 -31.834 -20.5 -54.501v-224c0 -12 -7.83301 -23 -23.5 -33s-33.834 -15 -54.501 -15c-22 0 -40.333 4.83301 -55 14.5s-22 20.834 -22 33.501z" />
    <glyph glyph-name="Hbar" unicode="&#x126;" horiz-adv-x="623" 
d="M15 581c0 13.333 3.16699 24.833 9.5 34.5s15.5 14.5 27.5 14.5h4v54c0 15.333 7.66699 27 23 35s33.666 12 54.999 12s39.666 -4 54.999 -12s23 -19.667 23 -35v-54h199v54c0 15.333 7.66699 27 23 35s33.666 12 54.999 12s39.666 -4 54.999 -12s23 -19.667 23 -35v-54
h4c12 0 21 -4.83301 27 -14.5s9 -21.167 9 -34.5c0 -14 -3 -25.667 -9 -35s-15 -14 -27 -14h-4v-484c0 -15.333 -7.66699 -27.166 -23 -35.499s-33.666 -12.5 -54.999 -12.5s-39.666 4.16699 -54.999 12.5s-23 20.166 -23 35.499v271h-199v-271
c0 -15.333 -7.66699 -27.166 -23 -35.499s-33.666 -12.5 -54.999 -12.5s-39.666 4.16699 -54.999 12.5s-23 20.166 -23 35.499v484h-4c-12 0 -21.167 4.83301 -27.5 14.5s-9.5 21.167 -9.5 34.5zM212 439h199v93h-199v-93z" />
    <glyph glyph-name="hbar" unicode="&#x127;" horiz-adv-x="535" 
d="M-24 594c0 14 4.33301 25.8311 13 35.498s20 14.5 34 14.5h23v57c0 14 7.16699 25.333 21.5 34s32.833 13 55.5 13c21.333 0 39.666 -4.33301 54.999 -13s23 -20 23 -34v-57h22c12.667 0 23.834 -5 33.501 -15s14.5 -21.667 14.5 -35c0 -14 -4.83301 -25.667 -14.5 -35
s-20.834 -14 -33.501 -14h-22v-139c10 21.333 25.833 39.333 47.5 54s47.167 22 76.5 22c46 0 85.833 -20.667 119.5 -62s50.5 -90.666 50.5 -147.999v-224c0 -15.333 -7.66699 -27.166 -23 -35.499s-33.666 -12.5 -54.999 -12.5c-20 -0 -37.833 4.33301 -53.5 13
s-23.5 20.334 -23.5 35.001v224c0 19.333 -7.16699 36.666 -21.5 51.999s-31.166 23 -50.499 23c-17.333 0 -32.833 -6.83301 -46.5 -20.5s-20.5 -31.834 -20.5 -54.501v-224c0 -12 -7.83301 -23 -23.5 -33s-33.834 -15 -54.501 -15c-22 0 -40.333 4.83301 -55 14.5
s-22 20.834 -22 33.501v497h-23c-14 0 -25.333 4.5 -34 13.5s-13 20.833 -13 35.5z" />
    <glyph glyph-name="Itilde" unicode="&#x128;" horiz-adv-x="264" 
d="M-46 873c0 48.667 28.333 73 85 73c20.667 0 45.667 -4.5 75 -13.5s53 -13.5 71 -13.5c15.333 0 32 3.5 50 10.5s30 10.5 36 10.5c13.333 0 23 -5.83301 29 -17.5s9 -22.167 9 -31.5c0 -48.667 -28.333 -73 -85 -73c-25.333 0 -52.5 4.5 -81.5 13.5
s-50.5 13.5 -64.5 13.5c-15.333 0 -32 -3.5 -50 -10.5s-30 -10.5 -36 -10.5c-13.333 0 -23 5.83301 -29 17.5s-9 22.167 -9 31.5zM54 48v636c0 15.333 7.66699 27 23 35s33.666 12 54.999 12s39.666 -4 54.999 -12s23 -19.667 23 -35v-636
c0 -15.333 -7.66699 -27.166 -23 -35.499s-33.666 -12.5 -54.999 -12.5s-39.666 4.16699 -54.999 12.5s-23 20.166 -23 35.499z" />
    <glyph glyph-name="itilde" unicode="&#x129;" horiz-adv-x="244" 
d="M-54 634c0 48.667 28.333 73 85 73c20.667 0 45.667 -4.5 75 -13.5s53 -13.5 71 -13.5c15.333 0 32 3.5 50 10.5s30 10.5 36 10.5c13.333 0 23 -5.83301 29 -17.5s9 -22.167 9 -31.5c0 -48.667 -28.333 -73 -85 -73c-25.333 0 -52.5 4.5 -81.5 13.5
s-50.5 13.5 -64.5 13.5c-15.333 0 -32 -3.5 -50 -10.5s-30 -10.5 -36 -10.5c-13.333 0 -23 5.83301 -29 17.5s-9 22.167 -9 31.5zM45 48l-0.000976562 380.999c0 14 7.16699 25.333 21.5 34s32.833 13 55.5 13c22 0 40.5 -4.33301 55.5 -13s22.5 -20 22.5 -34v-381
c0 -12 -7.66699 -23 -23 -33s-33.666 -15 -54.999 -15c-22 0 -40.333 4.83301 -55 14.5s-22 20.834 -22 33.501z" />
    <glyph glyph-name="Imacron" unicode="&#x12a;" horiz-adv-x="264" 
d="M-16 888c0 14 4.33301 25.833 13 35.5s20 14.5 34 14.5h200c12.667 0 23.834 -5 33.501 -15s14.5 -21.667 14.5 -35c0 -14 -4.83301 -25.667 -14.5 -35s-20.834 -14 -33.501 -14h-200c-14 0 -25.333 4.5 -34 13.5s-13 20.833 -13 35.5zM54 48v636
c0 15.333 7.66699 27 23 35s33.666 12 54.999 12s39.666 -4 54.999 -12s23 -19.667 23 -35v-636c0 -15.333 -7.66699 -27.166 -23 -35.499s-33.666 -12.5 -54.999 -12.5s-39.666 4.16699 -54.999 12.5s-23 20.166 -23 35.499z" />
    <glyph glyph-name="imacron" unicode="&#x12b;" horiz-adv-x="244" 
d="M-24 649c0 14 4.33301 25.833 13 35.5s20 14.5 34 14.5h200c12.667 0 23.834 -4.83301 33.501 -14.5s14.5 -21.5 14.5 -35.5s-4.83301 -25.667 -14.5 -35s-20.834 -14 -33.501 -14h-200c-14 0 -25.333 4.5 -34 13.5s-13 20.833 -13 35.5zM45 48l-0.000976562 380.999
c0 14 7.16699 25.333 21.5 34s32.833 13 55.5 13c22 0 40.5 -4.33301 55.5 -13s22.5 -20 22.5 -34v-381c0 -12 -7.66699 -23 -23 -33s-33.666 -15 -54.999 -15c-22 0 -40.333 4.83301 -55 14.5s-22 20.834 -22 33.501z" />
    <glyph glyph-name="Ibreve" unicode="&#x12c;" horiz-adv-x="264" 
d="M-7 963h80.001c0 -20.667 6.16699 -38 18.5 -52s26.166 -21 41.499 -21c14.667 0 28.167 7 40.5 21s18.5 31.333 18.5 52h80c0 -36.667 -14.167 -69 -42.5 -97s-60.5 -42 -96.5 -42s-68.333 14 -97 42s-43 60.333 -43 97zM54.001 48v636c0 15.333 7.66699 27 23 35
s33.666 12 54.999 12s39.666 -4 54.999 -12s23 -19.667 23 -35v-636c0 -15.333 -7.66699 -27.166 -23 -35.499s-33.666 -12.5 -54.999 -12.5s-39.666 4.16699 -54.999 12.5s-23 20.166 -23 35.499z" />
    <glyph glyph-name="ibreve" unicode="&#x12d;" horiz-adv-x="244" 
d="M-17 724h80.001c0 -20.667 6.16699 -38 18.5 -52s26.166 -21 41.499 -21c14.667 0 28.167 7 40.5 21s18.5 31.333 18.5 52h80c0 -36.667 -14.167 -69 -42.5 -97s-60.5 -42 -96.5 -42s-68.333 14 -97 42s-43 60.333 -43 97zM45.001 48l-0.000976562 380.999
c0 14 7.16699 25.333 21.5 34s32.833 13 55.5 13c22 0 40.5 -4.33301 55.5 -13s22.5 -20 22.5 -34v-381c0 -12 -7.66699 -23 -23 -33s-33.666 -15 -54.999 -15c-22 0 -40.333 4.83301 -55 14.5s-22 20.834 -22 33.501z" />
    <glyph glyph-name="Iogonek" unicode="&#x12e;" horiz-adv-x="264" 
d="M26 -121c0 48 22.001 90.332 66.001 126.999c-25.333 8 -38 22 -38 42v636c0 15.333 7.66699 27 23 35s33.666 12 54.999 12s39.666 -4 54.999 -12s23 -19.667 23 -35v-636c0 -19.333 -12 -33 -36 -41c-21.333 -12 -39.166 -29.167 -53.499 -51.5
s-21.5 -43.166 -21.5 -62.499c0 -32 19.333 -48 58 -48c16.667 0 25 -11.333 25 -34c0 -19.333 -10.333 -29 -31 -29c-42 0 -73.333 9 -94 27s-31 41.333 -31 70z" />
    <glyph glyph-name="iogonek" unicode="&#x12f;" horiz-adv-x="244" 
d="M13 -121c0 22.667 6 45.5 18 68.5s28.667 42.833 50 59.5c-24 10 -36 23.667 -36 41v381c0 14 7.16699 25.333 21.5 34s32.833 13 55.5 13c22 0 40.5 -4.33301 55.5 -13s22.5 -20 22.5 -34v-381c0 -16.667 -12 -30 -36 -40c-22 -12 -40.5 -29.167 -55.5 -51.5
s-22.5 -43.5 -22.5 -63.5c0 -32 19.333 -48 58 -48c16.667 0 25 -11.333 25 -34c0 -19.333 -10.333 -29 -31 -29c-42 0 -73.333 9 -94 27s-31 41.333 -31 70zM40 640c0 19.333 8 36 24 50s35.333 21 58 21c22 0 41 -7 57 -21s24 -30.667 24 -50s-8 -36.166 -24 -50.499
s-35 -21.5 -57 -21.5c-22.667 0 -42 7.16699 -58 21.5s-24 31.166 -24 50.499z" />
    <glyph glyph-name="Idotaccent" unicode="&#x130;" horiz-adv-x="264" 
d="M54 48v636c0 15.333 7.66699 27 23 35s33.666 12 54.999 12s39.666 -4 54.999 -12s23 -19.667 23 -35v-636c0 -15.333 -7.66699 -27.166 -23 -35.499s-33.666 -12.5 -54.999 -12.5s-39.666 4.16699 -54.999 12.5s-23 20.166 -23 35.499zM76 869
c0 15.333 5.66699 28.833 17 40.5s24.666 17.5 39.999 17.5s28.5 -5.83301 39.5 -17.5s16.5 -25.167 16.5 -40.5c0 -16 -5.5 -29.833 -16.5 -41.5s-24.167 -17.5 -39.5 -17.5s-28.666 6 -39.999 18s-17 25.667 -17 41z" />
    <glyph glyph-name="dotlessi" unicode="&#x131;" horiz-adv-x="244" 
d="M45 48l-0.000976562 380.999c0 14 7.16699 25.333 21.5 34s32.833 13 55.5 13c22 0 40.5 -4.33301 55.5 -13s22.5 -20 22.5 -34v-381c0 -12 -7.66699 -23 -23 -33s-33.666 -15 -54.999 -15c-22 0 -40.333 4.83301 -55 14.5s-22 20.834 -22 33.501z" />
    <glyph glyph-name="IJ" unicode="&#x132;" horiz-adv-x="805" 
d="M54 48v636c0 15.333 7.66699 27 23 35s33.666 12 54.999 12s39.666 -4 54.999 -12s23 -19.667 23 -35v-636c0 -15.333 -7.66699 -27.166 -23 -35.499s-33.666 -12.5 -54.999 -12.5s-39.666 4.16699 -54.999 12.5s-23 20.166 -23 35.499zM263 203
c0 28.667 5.99902 48.167 17.999 58.5s32.333 15.5 61 15.5c48.667 0 74.334 -15.667 77.001 -47c1.33301 -14 2.83301 -25 4.5 -33s5.16699 -18.167 10.5 -30.5s14.166 -21.5 26.499 -27.5s27.833 -9 46.5 -9c60.667 0 91 33.333 91 100v365h-87
c-14.667 0 -26.167 6.66699 -34.5 20s-12.5 29.666 -12.5 48.999c0 18 4 33.667 12 47s19.667 20 35 20h175c18.667 0 34.667 -4.16699 48 -12.5s20 -20.166 20 -35.499v-453c0 -81.333 -22.167 -141 -66.5 -179s-102.166 -57 -173.499 -57
c-73.333 0 -133.5 18.667 -180.5 56s-70.5 88.333 -70.5 153z" />
    <glyph glyph-name="ij" unicode="&#x133;" horiz-adv-x="463" 
d="M40 640c0 19.333 8 36 24 50s35.333 21 58 21c22 0 41 -7 57 -21s24 -30.667 24 -50s-8 -36.166 -24 -50.499s-35 -21.5 -57 -21.5c-22.667 0 -42 7.16699 -58 21.5s-24 31.166 -24 50.499zM45 48l-0.000976562 380.999c0 14 7.16699 25.333 21.5 34s32.833 13 55.5 13
c22 0 40.5 -4.33301 55.5 -13s22.5 -20 22.5 -34v-381c0 -12 -7.66699 -23 -23 -33s-33.666 -15 -54.999 -15c-22 0 -40.333 4.83301 -55 14.5s-22 20.834 -22 33.501zM177.999 -154.001c0 20 5.50098 36.168 16.501 48.501s24.833 18.5 41.5 18.5
c11.333 0 18.666 4.83301 21.999 14.5s5 24.5 5 44.5v457c0 14 7.16699 25.333 21.5 34s32.5 13 54.5 13c22.667 0 41.5 -4.33301 56.5 -13s22.5 -20 22.5 -34v-457c0 -56.667 -14 -102.334 -42 -137.001s-67 -52 -117 -52c-54 0 -81 21 -81 63zM258 640
c0 19.333 8 36 24 50s35.333 21 58 21c22 0 41 -7 57 -21s24 -30.667 24 -50s-8 -36.166 -24 -50.499s-35 -21.5 -57 -21.5c-22.667 0 -42 7.16699 -58 21.5s-24 31.166 -24 50.499z" />
    <glyph glyph-name="Jcircumflex" unicode="&#x134;" horiz-adv-x="548" 
d="M6 203c0 28.667 5.99902 48.167 17.999 58.5s32.333 15.5 61 15.5c48.667 0 74.334 -15.667 77.001 -47c1.33301 -14 2.83301 -25 4.5 -33s5.16699 -18.167 10.5 -30.5s14.166 -21.5 26.499 -27.5s27.833 -9 46.5 -9c60.667 0 91 33.333 91 100v365h-87
c-14.667 0 -26.167 6.66699 -34.5 20s-12.5 29.666 -12.5 48.999c0 18 4 33.667 12 47s19.667 20 35 20h175c18.667 0 34.667 -4.16699 48 -12.5s20 -20.166 20 -35.499v-453c0 -81.333 -22.167 -141 -66.5 -179s-102.166 -57 -173.499 -57
c-73.333 0 -133.5 18.667 -180.5 56s-70.5 88.333 -70.5 153zM127.999 854c0 20 8.33105 34.667 24.998 44l104 56c6.66699 3.33301 12.334 5 17.001 5s10.334 -1.66699 17.001 -5l104 -56c16.667 -9.33301 25 -24 25 -44c0 -12 -3 -22.667 -9 -32s-13.333 -14 -22 -14
c-3.33301 0 -7 1 -11 3l-104 56l-104 -56c-4 -2 -7.66699 -3 -11 -3c-8.66699 0 -16 4.66699 -22 14s-9 20 -9 32z" />
    <glyph glyph-name="jcircumflex" unicode="&#x135;" horiz-adv-x="245" 
d="M-40 -154c0 20 5.50098 36.168 16.501 48.501s24.833 18.5 41.5 18.5c11.333 0 18.666 4.83301 21.999 14.5s5 24.5 5 44.5v457c0 14 7.16699 25.333 21.5 34s32.5 13 54.5 13c22.667 0 41.5 -4.33301 56.5 -13s22.5 -20 22.5 -34v-457
c0 -56.667 -14 -102.334 -42 -137.001s-67 -52 -117 -52c-54 0 -81 21 -81 63zM-22.999 615.001c0 20 8.33105 34.667 24.998 44l104 56c6.66699 3.33301 12.334 5 17.001 5s10.334 -1.66699 17.001 -5l104 -56c16.667 -9.33301 25 -24 25 -44c0 -12 -3 -22.667 -9 -32
s-13.333 -14 -22 -14c-3.33301 0 -7 1 -11 3l-104 56l-104 -56c-4 -2 -7.66699 -3 -11 -3c-8.66699 0 -16 4.66699 -22 14s-9 20 -9 32z" />
    <glyph glyph-name="Kcommaaccent" unicode="&#x136;" horiz-adv-x="566" 
d="M54 48v636c0 15.333 7.66699 27 23 35s33.666 12 54.999 12s39.666 -4 54.999 -12s23 -19.667 23 -35v-240l187 265c10 14.667 23.667 22 41 22c20.667 0 41.167 -8.5 61.5 -25.5s30.5 -35.167 30.5 -54.5c0 -10.667 -3.33301 -20.667 -10 -30l-164 -206l207 -317
c5.33301 -8.66699 8 -17.334 8 -26.001c0 -19.333 -10 -37.166 -30 -53.499s-41.333 -24.5 -64 -24.5c-24 0 -42 9.66699 -54 29l-171 260l-42 -54v-181c0 -15.333 -7.66699 -27.166 -23 -35.499s-33.666 -12.5 -54.999 -12.5s-39.666 4.16699 -54.999 12.5
s-23 20.166 -23 35.499zM177 -151c0 16.667 6.66602 28.333 19.999 35l140 65c4.66699 2 9.33398 3 14.001 3c12.667 0 23.667 -6.16699 33 -18.5s14 -25.5 14 -39.5c0 -16 -6.66699 -27.333 -20 -34l-140 -65c-6.66699 -2.66699 -11.667 -4 -15 -4
c-12.667 0 -23.5 6.16699 -32.5 18.5s-13.5 25.5 -13.5 39.5z" />
    <glyph glyph-name="kcommaaccent" unicode="&#x137;" horiz-adv-x="509" 
d="M46 48l-0.000976562 652.999c0 14 7.16699 25.333 21.5 34s32.5 13 54.5 13c22.667 0 41.5 -4.33301 56.5 -13s22.5 -20 22.5 -34v-392l166 161c8 8 18 12 30 12c16.667 0 33.334 -8.16699 50.001 -24.5s25 -32.833 25 -49.5c0 -10 -4 -19 -12 -27l-106 -98l137 -192
c5.33301 -8.66699 8 -16.667 8 -24c0 -17.333 -10 -34.5 -30 -51.5s-39.667 -25.5 -59 -25.5c-16 0 -28.333 6.33301 -37 19l-121 179l-51 -47v-93c0 -12 -7.83301 -23 -23.5 -33s-34.167 -15 -55.5 -15s-39.333 4.83301 -54 14.5s-22 20.834 -22 33.501zM141.999 -151.001
c0 16.667 6.66699 28.333 20 35l140 65c5.33301 2 10 3 14 3c12.667 0 23.667 -6.16699 33 -18.5s14 -25.5 14 -39.5c0 -16 -6.66699 -27.333 -20 -34l-140 -65c-6.66699 -2.66699 -11.667 -4 -15 -4c-12.667 0 -23.5 6.16699 -32.5 18.5s-13.5 25.5 -13.5 39.5z" />
    <glyph glyph-name="kgreenlandic" unicode="&#x138;" horiz-adv-x="508" 
d="M45 48l-0.000976562 380.999c0 14 7.16699 25.333 21.5 34s32.5 13 54.5 13c22.667 0 41.5 -4.33301 56.5 -13s22.5 -20 22.5 -34v-120l166 161c8 8 18 12 30 12c16.667 0 33.334 -8.16699 50.001 -24.5s25 -32.833 25 -49.5c0 -10 -4 -19 -12 -27l-106 -98l137 -192
c5.33301 -8.66699 8 -16.667 8 -24c0 -17.333 -10 -34.5 -30 -51.5s-39.667 -25.5 -59 -25.5c-16 0 -28.333 6.33301 -37 19l-121 179l-51 -47v-93c0 -12 -7.83301 -23 -23.5 -33s-34.167 -15 -55.5 -15s-39.333 4.83301 -54 14.5s-22 20.834 -22 33.501z" />
    <glyph glyph-name="Lacute" unicode="&#x139;" horiz-adv-x="492" 
d="M54 48l0.00195312 636.001c0 15.333 7.66699 27 23 35s33.666 12 54.999 12s39.666 -4 54.999 -12s23 -19.667 23 -35v-548h228c14 0 25 -6.66699 33 -20s12 -29.333 12 -48s-4 -34.667 -12 -48s-19 -20 -33 -20h-316c-18.667 0 -34.667 4.16699 -48 12.5
s-20 20.166 -20 35.499zM146.002 856.001c0 16.667 6.66699 28.333 20 35l140 65c5.33301 2 10 3 14 3c12.667 0 23.667 -6.16699 33 -18.5s14 -25.5 14 -39.5c0 -16 -6.66699 -27.333 -20 -34l-140 -65c-6.66699 -2.66699 -11.667 -4 -15 -4
c-12.667 0 -23.5 6.16699 -32.5 18.5s-13.5 25.5 -13.5 39.5z" />
    <glyph glyph-name="lacute" unicode="&#x13a;" horiz-adv-x="263" 
d="M51 847c0 16.667 6.66602 28.333 19.999 35l140 65c4.66699 2 9.33398 3 14.001 3c12.667 0 23.667 -6.16699 33 -18.5s14 -25.5 14 -39.5c0 -16 -6.66699 -27.333 -20 -34l-140 -65c-6.66699 -2.66699 -11.667 -4 -15 -4c-12.667 0 -23.5 6.16699 -32.5 18.5
s-13.5 25.5 -13.5 39.5zM53.999 47.999l-0.000976562 652.999c0 14 7.16699 25.333 21.5 34s32.833 13 55.5 13c22 0 40.5 -4.33301 55.5 -13s22.5 -20 22.5 -34v-653c0 -12 -7.66699 -23 -23 -33s-33.666 -15 -54.999 -15c-22 0 -40.333 4.83301 -55 14.5
s-22 20.834 -22 33.501z" />
    <glyph glyph-name="Lcommaaccent" unicode="&#x13b;" horiz-adv-x="492" 
d="M54 48l0.00195312 636.001c0 15.333 7.66699 27 23 35s33.666 12 54.999 12s39.666 -4 54.999 -12s23 -19.667 23 -35v-548h228c14 0 25 -6.66699 33 -20s12 -29.333 12 -48s-4 -34.667 -12 -48s-19 -20 -33 -20h-316c-18.667 0 -34.667 4.16699 -48 12.5
s-20 20.166 -20 35.499zM150.002 -150.999c0 16.667 6.66699 28.333 20 35l140 65c5.33301 2 10 3 14 3c12.667 0 23.667 -6.16699 33 -18.5s14 -25.5 14 -39.5c0 -16 -6.66699 -27.333 -20 -34l-140 -65c-6.66699 -2.66699 -11.667 -4 -15 -4
c-12.667 0 -23.5 6.16699 -32.5 18.5s-13.5 25.5 -13.5 39.5z" />
    <glyph glyph-name="lcommaaccent" unicode="&#x13c;" horiz-adv-x="263" 
d="M21 -151c0 16.667 6.66602 28.333 19.999 35l140 65c4.66699 2 9.33398 3 14.001 3c12.667 0 23.667 -6.16699 33 -18.5s14 -25.5 14 -39.5c0 -16 -6.66699 -27.333 -20 -34l-140 -65c-6.66699 -2.66699 -11.667 -4 -15 -4c-12.667 0 -23.5 6.16699 -32.5 18.5
s-13.5 25.5 -13.5 39.5zM53.999 47.999l-0.000976562 652.999c0 14 7.16699 25.333 21.5 34s32.833 13 55.5 13c22 0 40.5 -4.33301 55.5 -13s22.5 -20 22.5 -34v-653c0 -12 -7.66699 -23 -23 -33s-33.666 -15 -54.999 -15c-22 0 -40.333 4.83301 -55 14.5
s-22 20.834 -22 33.501z" />
    <glyph glyph-name="Lcaron" unicode="&#x13d;" horiz-adv-x="494" 
d="M54 48l0.00195312 636.001c0 15.333 7.66699 27 23 35s33.666 12 54.999 12s39.666 -4 54.999 -12s23 -19.667 23 -35v-548h228c14 0 25 -6.66699 33 -20s12 -29.333 12 -48s-4 -34.667 -12 -48s-19 -20 -33 -20h-316c-18.667 0 -34.667 4.16699 -48 12.5
s-20 20.166 -20 35.499zM313.002 664.001c0 21.333 7.5 39.502 22.5 54.502s32.833 22.5 53.5 22.5s38.667 -7.5 54 -22.5s23 -32.833 23 -53.5c0 -10.667 -20.667 -64 -62 -160c-5.33301 -12 -15.333 -18 -30 -18c-12 0 -23.333 3.66699 -34 11s-16 16.666 -16 27.999
c0 5.33301 1.33301 10.666 4 15.999l25 54c-26.667 15.333 -40 38 -40 68z" />
    <glyph glyph-name="lcaron" unicode="&#x13e;" horiz-adv-x="263" 
d="M54 48l-0.000976562 652.999c0 14 7.16699 25.333 21.5 34s32.833 13 55.5 13c22 0 40.5 -4.33301 55.5 -13s22.5 -20 22.5 -34v-653c0 -12 -7.66699 -23 -23 -33s-33.666 -15 -54.999 -15c-22 0 -40.333 4.83301 -55 14.5s-22 20.834 -22 33.501zM257.999 663.999
c0 21.333 7.5 39.502 22.5 54.502s32.833 22.5 53.5 22.5s38.667 -7.5 54 -22.5s23 -32.833 23 -53.5c0 -10.667 -20.667 -64 -62 -160c-5.33301 -12 -15.333 -18 -30 -18c-12 0 -23.333 3.66699 -34 11s-16 16.666 -16 27.999c0 5.33301 1.33301 10.666 4 15.999l25 54
c-26.667 15.333 -40 38 -40 68z" />
    <glyph glyph-name="Ldot" unicode="&#x13f;" horiz-adv-x="493" 
d="M54 48l0.00195312 636.001c0 15.333 7.66699 27 23 35s33.666 12 54.999 12s39.666 -4 54.999 -12s23 -19.667 23 -35v-548h228c14 0 25 -6.66699 33 -20s12 -29.333 12 -48s-4 -34.667 -12 -48s-19 -20 -33 -20h-316c-18.667 0 -34.667 4.16699 -48 12.5
s-20 20.166 -20 35.499zM300.002 421.001c0 19.333 8 36 24 50s35.333 21 58 21c22 0 41 -7 57 -21s24 -30.667 24 -50s-8 -36.166 -24 -50.499s-35 -21.5 -57 -21.5c-22.667 0 -42 7.16699 -58 21.5s-24 31.166 -24 50.499z" />
    <glyph glyph-name="ldot" unicode="&#x140;" horiz-adv-x="392" 
d="M54 48l-0.000976562 652.999c0 14 7.16699 25.333 21.5 34s32.833 13 55.5 13c22 0 40.5 -4.33301 55.5 -13s22.5 -20 22.5 -34v-653c0 -12 -7.66699 -23 -23 -33s-33.666 -15 -54.999 -15c-22 0 -40.333 4.83301 -55 14.5s-22 20.834 -22 33.501zM234.999 299.999
c0 19.333 8 36 24 50s35.333 21 58 21c22 0 41 -7 57 -21s24 -30.667 24 -50s-8 -36.166 -24 -50.499s-35 -21.5 -57 -21.5c-22.667 0 -42 7.16699 -58 21.5s-24 31.166 -24 50.499z" />
    <glyph glyph-name="Lslash" unicode="&#x141;" horiz-adv-x="498" 
d="M-10 317c0 17.333 6.00195 28.666 18.002 33.999l52 24v309c0 15.333 7.66699 27 23 35s33.666 12 54.999 12s39.666 -4 54.999 -12s23 -19.667 23 -35v-236l45 21c4 2 8 3 12 3c14 0 26.5 -7.66699 37.5 -23s16.5 -30.666 16.5 -45.999c0 -16.667 -6.33301 -28 -19 -34
l-92 -43v-190h228c14 0 25 -6.66699 33 -20s12 -29.333 12 -48s-4 -34.667 -12 -48s-19 -20 -33 -20h-316c-18.667 0 -34.667 4.16699 -48 12.5s-20 20.166 -20 35.499v205l-5 -2c-4 -2 -8.33301 -3 -13 -3c-13.333 0 -25.333 7.33301 -36 22s-16 30.334 -16 47.001z" />
    <glyph glyph-name="lslash" unicode="&#x142;" horiz-adv-x="336" 
d="M13 317c0 17.333 5.99902 28.6641 17.999 33.9971l59 27v323c0 14 7.16699 25.333 21.5 34s32.833 13 55.5 13c22 0 40.5 -4.33301 55.5 -13s22.5 -20 22.5 -34v-250l13 6c4 2 8 3 12 3c14 0 26.5 -7.66699 37.5 -23s16.5 -30.666 16.5 -45.999
c0 -16.667 -6.33301 -28 -19 -34l-60 -28v-281c0 -12 -7.66699 -23 -23 -33s-33.666 -15 -54.999 -15c-22 0 -40.333 4.83301 -55 14.5s-22 20.834 -22 33.501v208l-12 -5c-4 -2 -8.33301 -3 -13 -3c-13.333 0 -25.333 7.33301 -36 22s-16 30.334 -16 47.001z" />
    <glyph glyph-name="Nacute" unicode="&#x143;" horiz-adv-x="619" 
d="M54 48v635.001c0 15.333 7.66699 27.166 23 35.499s33.666 12.5 54.999 12.5c30 0 52.167 -4.33301 66.5 -13s30.5 -30.334 48.5 -65.001l162 -309v340c0 15.333 7.66699 27 23 35s33.666 12 54.999 12s39.666 -4 54.999 -12s23 -19.667 23 -35v-636
c0 -15.333 -7.66699 -27.166 -23 -35.499s-33.666 -12.5 -54.999 -12.5c-42.667 0 -71.667 14 -87 42l-190 346v-340c0 -15.333 -7.66699 -27.166 -23 -35.499s-33.666 -12.5 -54.999 -12.5s-39.666 4.16699 -54.999 12.5s-23 20.166 -23 35.499zM185 856.001
c0 16.667 6.66602 28.333 19.999 35l140 65c4.66699 2 9.33398 3 14.001 3c12.667 0 23.667 -6.16699 33 -18.5s14 -25.5 14 -39.5c0 -16 -6.66699 -27.333 -20 -34l-140 -65c-6.66699 -2.66699 -11.667 -4 -15 -4c-12.667 0 -23.5 6.16699 -32.5 18.5
s-13.5 25.5 -13.5 39.5z" />
    <glyph glyph-name="nacute" unicode="&#x144;" horiz-adv-x="534" 
d="M45 48l-0.00195312 380.998c0 14 7.16699 25.333 21.5 34s32.833 13 55.5 13c18.667 0 34.667 -4.33301 48 -13s20 -20 20 -34v-23c10.667 21.333 27.834 39.333 51.501 54s51.167 22 82.5 22c46 0 85.833 -20.667 119.5 -62s50.5 -90.666 50.5 -147.999v-224
c0 -15.333 -7.66699 -27.166 -23 -35.499s-33.666 -12.5 -54.999 -12.5c-20 -0 -37.833 4.33301 -53.5 13s-23.5 20.334 -23.5 35.001v224c0 19.333 -7.16699 36.666 -21.5 51.999s-31.166 23 -50.499 23c-17.333 0 -32.833 -6.83301 -46.5 -20.5
s-20.5 -31.834 -20.5 -54.501v-224c0 -12 -7.83301 -23 -23.5 -33s-33.834 -15 -54.501 -15c-22 0 -40.333 4.83301 -55 14.5s-22 20.834 -22 33.501zM165.998 616.998c0 16.667 6.66699 28.333 20 35l140 65c5.33301 2 10 3 14 3c12.667 0 23.667 -6.16699 33 -18.5
s14 -25.5 14 -39.5c0 -16 -6.66699 -27.333 -20 -34l-140 -65c-6.66699 -2.66699 -11.667 -4 -15 -4c-12.667 0 -23.5 6.16699 -32.5 18.5s-13.5 25.5 -13.5 39.5z" />
    <glyph glyph-name="Ncommaaccent" unicode="&#x145;" horiz-adv-x="619" 
d="M54 48v635.001c0 15.333 7.66699 27.166 23 35.499s33.666 12.5 54.999 12.5c30 0 52.167 -4.33301 66.5 -13s30.5 -30.334 48.5 -65.001l162 -309v340c0 15.333 7.66699 27 23 35s33.666 12 54.999 12s39.666 -4 54.999 -12s23 -19.667 23 -35v-636
c0 -15.333 -7.66699 -27.166 -23 -35.499s-33.666 -12.5 -54.999 -12.5c-42.667 0 -71.667 14 -87 42l-190 346v-340c0 -15.333 -7.66699 -27.166 -23 -35.499s-33.666 -12.5 -54.999 -12.5s-39.666 4.16699 -54.999 12.5s-23 20.166 -23 35.499zM199 -150.999
c0 16.667 6.66602 28.333 19.999 35l140 65c4.66699 2 9.33398 3 14.001 3c12.667 0 23.667 -6.16699 33 -18.5s14 -25.5 14 -39.5c0 -16 -6.66699 -27.333 -20 -34l-140 -65c-6.66699 -2.66699 -11.667 -4 -15 -4c-12.667 0 -23.5 6.16699 -32.5 18.5
s-13.5 25.5 -13.5 39.5z" />
    <glyph glyph-name="ncommaaccent" unicode="&#x146;" horiz-adv-x="534" 
d="M45 48l-0.00195312 380.998c0 14 7.16699 25.333 21.5 34s32.833 13 55.5 13c18.667 0 34.667 -4.33301 48 -13s20 -20 20 -34v-23c10.667 21.333 27.834 39.333 51.501 54s51.167 22 82.5 22c46 0 85.833 -20.667 119.5 -62s50.5 -90.666 50.5 -147.999v-224
c0 -15.333 -7.66699 -27.166 -23 -35.499s-33.666 -12.5 -54.999 -12.5c-20 -0 -37.833 4.33301 -53.5 13s-23.5 20.334 -23.5 35.001v224c0 19.333 -7.16699 36.666 -21.5 51.999s-31.166 23 -50.499 23c-17.333 0 -32.833 -6.83301 -46.5 -20.5
s-20.5 -31.834 -20.5 -54.501v-224c0 -12 -7.83301 -23 -23.5 -33s-33.834 -15 -54.501 -15c-22 0 -40.333 4.83301 -55 14.5s-22 20.834 -22 33.501zM157.998 -151.002c0 16.667 6.66699 28.333 20 35l140 65c5.33301 2 10 3 14 3c12.667 0 23.667 -6.16699 33 -18.5
s14 -25.5 14 -39.5c0 -16 -6.66699 -27.333 -20 -34l-140 -65c-6.66699 -2.66699 -11.667 -4 -15 -4c-12.667 0 -23.5 6.16699 -32.5 18.5s-13.5 25.5 -13.5 39.5z" />
    <glyph glyph-name="Ncaron" unicode="&#x147;" horiz-adv-x="619" 
d="M54 48v635.001c0 15.333 7.66699 27.166 23 35.499s33.666 12.5 54.999 12.5c30 0 52.167 -4.33301 66.5 -13s30.5 -30.334 48.5 -65.001l162 -309v340c0 15.333 7.66699 27 23 35s33.666 12 54.999 12s39.666 -4 54.999 -12s23 -19.667 23 -35v-636
c0 -15.333 -7.66699 -27.166 -23 -35.499s-33.666 -12.5 -54.999 -12.5c-42.667 0 -71.667 14 -87 42l-190 346v-340c0 -15.333 -7.66699 -27.166 -23 -35.499s-33.666 -12.5 -54.999 -12.5s-39.666 4.16699 -54.999 12.5s-23 20.166 -23 35.499zM164 925.001
c0 12 3.00195 22.667 9.00195 32s13.333 14 22 14c3.33301 0 7 -1 11 -3l104 -56l104 56c4 2 7.66699 3 11 3c8.66699 0 16 -4.66699 22 -14s9 -20 9 -32c0 -20 -8.33301 -34.667 -25 -44l-104 -56c-6.66699 -3.33301 -12.334 -5 -17.001 -5s-10.334 1.66699 -17.001 5
l-104 56c-16.667 9.33301 -25 24 -25 44z" />
    <glyph glyph-name="ncaron" unicode="&#x148;" horiz-adv-x="534" 
d="M45 48l-0.00195312 380.998c0 14 7.16699 25.333 21.5 34s32.833 13 55.5 13c18.667 0 34.667 -4.33301 48 -13s20 -20 20 -34v-23c10.667 21.333 27.834 39.333 51.501 54s51.167 22 82.5 22c46 0 85.833 -20.667 119.5 -62s50.5 -90.666 50.5 -147.999v-224
c0 -15.333 -7.66699 -27.166 -23 -35.499s-33.666 -12.5 -54.999 -12.5c-20 -0 -37.833 4.33301 -53.5 13s-23.5 20.334 -23.5 35.001v224c0 19.333 -7.16699 36.666 -21.5 51.999s-31.166 23 -50.499 23c-17.333 0 -32.833 -6.83301 -46.5 -20.5
s-20.5 -31.834 -20.5 -54.501v-224c0 -12 -7.83301 -23 -23.5 -33s-33.834 -15 -54.501 -15c-22 0 -40.333 4.83301 -55 14.5s-22 20.834 -22 33.501zM117.998 685.998c0 12 3.00195 22.667 9.00195 32s13.333 14 22 14c3.33301 0 7 -1 11 -3l104 -56l104 56
c4 2 7.66699 3 11 3c8.66699 0 16 -4.66699 22 -14s9 -20 9 -32c0 -20 -8.33301 -34.667 -25 -44l-104 -56c-6.66699 -3.33301 -12.334 -5 -17.001 -5s-10.334 1.66699 -17.001 5l-104 56c-16.667 9.33301 -25 24 -25 44z" />
    <glyph glyph-name="Eng" unicode="&#x14a;" horiz-adv-x="620" 
d="M54 48l0.000976562 635.003c0 15.333 7.66699 27.166 23 35.499s33.666 12.5 54.999 12.5c30 0 52.167 -4.33301 66.5 -13s30.5 -30.334 48.5 -65.001l162 -309v340c0 15.333 7.66699 27 23 35s33.666 12 54.999 12s39.666 -4 54.999 -12s23 -19.667 23 -35v-712
c0 -56.667 -14 -102.334 -42 -137.001s-67 -52 -117 -52c-54 0 -81 21 -81 63c0 20 5.5 36.167 16.5 48.5s24.833 18.5 41.5 18.5c17.333 0 26 19.667 26 59v36c0 12 -3 23.333 -9 34l-190 346v-340c0 -15.333 -7.66699 -27.166 -23 -35.499s-33.666 -12.5 -54.999 -12.5
s-39.666 4.16699 -54.999 12.5s-23 20.166 -23 35.499z" />
    <glyph glyph-name="eng" unicode="&#x14b;" horiz-adv-x="535" 
d="M45 48v381.001c0 14 7.16699 25.333 21.5 34s32.833 13 55.5 13c18.667 0 34.667 -4.33301 48 -13s20 -20 20 -34v-23c10.667 21.333 27.834 39.333 51.501 54s51.167 22 82.5 22c46 0 85.833 -20.667 119.5 -62s50.5 -90.666 50.5 -147.999v-300
c0 -56.667 -14 -102.334 -42 -137.001s-67 -52 -117 -52c-54 0 -81 21 -81 63c0 20 5.5 36.167 16.5 48.5s24.833 18.5 41.5 18.5c11.333 0 18.666 4.83301 21.999 14.5s5 24.5 5 44.5v300c0 19.333 -7.16699 36.666 -21.5 51.999s-31.166 23 -50.499 23
c-17.333 0 -32.833 -6.83301 -46.5 -20.5s-20.5 -31.834 -20.5 -54.501v-224c0 -12 -7.83301 -23 -23.5 -33s-33.834 -15 -54.501 -15c-22 0 -40.333 4.83301 -55 14.5s-22 20.834 -22 33.501z" />
    <glyph glyph-name="Omacron" unicode="&#x14c;" horiz-adv-x="583" 
d="M46 230v265c0 81.333 22.333 141 67 179s104 57 178 57c74.667 0 134.334 -19 179.001 -57s67 -97.667 67 -179v-265c0 -81.333 -22.333 -141 -67 -179s-104.334 -57 -179.001 -57c-74 0 -133.333 19 -178 57s-67 97.667 -67 179zM144 888c0 14 4.33301 25.833 13 35.5
s20 14.5 34 14.5h200c12.667 0 23.834 -5 33.501 -15s14.5 -21.667 14.5 -35c0 -14 -4.83301 -25.667 -14.5 -35s-20.834 -14 -33.501 -14h-200c-14 0 -25.333 4.5 -34 13.5s-13 20.833 -13 35.5zM202 230c0 -66.667 29.667 -100 89 -100c60 0 90 33.333 90 100v265
c0 66.667 -30 100 -90 100c-59.333 0 -89 -33.333 -89 -100v-265z" />
    </font>
</defs>
</svg>
