<?xml version="1.0" standalone="no"?>
<!DOCTYPE svg PUBLIC "-//W3C//DTD SVG 1.1//EN" "http://www.w3.org/Graphics/SVG/1.1/DTD/svg11.dtd" >
<svg>
<metadata>
Created by FontForge 20090914 at Mon Mar  6 23:10:24 2017
 By www-data
Copyright (c) 2011, Edgar Tolentino, Pablo Impallari, Igino Marini (impallari.com), with Reserved Font Name Dosis.
</metadata>
<defs>
<font id="Dosis-ExtraLight" horiz-adv-x="455" >
  <font-face 
    font-family="Dosis"
    font-weight="200"
    font-stretch="normal"
    units-per-em="1000"
    panose-1="2 1 2 3 2 2 2 6 0 3"
    ascent="800"
    descent="-200"
    x-height="472"
    cap-height="731"
    bbox="-143 -237.001 994 1027"
    underline-thickness="26"
    underline-position="-25"
    unicode-range="U+000D-U+FB02"
  />
<missing-glyph horiz-adv-x="317" 
d="M60 112c0 4 1.00195 7.33301 3.00195 10l74 114l-74 115c-2 3.33301 -3 6.33301 -3 9c0 5.33301 1.66699 9.66602 5 12.999s7.66602 5 12.999 5c6 0 11 -2.66699 15 -8l66 -102l66 102c3.33301 5.33301 8 8 14 8c4.66699 0 8.83398 -1.66699 12.501 -5
s5.5 -7.66602 5.5 -12.999c0 -2.66699 -1 -5.66699 -3 -9l-74 -115l73 -114c2 -2.66699 3 -6 3 -10c0 -4.66699 -1.83301 -8.66699 -5.5 -12s-7.83398 -5 -12.501 -5c-6 0 -10.667 2.66699 -14 8l-65 100l-66 -100c-4 -5.33301 -9 -8 -15 -8
c-4.66699 0 -8.83398 1.66699 -12.501 5s-5.5 7.33301 -5.5 12z" />
    <glyph glyph-name="uniFB01" unicode="fi" horiz-adv-x="477" 
d="M69 17v573c0 46 16.833 87.167 50.5 123.5s80.167 54.5 139.5 54.5c35.333 0 68.333 -6 99 -18s46 -25.333 46 -40c0 -5.33301 -1.83301 -9.66602 -5.5 -12.999s-7.16699 -5 -10.5 -5c-2.66699 0 -9 3.33301 -19 10s-24.333 13.5 -43 20.5s-40 10.5 -64 10.5
c-29.333 0 -55 -5 -77 -15s-38.5 -22.833 -49.5 -38.5s-19 -31 -24 -46s-7.5 -29.5 -7.5 -43.5v-118h139c4.66699 0 8.83398 -1.66699 12.501 -5s5.5 -7.33301 5.5 -12s-1.83301 -8.83398 -5.5 -12.501s-7.83398 -5.5 -12.501 -5.5h-139v-420
c0 -4.66699 -1.83301 -8.66699 -5.5 -12s-8.16699 -5 -13.5 -5c-10.667 0 -16 5.66699 -16 17zM375 18l0.000976562 437c0 4.66699 1.66699 8.66699 5 12s7.33301 5 12 5c12 0 18 -5.66699 18 -17v-437c0 -4.66699 -1.83301 -8.83398 -5.5 -12.501
s-7.83398 -5.5 -12.501 -5.5s-8.66699 1.83301 -12 5.5s-5 7.83398 -5 12.501z" />
    <glyph glyph-name="uniFB02" unicode="fl" horiz-adv-x="487" 
d="M69 17l0.00195312 573.001c0 52.667 19.333 95.5 58 128.5s83.667 49.5 135 49.5c62 0 111.333 -23.333 148 -70v-680c0 -4.66699 -1.83301 -8.83398 -5.5 -12.501s-7.83398 -5.5 -12.501 -5.5s-8.66699 1.83301 -12 5.5s-5 7.83398 -5 12.501v675
c-30.667 31.333 -68.334 47 -113.001 47c-42 0 -78.833 -14 -110.5 -42s-47.5 -64 -47.5 -108v-118h139c4.66699 0 8.83398 -1.66699 12.501 -5s5.5 -7.33301 5.5 -12s-1.83301 -8.83398 -5.5 -12.501s-7.83398 -5.5 -12.501 -5.5h-139v-420
c0 -4.66699 -1.83301 -8.66699 -5.5 -12s-8.16699 -5 -13.5 -5c-10.667 0 -16 5.66699 -16 17z" />
    <glyph glyph-name=".notdef" horiz-adv-x="317" 
d="M60 112c0 4 1.00195 7.33301 3.00195 10l74 114l-74 115c-2 3.33301 -3 6.33301 -3 9c0 5.33301 1.66699 9.66602 5 12.999s7.66602 5 12.999 5c6 0 11 -2.66699 15 -8l66 -102l66 102c3.33301 5.33301 8 8 14 8c4.66699 0 8.83398 -1.66699 12.501 -5
s5.5 -7.66602 5.5 -12.999c0 -2.66699 -1 -5.66699 -3 -9l-74 -115l73 -114c2 -2.66699 3 -6 3 -10c0 -4.66699 -1.83301 -8.66699 -5.5 -12s-7.83398 -5 -12.501 -5c-6 0 -10.667 2.66699 -14 8l-65 100l-66 -100c-4 -5.33301 -9 -8 -15 -8
c-4.66699 0 -8.83398 1.66699 -12.501 5s-5.5 7.33301 -5.5 12z" />
    <glyph glyph-name="NULL" horiz-adv-x="0" 
 />
    <glyph glyph-name="NULL" horiz-adv-x="0" 
 />
    <glyph glyph-name="uni000D" unicode="&#xd;" horiz-adv-x="0" 
 />
    <glyph glyph-name="space" unicode=" " horiz-adv-x="200" 
 />
    <glyph glyph-name="exclam" unicode="!" horiz-adv-x="193" 
d="M61 30c0 10 3.33203 18.499 9.99902 25.499s15.334 10.5 26.001 10.5c9.33301 0 17.5 -3.5 24.5 -10.5s10.5 -15.5 10.5 -25.5c0 -9.33301 -3.5 -17.666 -10.5 -24.999s-15.167 -11 -24.5 -11c-10 0 -18.5 3.5 -25.5 10.5s-10.5 15.5 -10.5 25.5zM69.999 716.999
c0 20.667 8.66699 31 26 31c8 0 14.5 -2.66699 19.5 -8s7.5 -13 7.5 -23c0 -60 -1.83301 -152.333 -5.5 -277s-5.5 -217 -5.5 -277c0 -4.66699 -1.83301 -8.5 -5.5 -11.5s-7.16699 -4.5 -10.5 -4.5c-4 0 -7.5 1.5 -10.5 4.5s-4.5 6.83301 -4.5 11.5
c0 60 -1.83301 152.333 -5.5 277s-5.5 217 -5.5 277z" />
    <glyph glyph-name="quotedbl" unicode="&#x22;" horiz-adv-x="255" 
d="M43 751c0 4.66699 2.66797 8.66699 8.00098 12s10.666 5 15.999 5s10.833 -1.66699 16.5 -5s8.5 -7.33301 8.5 -12l-10 -152c0 -12 -5 -18 -15 -18c-9.33301 0 -14 6 -14 18zM163.001 751c0 4.66699 2.66797 8.66699 8.00098 12s10.666 5 15.999 5
s10.833 -1.66699 16.5 -5s8.5 -7.33301 8.5 -12l-10 -152c0 -12 -5 -18 -15 -18c-9.33301 0 -14 6 -14 18z" />
    <glyph glyph-name="numbersign" unicode="#" horiz-adv-x="547" 
d="M32 283c0 10 4 14.999 12 14.999h116l26 177h-105c-12 0 -18 5.33301 -18 16c0 9.33301 4 14 12 14h116l30 198c1.33301 6.66699 5.33301 10 12 10c12.667 0 19 -6.66699 19 -20l-29 -188h135l30 198c1.33301 6.66699 5.33301 10 12 10c12.667 0 19 -6.66699 19 -20
l-29 -188h107c12.667 0 19 -5 19 -15c0 -3.33301 -1.33301 -6.66602 -4 -9.99902s-5.66699 -5 -9 -5h-117l-27 -177h107c12.667 0 19 -5.33301 19 -16c0 -3.33301 -1.33301 -6.5 -4 -9.5s-5.66699 -4.5 -9 -4.5h-118l-32 -217c-2 -10 -7.66699 -15 -17 -15
c-10.667 0 -16 6.33301 -16 19l32 213h-134l-32 -216c-2 -10.667 -7 -16 -15 -16c-11.333 0 -17 6.33301 -17 19l31 213h-104c-12 0 -18 5 -18 15zM192 297.999h134l27 177h-134z" />
    <glyph glyph-name="dollar" unicode="$" horiz-adv-x="484" 
d="M44 105c0 4.66699 2.00391 9.33105 6.00391 13.998s7.66699 7 11 7s8.66602 -4.5 15.999 -13.5s16 -18.833 26 -29.5s27 -20.5 51 -29.5s52 -13.5 84 -13.5v335l-30 10l-26 10c-14.667 5.33301 -24.167 9.33301 -28.5 12s-12.333 7.33398 -24 14.001
s-19.5 12.667 -23.5 18s-9.66699 12.333 -17 21s-12.333 17.5 -15 26.5s-5.33398 19.667 -8.00098 32s-4 25.5 -4 39.5c0 24 3.66699 45.5 11 64.5s16.666 34.167 27.999 45.5s25 21 41 29s31.667 13.667 47 17s31.666 5.33301 48.999 6v31
c0 4.66699 1.83301 8.66699 5.5 12s7.83398 5 12.501 5s8.83398 -1.66699 12.501 -5s5.5 -7.33301 5.5 -12v-30c36.667 -1.33301 69.667 -7.66602 99 -18.999s44 -22.333 44 -33c0 -4.66699 -2 -9.5 -6 -14.5s-8 -7.5 -12 -7.5c-2.66699 0 -9 2.83301 -19 8.5
s-24.5 11.5 -43.5 17.5s-39.833 9.66699 -62.5 11v-282c24 -8.66699 44 -17.334 60 -26.001s32.5 -20.667 49.5 -36s29.833 -35.166 38.5 -59.499s13 -52.833 13 -85.5c0 -58 -14.333 -102.5 -43 -133.5s-68 -49.5 -118 -55.5v-41c0 -4.66699 -1.83301 -8.66699 -5.5 -12
s-7.83398 -5 -12.501 -5s-8.83398 1.66699 -12.501 5s-5.5 7.33301 -5.5 12v39c-30 0 -58 4 -84 12s-46.5 17.5 -61.5 28.5s-26.833 22 -35.5 33s-13 20.167 -13 27.5zM98.0039 560.997c0 -22.667 3.5 -42.334 10.5 -59.001s18 -30.5 33 -41.5s29.167 -19.667 42.5 -26
s31.333 -13.166 54 -20.499v270c-93.333 -5.33301 -140 -46.333 -140 -123zM274.004 42.9971c83.333 12 125 61.667 125 149c0 48 -10.833 84.333 -32.5 109s-52.5 45 -92.5 61v-319z" />
    <glyph glyph-name="percent" unicode="%" horiz-adv-x="741" 
d="M46 469v155c0 36.667 10.5 63.667 31.5 81s48.833 26 83.5 26s62.5 -8.66699 83.5 -26s31.5 -44.333 31.5 -81v-155c0 -36.667 -10.5 -63.667 -31.5 -81s-48.833 -26 -83.5 -26s-62.5 8.66699 -83.5 26s-31.5 44.333 -31.5 81zM80 469c0 -50.667 27 -76 81 -76
c54.667 0 82 25.333 82 76v155c0 50.667 -27.333 76 -82 76c-54 0 -81 -25.333 -81 -76v-155zM163 -5c0 4 0.666992 7 2 9l391 756c2.66699 5.33301 7 8 13 8c4 0 8 -1.83301 12 -5.5s6 -8.16699 6 -13.5c0 -3.33301 -1 -7 -3 -11l-388 -747
c-4 -7.33301 -9.66699 -11 -17 -11c-10.667 0 -16 5 -16 15zM465 104v155c0 36.667 10.5 63.667 31.5 81s48.833 26 83.5 26s62.5 -8.66699 83.5 -26s31.5 -44.333 31.5 -81v-155c0 -36.667 -10.5 -63.667 -31.5 -81s-48.833 -26 -83.5 -26s-62.5 8.66699 -83.5 26
s-31.5 44.333 -31.5 81zM499 104c0 -50.667 27 -76 81 -76c54.667 0 82 25.333 82 76v155c0 50.667 -27.333 76 -82 76c-54 0 -81 -25.333 -81 -76v-155z" />
    <glyph glyph-name="ampersand" unicode="&#x26;" horiz-adv-x="595" 
d="M41 199c0 49.333 13.501 90.5039 40.501 123.504s60.5 57.833 100.5 74.5c-18 21.333 -32 39 -42 53s-19.833 33.333 -29.5 58s-14.5 49.667 -14.5 75c0 51.333 16 91.666 48 120.999s71.667 44 119 44c24 0 46.167 -3.5 66.5 -10.5s36 -15.5 47 -25.5
s19.5 -19.5 25.5 -28.5s9 -16.5 9 -22.5c0 -10.667 -5.66699 -16 -17 -16c-4 0 -8.66699 3.66699 -14 11l-20 24c-6.66699 9.33301 -18.334 17.666 -35.001 24.999s-36 11 -58 11c-40 0 -71.5 -12.333 -94.5 -37s-34.5 -57.667 -34.5 -99c0 -33.333 7.5 -63.333 22.5 -90
s37.167 -56.334 66.5 -89.001l223 -247c24.667 56 37.667 124.333 39 205c0 14 5.66699 21 17 21c10 0 15 -7.66699 15 -23c0 -89.333 -15.667 -166 -47 -230l97 -106c3.33301 -4.66699 5 -8.33398 5 -11.001c0 -4.66699 -1.66699 -8.5 -5 -11.5s-7 -4.5 -11 -4.5
s-8 2 -12 6l-90 97c-45.333 -71.333 -111.333 -107 -198 -107c-68 0 -121.5 20.167 -160.5 60.5s-58.5 89.833 -58.5 148.5zM78.001 203.004c0 -49.333 16.835 -91.333 50.502 -126s79.5 -52 137.5 -52c75.333 0 131.333 32.333 168 97l-231 249
c-17.333 -9.33301 -31.333 -17.5 -42 -24.5s-23.334 -17.5 -38.001 -31.5s-25.834 -30.333 -33.501 -49s-11.5 -39.667 -11.5 -63z" />
    <glyph glyph-name="quotesingle" unicode="'" horiz-adv-x="135" 
d="M43 751c0 4.66699 2.66797 8.66699 8.00098 12s10.666 5 15.999 5s10.833 -1.66699 16.5 -5s8.5 -7.33301 8.5 -12l-10 -152c0 -12 -5 -18 -15 -18c-9.33301 0 -14 6 -14 18z" />
    <glyph glyph-name="parenleft" unicode="(" horiz-adv-x="278" 
d="M67 143l0.000976562 448.001c0 47.333 16.5 88.666 49.5 123.999s74.5 53 124.5 53c4.66699 0 8.66699 -1.66699 12 -5s5 -7.33301 5 -12s-1.66699 -8.83398 -5 -12.501s-7.33301 -5.5 -12 -5.5c-42 0 -75.5 -14.333 -100.5 -43s-37.5 -61.667 -37.5 -99v-448
c0 -47.333 13.5 -80.5 40.5 -99.5s59.5 -28.5 97.5 -28.5c11.333 0 17 -5.66699 17 -17c0 -5.33301 -1.83301 -9.66602 -5.5 -12.999s-7.5 -5 -11.5 -5c-52.667 0 -94.834 14.5 -126.501 43.5s-47.5 68.833 -47.5 119.5z" />
    <glyph glyph-name="parenright" unicode=")" horiz-adv-x="278" 
d="M20 -2c0 11.333 5.66797 16.999 17.001 16.999c38 0 70.5 9.5 97.5 28.5s40.5 52.167 40.5 99.5v448c0 37.333 -12.5 70.333 -37.5 99s-58.5 43 -100.5 43c-4.66699 0 -8.66699 1.83301 -12 5.5s-5 7.83398 -5 12.501s1.66699 8.66699 5 12s7.33301 5 12 5
c50 0 91.5 -17.667 124.5 -53s49.5 -76.666 49.5 -123.999v-448c0 -50.667 -15.833 -90.5 -47.5 -119.5s-73.834 -43.5 -126.501 -43.5c-4 0 -7.83301 1.66699 -11.5 5s-5.5 7.66602 -5.5 12.999z" />
    <glyph glyph-name="asterisk" unicode="*" horiz-adv-x="416" 
d="M39 602c0 5.33301 1.66992 10.001 5.00293 14.001s7.66602 6 12.999 6c2 0 3.66699 -0.333008 5 -1l133 -47l-5 140c0 11.333 6 17 18 17s18 -5.66699 18 -17l-5 -141l133 48c1.33301 0.666992 3.33301 1 6 1c4.66699 0 8.66699 -2.16699 12 -6.5s5 -8.83301 5 -13.5
c0 -8.66699 -4 -14 -12 -16l-133 -39l85 -112c2 -3.33301 3 -6.33301 3 -9c0 -5.33301 -2 -9.83301 -6 -13.5s-8.66699 -5.5 -14 -5.5c-4.66699 0 -9 2.33301 -13 7l-79 115l-80 -116c-2.66699 -4 -6.33398 -6 -11.001 -6s-9.33398 1.66699 -14.001 5s-7 7.66602 -7 12.999
c0 4 1.33301 7.66699 4 11l84 110l-134 40c-7.33301 2 -11 7.33301 -11 16z" />
    <glyph glyph-name="plus" unicode="+" horiz-adv-x="427" 
d="M36 240c0 12 5.66602 18.001 16.999 18.001h143v142c0 4.66699 1.83301 8.83398 5.5 12.501s7.83398 5.5 12.501 5.5s8.66699 -1.83301 12 -5.5s5 -7.83398 5 -12.501v-142h142c4.66699 0 8.83398 -1.83301 12.501 -5.5s5.5 -7.83398 5.5 -12.501
s-1.83301 -8.66699 -5.5 -12s-7.83398 -5 -12.501 -5h-142v-143c0 -11.333 -5.66699 -17 -17 -17c-12 0 -18 5.66699 -18 17v143h-143c-11.333 0 -17 5.66699 -17 17z" />
    <glyph glyph-name="comma" unicode="," horiz-adv-x="162" 
d="M45 30c0 10 3.33301 18.499 10 25.499s15 10.5 25 10.5c9.33301 0 17.666 -3.16699 24.999 -9.5s11 -15.5 11 -27.5c0 -10 -10.333 -41.667 -31 -95c-3.33301 -7.33301 -8.66602 -11 -15.999 -11c-10.667 0 -16 4.33301 -16 13c0 3.33301 0.333008 6 1 8l18 51
c-18 4.66699 -27 16.334 -27 35.001z" />
    <glyph glyph-name="hyphen" unicode="-" horiz-adv-x="395" 
d="M50 240c0 12 5.66699 18.001 17 18.001h260c4.66699 0 8.83398 -1.83301 12.501 -5.5s5.5 -7.83398 5.5 -12.501s-1.83301 -8.66699 -5.5 -12s-7.83398 -5 -12.501 -5h-260c-11.333 0 -17 5.66699 -17 17z" />
    <glyph glyph-name="period" unicode="." horiz-adv-x="161" 
d="M45 30c0 10 3.33203 18.499 9.99902 25.499s15.334 10.5 26.001 10.5c9.33301 0 17.5 -3.5 24.5 -10.5s10.5 -15.5 10.5 -25.5c0 -9.33301 -3.5 -17.666 -10.5 -24.999s-15.167 -11 -24.5 -11c-10 0 -18.5 3.5 -25.5 10.5s-10.5 15.5 -10.5 25.5z" />
    <glyph glyph-name="slash" unicode="/" horiz-adv-x="468" 
d="M22 -5c0 4 0.666992 7 2 9l391 756c2.66699 5.33301 7 8 13 8c4 0 8 -1.83301 12 -5.5s6 -8.16699 6 -13.5c0 -3.33301 -1 -7 -3 -11l-388 -747c-3.33301 -7.33301 -9 -11 -17 -11c-10.667 0 -16 5 -16 15z" />
    <glyph glyph-name="zero" unicode="0" horiz-adv-x="521" 
d="M65 200v325c0 71.333 17.667 123.5 53 156.5s82.666 49.5 141.999 49.5s106.833 -16.5 142.5 -49.5s53.5 -85.167 53.5 -156.5v-325c0 -71.333 -17.833 -123.5 -53.5 -156.5s-83.167 -49.5 -142.5 -49.5s-106.666 16.5 -141.999 49.5s-53 85.167 -53 156.5zM101 200
c0 -56.667 13.667 -99.167 41 -127.5s66.666 -42.5 117.999 -42.5s90.833 14.167 118.5 42.5s41.5 70.833 41.5 127.5v325c0 56.667 -13.833 99.167 -41.5 127.5s-67.167 42.5 -118.5 42.5s-90.666 -14.167 -117.999 -42.5s-41 -70.833 -41 -127.5v-325zM229 362
c0 8.66699 3.16699 16 9.5 22s13.833 9 22.5 9s16 -3 22 -9s9 -13.333 9 -22s-3 -16.167 -9 -22.5s-13.333 -9.5 -22 -9.5s-16.167 3.16699 -22.5 9.5s-9.5 13.833 -9.5 22.5z" />
    <glyph glyph-name="one" unicode="1" horiz-adv-x="209" 
d="M19 563c0 2 3.33398 9.66699 10.001 23l66 128c6 11.333 13.667 17 23 17c10.667 0 16 -5.66699 16 -17v-696c0 -12 -6 -18 -18 -18s-18 6 -18 18v621l-43 -80c-4.66699 -8.66699 -10.667 -13 -18 -13c-4.66699 0 -8.83398 1.66699 -12.501 5s-5.5 7.33301 -5.5 12z" />
    <glyph glyph-name="two" unicode="2" horiz-adv-x="461" 
d="M38 18l0.000976562 97.001c0 26 8.5 51.667 25.5 77s38.5 47.333 64.5 66l82 62l84 64c25.333 20.667 46.5 44.834 63.5 72.501s25.5 56.5 25.5 86.5c0 40 -13.5 75.333 -40.5 106s-64.833 46 -113.5 46c-40.667 0 -73.667 -11.5 -99 -34.5s-38 -55.5 -38 -97.5
c0 -11.333 -6.33301 -17 -19 -17c-11.333 0 -17 9.33301 -17 28c0 44 16.5 81.167 49.5 111.5s74.833 45.5 125.5 45.5c56 0 101.333 -18.333 136 -55s52 -80.667 52 -132c0 -39.333 -11.833 -76.5 -35.5 -111.5s-52.5 -65.167 -86.5 -90.5l-101 -73
c-34 -23.333 -62.833 -48.166 -86.5 -74.499s-35.5 -52.833 -35.5 -79.5v-79h338c4.66699 0 8.66699 -1.83301 12 -5.5s5 -7.83398 5 -12.501s-1.66699 -8.83398 -5 -12.501s-7.33301 -5.5 -12 -5.5h-356c-4.66699 0 -8.83398 1.66699 -12.501 5s-5.5 7.66602 -5.5 12.999z
" />
    <glyph glyph-name="three" unicode="3" horiz-adv-x="473" 
d="M33 151c0 18.667 5.33496 28.0029 16.002 28.0029c12.667 0 19 -7 19 -21c0 -12 2.33301 -24.5 7 -37.5s12.167 -26.667 22.5 -41s26.666 -26.166 48.999 -35.499s48.833 -14 79.5 -14c52 0 92 14.167 120 42.5s42 70.833 42 127.5v19c0 49.333 -14 86.666 -42 111.999
s-66.667 38 -116 38c-12.667 0 -19 6 -19 18s6 18 18 18c48 0 83.5 11 106.5 33s34.5 58.667 34.5 110c0 49.333 -10.833 86.166 -32.5 110.499s-56.5 36.5 -104.5 36.5c-29.333 0 -54.333 -4.33301 -75 -13s-35.667 -19.834 -45 -33.501s-16 -26.834 -20 -39.501
s-6 -25.667 -6 -39c0 -16 -6 -24 -18 -24s-18 10 -18 30c0 14 2.5 28.833 7.5 44.5s13.667 32.334 26 50.001s31.666 32.167 57.999 43.5s57.5 17 93.5 17c113.333 0 170 -58 170 -174c0 -86.667 -28 -143.667 -84 -171c68 -28.667 102 -84.334 102 -167.001v-19
c0 -70.667 -17.833 -122.667 -53.5 -156s-82.5 -50 -140.5 -50c-61.333 0 -109.5 16.167 -144.5 48.5s-52.5 68.5 -52.5 108.5z" />
    <glyph glyph-name="four" unicode="4" horiz-adv-x="417" 
d="M11 196c0 5.33301 0.999023 9.33301 2.99902 12l257 509c4.66699 9.33301 11.334 14 20.001 14c4.66699 0 8.66699 -1.5 12 -4.5s5 -6.83301 5 -11.5c0 -3.33301 -1 -7 -3 -11l-248 -490h232v234c0 11.333 6 17 18 17s18 -5.66699 18 -17v-234h59c12 0 18 -6 18 -18
s-6 -18 -18 -18h-59v-160c0 -12 -6 -18 -18 -18s-18 6 -18 18v160h-261c-11.333 0 -17 6 -17 18z" />
    <glyph glyph-name="five" unicode="5" horiz-adv-x="459" 
d="M32 159c0 13.333 5.66992 20.001 17.0029 20.001c12.667 0 19 -6 19 -18c0 -40 15.167 -71.833 45.5 -95.5s68.166 -35.5 113.499 -35.5c51.333 0 90.833 14.167 118.5 42.5s41.5 70.833 41.5 127.5v19c0 54.667 -13.833 95.667 -41.5 123s-66.834 41 -117.501 41h-135
c-16.667 0 -25 4.66699 -25 14c0 0.666992 0.166992 3.5 0.5 8.5s0.5 7.83301 0.5 8.5l18 299c1.33301 12 7.33301 18 18 18h267c10 0 15 -6 15 -18s-5 -18 -15 -18h-249l-19 -276h124c59.333 0 106.666 -16 141.999 -48s53 -82.667 53 -152v-19
c0 -71.333 -17.833 -123.5 -53.5 -156.5s-83.167 -49.5 -142.5 -49.5c-60 0 -107.5 15.667 -142.5 47s-52.5 70.666 -52.5 117.999z" />
    <glyph glyph-name="six" unicode="6" horiz-adv-x="504" 
d="M65 200l-0.000976562 325c0 71.333 17.667 123.5 53 156.5s82.666 49.5 141.999 49.5s106.833 -16 142.5 -48s53.5 -71 53.5 -117c0 -13.333 -5.66699 -20 -17 -20c-12.667 0 -19 6 -19 18c0 38.667 -15.333 70.167 -46 94.5s-68.667 36.5 -114 36.5
c-51.333 0 -90.666 -14.167 -117.999 -42.5s-41 -70.833 -41 -127.5v-174c34.667 49.333 88 74 160 74c130 0 195 -65.333 195 -196v-29c0 -71.333 -17.667 -123.5 -53 -156.5s-82.666 -49.5 -141.999 -49.5s-106.833 16.5 -142.5 49.5s-53.5 85.167 -53.5 156.5z
M100.999 200c0 -56.667 13.834 -99.167 41.501 -127.5s67.167 -42.5 118.5 -42.5s90.666 14.167 117.999 42.5s41 70.833 41 127.5v29c0 56 -13.5 96.667 -40.5 122s-66.5 38 -118.5 38c-106.667 0 -160 -50.333 -160 -151v-38z" />
    <glyph glyph-name="seven" unicode="7" horiz-adv-x="442" 
d="M33 564l0.000976562 149.002c0 4.66699 1.83301 8.83398 5.5 12.501s7.83398 5.5 12.501 5.5h355c4 0 8 -1.83301 12 -5.5s6 -7.83398 6 -12.501v-72c0 -3.33301 -0.666992 -6 -2 -8l-318 -623c-3.33301 -6.66699 -8.33301 -10 -15 -10c-13.333 0 -20 5 -20 15
c0 3.33301 1 7 3 11l316 620v49h-319v-131c0 -4.66699 -1.83301 -8.83398 -5.5 -12.501s-7.83398 -5.5 -12.501 -5.5s-8.83398 1.66699 -12.501 5s-5.5 7.66602 -5.5 12.999z" />
    <glyph glyph-name="eight" unicode="8" horiz-adv-x="489" 
d="M49 200l-0.000976562 12c0 94.667 34.667 156.667 104 186c-56.667 25.333 -85 78.333 -85 159c0 116 59 174 177 174s177 -58 177 -174c0 -80.667 -28.333 -133.667 -85 -159c68.667 -28.667 103 -90.667 103 -186v-12c0 -70.667 -17.667 -122.667 -53 -156
s-82.666 -50 -141.999 -50s-106.833 16.667 -142.5 50s-53.5 85.333 -53.5 156zM84.999 200c0 -56.667 14.001 -99.167 42.001 -127.5s67.667 -42.5 119 -42.5c50.667 0 89.667 14.167 117 42.5s41 70.833 41 127.5v12c0 56 -13.833 97.833 -41.5 125.5
s-66.834 41.5 -117.501 41.5s-90 -13.833 -118 -41.5s-42 -69.5 -42 -125.5v-12zM104 557c0 -94 47 -141 141 -141s141 47 141 141c0 92 -47 138 -141 138s-141 -46 -141 -138z" />
    <glyph glyph-name="nine" unicode="9" horiz-adv-x="504" 
d="M48 159c0 13.333 5.66797 20 17.001 20c12.667 0 19 -6 19 -18c0 -38.667 15.333 -70.167 46 -94.5s68.667 -36.5 114 -36.5c51.333 0 90.666 14.167 117.999 42.5s41 70.833 41 127.5v174c-34.667 -49.333 -88 -74 -160 -74c-130 0 -195 65.333 -195 196v29
c0 71.333 17.667 123.5 53 156.5s82.666 49.5 141.999 49.5s106.833 -16.5 142.5 -49.5s53.5 -85.167 53.5 -156.5v-325c0 -71.333 -17.667 -123.5 -53 -156.5s-82.666 -49.5 -141.999 -49.5s-106.833 16 -142.5 48s-53.5 71 -53.5 117zM84.001 496
c0 -56 13.499 -96.667 40.499 -122s66.5 -38 118.5 -38c106.667 0 160 50.333 160 151v38c0 56.667 -13.833 99.167 -41.5 127.5s-67.167 42.5 -118.5 42.5s-90.666 -14.167 -117.999 -42.5s-41 -70.833 -41 -127.5v-29z" />
    <glyph glyph-name="colon" unicode=":" horiz-adv-x="193" 
d="M61 30c0 10 3.33203 18.499 9.99902 25.499s15.334 10.5 26.001 10.5c9.33301 0 17.5 -3.5 24.5 -10.5s10.5 -15.5 10.5 -25.5c0 -9.33301 -3.5 -17.666 -10.5 -24.999s-15.167 -11 -24.5 -11c-10 0 -18.5 3.5 -25.5 10.5s-10.5 15.5 -10.5 25.5zM60.999 385.999
c0 10 3.33203 18.499 9.99902 25.499s15.334 10.5 26.001 10.5c9.33301 0 17.5 -3.5 24.5 -10.5s10.5 -15.5 10.5 -25.5c0 -9.33301 -3.5 -17.666 -10.5 -24.999s-15.167 -11 -24.5 -11c-10 0 -18.5 3.5 -25.5 10.5s-10.5 15.5 -10.5 25.5z" />
    <glyph glyph-name="semicolon" unicode=";" horiz-adv-x="195" 
d="M61 30c0 10 3.33301 18.499 10 25.499s15 10.5 25 10.5c9.33301 0 17.666 -3.16699 24.999 -9.5s11 -15.5 11 -27.5c0 -10 -10.333 -41.667 -31 -95c-3.33301 -7.33301 -8.66602 -11 -15.999 -11c-10.667 0 -16 4.33301 -16 13c0 3.33301 0.333008 6 1 8l18 51
c-18 4.66699 -27 16.334 -27 35.001zM62 385.999c0 10 3.33203 18.499 9.99902 25.499s15.334 10.5 26.001 10.5c9.33301 0 17.5 -3.5 24.5 -10.5s10.5 -15.5 10.5 -25.5c0 -9.33301 -3.5 -17.666 -10.5 -24.999s-15.167 -11 -24.5 -11c-10 0 -18.5 3.5 -25.5 10.5
s-10.5 15.5 -10.5 25.5z" />
    <glyph glyph-name="less" unicode="&#x3c;" horiz-adv-x="395" 
d="M30 277c0 7.33301 3.33301 13.667 10 19l275 182c3.33301 2 6.33301 3 9 3c4.66699 0 9 -1.66699 13 -5s6 -7.33301 6 -12c0 -6.66699 -3 -11.667 -9 -15l-258 -172l258 -171c6 -3.33301 9 -8.33301 9 -15c0 -4.66699 -2 -8.66699 -6 -12s-8.33301 -5 -13 -5
c-2.66699 0 -5.66699 1 -9 3l-275 182c-6.66699 4 -10 10 -10 18z" />
    <glyph glyph-name="equal" unicode="=" horiz-adv-x="431" 
d="M73 176c0 12 5.66699 18.001 17 18.001h250c4.66699 0 8.83398 -1.83301 12.501 -5.5s5.5 -7.83398 5.5 -12.501s-1.83301 -8.66699 -5.5 -12s-7.83398 -5 -12.501 -5h-250c-11.333 0 -17 5.66699 -17 17zM73 379.001c0 12 5.66699 18.001 17 18.001h250
c4.66699 0 8.83398 -1.83301 12.501 -5.5s5.5 -7.83398 5.5 -12.501s-1.83301 -8.66699 -5.5 -12s-7.83398 -5 -12.501 -5h-250c-11.333 0 -17 5.66699 -17 17z" />
    <glyph glyph-name="greater" unicode="&#x3e;" horiz-adv-x="395" 
d="M52 91c0 6.66699 3 11.666 9 14.999l258 171l-258 172c-6 3.33301 -9 8.33301 -9 15c0 4.66699 2 8.66699 6 12s8.33301 5 13 5c3.33301 0 6.33301 -1 9 -3l275 -182c6.66699 -5.33301 10 -11.666 10 -18.999c0 -8 -3.33301 -14 -10 -18l-275 -182
c-2.66699 -2 -5.66699 -3 -9 -3c-4.66699 0 -9 1.66699 -13 5s-6 7.33301 -6 12z" />
    <glyph glyph-name="question" unicode="?" horiz-adv-x="383" 
d="M25 690c0 13.333 14.502 26.335 43.502 39.002s60.833 19 95.5 19c59.333 0 104.333 -17 135 -51s46 -77.667 46 -131c0 -31.333 -5.66699 -60.666 -17 -87.999s-23.666 -48.333 -36.999 -63s-29.5 -31.334 -48.5 -50.001s-31.833 -32 -38.5 -40
c-12 -15.333 -19.5 -34 -22.5 -56s-4.5 -57 -4.5 -105c0 -11.333 -5.66699 -17 -17 -17s-17 5.66699 -17 17c0 56.667 2.66699 97.167 8 121.5s14.333 44.166 27 59.499c6 7.33301 18.667 20.166 38 38.499s34.666 33.833 45.999 46.5s22.166 31.334 32.499 56.001
s15.5 51 15.5 79c0 46.667 -12.667 83 -38 109s-62.666 39 -111.999 39c-24.667 0 -45.834 -3.33301 -63.501 -10s-30.834 -13.334 -39.501 -20.001s-14.667 -10 -18 -10s-6.5 1.66699 -9.5 5s-4.5 7.33301 -4.5 12zM124.002 30.002c0 10 3.5 18.5 10.5 25.5
s15.5 10.5 25.5 10.5c9.33301 0 17.5 -3.5 24.5 -10.5s10.5 -15.5 10.5 -25.5s-3.33301 -18.5 -10 -25.5s-15 -10.5 -25 -10.5s-18.5 3.5 -25.5 10.5s-10.5 15.5 -10.5 25.5z" />
    <glyph glyph-name="at" unicode="@" horiz-adv-x="707" 
d="M61 220c0 46.667 5.67188 89.667 17.0049 129s28.666 74.333 51.999 105s54.833 54.667 94.5 72s85.834 26 138.501 26c96 0 169.333 -27 220 -81s76 -133 76 -237c0 -128.667 -36 -193 -108 -193c-22.667 0 -42.834 6.16699 -60.501 18.5s-28.834 26.5 -33.501 42.5
c-19.333 -18 -37.333 -30.833 -54 -38.5s-39 -11.5 -67 -11.5c-84 0 -126 35.333 -126 106c0 42.667 15.667 71.5 47 86.5s80.333 22.5 147 22.5h49v21c0 31.333 -8.66699 54.333 -26 69s-44.333 22 -81 22c-26 0 -47.667 -3.83301 -65 -11.5s-26.666 -11.5 -27.999 -11.5
c-5.33301 0 -9.5 2 -12.5 6s-4.5 8 -4.5 12c0 10.667 12.667 20 38 28s52.333 12 81 12c43.333 0 76.333 -10.833 99 -32.5s34 -52.5 34 -92.5v-164c1.33301 -14 8.66602 -26 21.999 -36s27.666 -15 42.999 -15c26 0 44.5 15.667 55.5 47s16.5 68.666 16.5 111.999
c0 89.333 -22.167 158.666 -66.5 207.999s-110.5 74 -198.5 74c-48 0 -89.667 -8 -125 -24s-62.833 -38.167 -82.5 -66.5s-34.167 -59.333 -43.5 -93s-14 -70.5 -14 -110.5c0 -37.333 4.16699 -71.833 12.5 -103.5s21.333 -60.667 39 -87s42 -47.166 73 -62.499
s67.5 -23 109.5 -23c26.667 0 50.667 2.83301 72 8.5s38.166 11.167 50.499 16.5s20.166 8 23.499 8c4 0 7.5 -1.5 10.5 -4.5s4.5 -6.16699 4.5 -9.5c0 -11.333 -17.5 -23.166 -52.5 -35.499s-72.167 -18.5 -111.5 -18.5c-74.667 0 -137.5 26.167 -188.5 78.5
s-76.5 129.5 -76.5 231.5zM245.005 157c0 -48 29.667 -71.999 89 -71.999c36 0 64.833 8.5 86.5 25.5s32.5 35.5 32.5 55.5v67h-48c-26.667 0 -48 -0.666992 -64 -2s-32.167 -4.33301 -48.5 -9s-28.333 -12.334 -36 -23.001s-11.5 -24.667 -11.5 -42z" />
    <glyph glyph-name="A" unicode="A" horiz-adv-x="521" 
d="M25 16c0 2.66699 0.333984 4.66699 1.00098 6l217 701c2.66699 9.33301 8.66699 14 18 14s15.666 -4.66699 18.999 -14l215 -701c0 -0.666992 0.166992 -1.5 0.5 -2.5s0.5 -1.83301 0.5 -2.5c0 -4.66699 -2 -8.66699 -6 -12s-8.66699 -5 -14 -5
c-8 -0 -13.333 4.33301 -16 13l-51 164h-298l-50 -164c-2.66699 -8.66699 -8.66699 -13 -18 -13c-12 -0 -18 5.33301 -18 16zM122.001 213h276l-137 448z" />
    <glyph glyph-name="B" unicode="B" horiz-adv-x="527" 
d="M83 17v696c0 12 6 18 18 18h150c66 0 116.667 -11.667 152 -35s53 -67.333 53 -132c0 -42 -7.66699 -77.667 -23 -107s-36 -49.666 -62 -60.999c68.667 -28.667 103 -87.334 103 -176.001v-17c0 -70.667 -17.833 -122.167 -53.5 -154.5s-83.167 -48.5 -142.5 -48.5h-177
c-12 0 -18 5.66699 -18 17zM119 36h159c106.667 0 160 55.667 160 167v17c0 56 -13.667 96.333 -41 121s-67 37 -119 37h-159v-342zM119 414h139.001c57.333 0 98.666 11 123.999 33s38 61 38 117c0 51.333 -14.167 86 -42.5 104s-69.833 27 -124.5 27h-134v-281z" />
    <glyph glyph-name="C" unicode="C" horiz-adv-x="512" 
d="M76 200l0.000976562 324.998c0 70.667 18.5 122.667 55.5 156s84.833 50 143.5 50c60.667 0 107.834 -15.5 141.501 -46.5s50.5 -67.833 50.5 -110.5c0 -18.667 -6 -28 -18 -28s-18 6 -18 18c-0.666992 14.667 -3.33398 28.5 -8.00098 41.5s-12.167 26.833 -22.5 41.5
s-26.333 26.334 -48 35.001s-47.834 13 -78.501 13c-108 0 -162 -56.667 -162 -170v-325c0 -113.333 55.333 -170 166 -170c25.333 0 47.333 3.16699 66 9.5s32.834 13.333 42.501 21s18 18.5 25 32.5s11.5 25.167 13.5 33.5s4 19.833 6 34.5c1.33301 12 7.33301 18 18 18
c12 0 18 -9.66699 18 -29c0 -41.333 -17.333 -77.666 -52 -108.999s-82.334 -47 -143.001 -47c-58 0 -105.167 16.667 -141.5 50s-54.5 85.333 -54.5 156z" />
    <glyph glyph-name="D" unicode="D" horiz-adv-x="550" 
d="M83 17v697c0 11.333 6 17 18 17h177c59.333 0 106.833 -16.5 142.5 -49.5s53.5 -85.167 53.5 -156.5v-319c0 -71.333 -17.833 -123.5 -53.5 -156.5s-83.167 -49.5 -142.5 -49.5h-177c-12 0 -18 5.66699 -18 17zM119 36h159c51.333 0 90.833 14.167 118.5 42.5
s41.5 70.833 41.5 127.5v319c0 56.667 -13.833 99.167 -41.5 127.5s-67.167 42.5 -118.5 42.5h-159v-659z" />
    <glyph glyph-name="E" unicode="E" horiz-adv-x="498" 
d="M83 18v695c0 12 6 18 18 18h356c11.333 0 17 -5.66699 17 -17c0 -12.667 -5.66699 -19 -17 -19h-338v-311h160c11.333 0 17 -6.33301 17 -19c0 -11.333 -5.66699 -17 -17 -17h-160v-312h338c11.333 0 17 -6.33301 17 -19c0 -11.333 -5.66699 -17 -17 -17h-356
c-12 0 -18 6 -18 18z" />
    <glyph glyph-name="F" unicode="F" horiz-adv-x="489" 
d="M83 17v696c0 12 6 18 18 18h356c11.333 0 17 -5.66699 17 -17c0 -12.667 -5.66699 -19 -17 -19h-338v-311h160c11.333 0 17 -6.33301 17 -19c0 -11.333 -5.66699 -17 -17 -17h-160v-331c0 -11.333 -6 -17 -18 -17s-18 5.66699 -18 17z" />
    <glyph glyph-name="G" unicode="G" horiz-adv-x="531" 
d="M76 200v324.999c0 71.333 17.667 123.5 53 156.5s82.666 49.5 141.999 49.5c60 0 107.667 -15.667 143 -47s53 -70.666 53 -117.999c0 -13.333 -6 -20 -18 -20c-11.333 0 -17.333 6 -18 18c-6 44 -22.833 76.833 -50.5 98.5s-64.167 32.5 -109.5 32.5
c-51.333 0 -90.666 -14.167 -117.999 -42.5s-41 -70.833 -41 -127.5v-325c0 -56.667 13.667 -99.167 41 -127.5s66.666 -42.5 117.999 -42.5s90.833 14.167 118.5 42.5s41.5 70.833 41.5 127.5v148h-159c-11.333 0 -17 6 -17 18s5.66699 18 17 18h178
c11.333 0 17 -6.33301 17 -19v-165c0 -71.333 -17.833 -123.5 -53.5 -156.5s-83.167 -49.5 -142.5 -49.5s-106.666 16.5 -141.999 49.5s-53 85.167 -53 156.5z" />
    <glyph glyph-name="H" unicode="H" horiz-adv-x="557" 
d="M83 18v696c0 11.333 6 17 18 17s18 -5.66699 18 -17v-317h319v317c0 11.333 6 17 18 17s18 -5.66699 18 -17v-696c0 -12 -6 -18 -18 -18s-18 6 -18 18v343h-319v-343c0 -12 -6 -18 -18 -18s-18 6 -18 18z" />
    <glyph glyph-name="I" unicode="I" horiz-adv-x="202" 
d="M83 18v696c0 11.333 6 17 18 17s18 -5.66699 18 -17v-696c0 -12 -6 -18 -18 -18s-18 6 -18 18z" />
    <glyph glyph-name="J" unicode="J" horiz-adv-x="496" 
d="M26 159c0 13.333 5.66699 20.001 17 20.001c12.667 0 19 -6 19 -18c0 -42.667 15 -75.167 45 -97.5s68.333 -33.5 115 -33.5c51.333 0 90.666 14.167 117.999 42.5s41 70.833 41 127.5v495h-159c-11.333 0 -17 6.33301 -17 19c0 11.333 5.66699 17 17 17h177
c12 0 18 -6 18 -18v-513c0 -71.333 -17.667 -123.5 -53 -156.5s-82.666 -49.5 -141.999 -49.5c-60 0 -107.667 15.667 -143 47s-53 70.666 -53 117.999z" />
    <glyph glyph-name="K" unicode="K" horiz-adv-x="508" 
d="M83 18l-0.00195312 696.001c0 11.333 6 17 18 17s18 -5.66699 18 -17v-392l323 403c2.66699 4 7.33398 6 14.001 6c4.66699 0 8.83398 -2 12.501 -6s5.5 -8.33301 5.5 -13c0 -4 -1.33301 -7.33301 -4 -10l-231 -287l258 -388c2 -3.33301 3 -6.33301 3 -9
c0 -4.66699 -1.83301 -8.83398 -5.5 -12.501s-8.16699 -5.5 -13.5 -5.5c-6 0 -11 3 -15 9l-251 376l-96 -120v-247c0 -12 -6 -18 -18 -18s-18 6 -18 18z" />
    <glyph glyph-name="L" unicode="L" horiz-adv-x="452" 
d="M83 18v696c0 11.333 6 17 18 17s18 -5.66699 18 -17v-678h304c10 0 15 -6 15 -18s-5 -18 -15 -18h-322c-12 0 -18 6 -18 18z" />
    <glyph glyph-name="M" unicode="M" horiz-adv-x="653" 
d="M83 18l0.00195312 696c0 11.333 6 17 18 17c7.33301 0 17.666 -12 30.999 -36l194 -382l195 382c13.333 24 23.666 36 30.999 36c12 0 18 -5.66699 18 -17v-696c0 -12 -6 -18 -18 -18s-18 6 -18 18v625l-189 -364c-6.66699 -12.667 -13 -19 -19 -19
c-6.66699 0 -13 6.33301 -19 19l-188 364v-625c0 -12 -6 -18 -18 -18s-18 6 -18 18z" />
    <glyph glyph-name="N" unicode="N" horiz-adv-x="557" 
d="M83 18l0.000976562 696c0 11.333 6 17 18 17c7.33301 0 17.666 -12 30.999 -36l306 -606v625c0 11.333 6 17 18 17s18 -5.66699 18 -17v-696c0 -12 -6 -18 -18 -18c-7.33301 0 -17 12 -29 36l-308 607v-625c0 -12 -6 -18 -18 -18s-18 6 -18 18z" />
    <glyph glyph-name="O" unicode="O" horiz-adv-x="543" 
d="M76 200v325c0 71.333 17.667 123.5 53 156.5s82.666 49.5 141.999 49.5s106.833 -16.5 142.5 -49.5s53.5 -85.167 53.5 -156.5v-325c0 -71.333 -17.833 -123.5 -53.5 -156.5s-83.167 -49.5 -142.5 -49.5s-106.666 16.5 -141.999 49.5s-53 85.167 -53 156.5zM112 200
c0 -56.667 13.667 -99.167 41 -127.5s66.666 -42.5 117.999 -42.5s90.833 14.167 118.5 42.5s41.5 70.833 41.5 127.5v325c0 56.667 -13.833 99.167 -41.5 127.5s-67.167 42.5 -118.5 42.5s-90.666 -14.167 -117.999 -42.5s-41 -70.833 -41 -127.5v-325z" />
    <glyph glyph-name="P" unicode="P" horiz-adv-x="513" 
d="M83 18v695.999c0 10 6 15.667 18 17h177c59.333 0 106.833 -16.5 142.5 -49.5s53.5 -85.167 53.5 -156.5v-12c0 -71.333 -17.833 -123.666 -53.5 -156.999s-83.167 -50 -142.5 -50h-159v-288c0 -12 -6 -18 -18 -18s-18 6 -18 18zM119 341.999l159 -0.000976562
c51.333 0 90.833 14.333 118.5 43s41.5 71.334 41.5 128.001v12c0 56.667 -13.833 99.167 -41.5 127.5s-67.167 42.5 -118.5 42.5h-159v-353z" />
    <glyph glyph-name="Q" unicode="Q" horiz-adv-x="543" 
d="M76 200l0.000976562 324.999c0 71.333 17.667 123.5 53 156.5s82.666 49.5 141.999 49.5s106.833 -16.5 142.5 -49.5s53.5 -85.167 53.5 -156.5v-325c0 -67.333 -16 -117.666 -48 -150.999s-75 -51.333 -129 -54v-86c0 -12 -6 -18 -18 -18s-18 6 -18 18v86
c-54.667 2.66699 -98 20.5 -130 53.5s-48 83.5 -48 151.5zM112.001 199.999c0 -107.333 47.332 -164 141.999 -170v84c0 11.333 6 17 18 17s18 -5.66699 18 -17v-83c94 6.66699 141 63 141 169v325c0 56.667 -13.833 99.167 -41.5 127.5s-67.167 42.5 -118.5 42.5
s-90.666 -14.167 -117.999 -42.5s-41 -70.833 -41 -127.5v-325z" />
    <glyph glyph-name="R" unicode="R" horiz-adv-x="509" 
d="M83 18l-0.000976562 695.999c0 10 6 15.667 18 17h167c61.333 0 111 -15 149 -45s57 -78.667 57 -146c0 -113.333 -56 -176.666 -168 -189.999l165 -321c2 -4 3 -7.66699 3 -11c0 -5.33301 -1.66699 -9.66602 -5 -12.999s-7.66602 -5 -12.999 -5
c-2.66699 0 -5.16699 0.666992 -7.5 2s-4.66602 3.66602 -6.99902 6.99902l-5.5 8l-4 11c-2.66699 5.33301 -4.33398 8 -5.00098 8l-160 312h-148v-330c0 -12 -6 -18 -18 -18s-18 6 -18 18zM118.999 383.999l149 0.000976562c52.667 0 94.167 12.667 124.5 38
s45.5 64.666 45.5 117.999s-15.167 92.5 -45.5 117.5s-71.833 37.5 -124.5 37.5h-149v-311z" />
    <glyph glyph-name="S" unicode="S" horiz-adv-x="481" 
d="M42 95c0 4.66699 2.00098 9.33203 6.00098 13.999s7.66699 7 11 7s8.66602 -4.5 15.999 -13.5s15.833 -18.833 25.5 -29.5s26 -20.5 49 -29.5s49.833 -13.5 80.5 -13.5c54.667 0 96.167 13.833 124.5 41.5s42.5 67.834 42.5 120.501
c0 34.667 -6.16699 63.834 -18.5 87.501s-28.5 41.667 -48.5 54s-42 22.833 -66 31.5l-71 25c-24 8 -46 18.167 -66 30.5s-36.167 30 -48.5 53s-18.5 51.167 -18.5 84.5c0 34 6.16699 63.167 18.5 87.5s29 42.333 50 54s41.833 19.834 62.5 24.501s42.667 7 66 7
c40 0 76.333 -5.66699 109 -17s49 -23 49 -35c0 -4.66699 -2 -9.5 -6 -14.5s-8 -7.5 -12 -7.5c-2.66699 0 -9.66699 3.16699 -21 9.5s-27.5 12.666 -48.5 18.999s-44.833 9.5 -71.5 9.5c-28 0 -53.167 -3.33301 -75.5 -10s-42 -20.5 -59 -41.5s-25.5 -48.5 -25.5 -82.5
c0 -28.667 6.16699 -52.834 18.5 -72.501s28.5 -34.5 48.5 -44.5s41.833 -19 65.5 -27s47.5 -16.833 71.5 -26.5s46 -21.5 66 -35.5s36.167 -34.5 48.5 -61.5s18.5 -59.833 18.5 -98.5c0 -68 -17.833 -118.5 -53.5 -151.5s-83.834 -49.5 -144.501 -49.5
c-30 0 -57.833 4 -83.5 12s-46.167 17.5 -61.5 28.5s-27.166 22 -35.499 33s-12.5 20.167 -12.5 27.5z" />
    <glyph glyph-name="T" unicode="T" 
d="M14 713c0 4.66699 1.66699 8.83203 5 12.499s7.66602 5.5 12.999 5.5h391c12 0 18 -5.66699 18 -17c0 -12.667 -6 -19 -18 -19h-177v-677c0 -12 -6 -18 -18 -18s-18 6 -18 18v677h-178c-5.33301 0 -9.66602 1.83301 -12.999 5.5s-5 7.83398 -5 12.501z" />
    <glyph glyph-name="U" unicode="U" horiz-adv-x="549" 
d="M79 200v514c0 11.333 6 17 18 17s18 -5.66699 18 -17v-514c0 -56.667 13.667 -99.167 41 -127.5s66.666 -42.5 117.999 -42.5s90.833 14.167 118.5 42.5s41.5 70.833 41.5 127.5v514c0 11.333 6 17 18 17s18 -5.66699 18 -17v-514c0 -71.333 -17.833 -123.5 -53.5 -156.5
s-83.167 -49.5 -142.5 -49.5s-106.666 16.5 -141.999 49.5s-53 85.167 -53 156.5z" />
    <glyph glyph-name="V" unicode="V" horiz-adv-x="519" 
d="M24 715c0 10.667 5.99902 16 17.999 16c9.33301 0 15.333 -4.33301 18 -13l200 -648l199 648c2.66699 8.66699 8 13 16 13c5.33301 0 10 -1.66699 14 -5s6 -7.33301 6 -12c0 -0.666992 -0.166992 -1.5 -0.5 -2.5s-0.5 -1.83301 -0.5 -2.5l-215 -701
c-3.33301 -9.33301 -9.66602 -14 -18.999 -14s-15.333 4.66699 -18 14l-217 701c-0.666992 1.33301 -1 3.33301 -1 6z" />
    <glyph glyph-name="W" unicode="W" horiz-adv-x="739" 
d="M26 715c0 10.667 5.66602 16 16.999 16c10.667 0 17 -4.33301 19 -13l180 -648l106 385c3.33301 11.333 10.666 17 21.999 17c10 0 16.667 -5.66699 20 -17l108 -385l179 648c2 8.66699 8.33301 13 19 13c11.333 0 17 -5.33301 17 -16c0 -2 -0.333008 -4 -1 -6l-195 -701
c-3.33301 -9.33301 -9.66602 -14 -18.999 -14c-10 0 -16 4.66699 -18 14l-110 392l-109 -392c-3.33301 -9.33301 -9.66602 -14 -18.999 -14c-10 0 -16 4.66699 -18 14l-197 701c-0.666992 2 -1 4 -1 6z" />
    <glyph glyph-name="X" unicode="X" horiz-adv-x="447" 
d="M28 18c0 3.33301 0.999023 7 2.99902 11l172 337l-170 334c-3.33301 6.66699 -5 12.334 -5 17.001c0 9.33301 6 14 18 14c8 0 18 -12 30 -36l147 -290l148 290c12 24 22 36 30 36c12 0 18 -4.66699 18 -14c0 -4.66699 -1.66699 -10.334 -5 -17.001l-171 -334l173 -337
c2 -4 3 -7.66699 3 -11c0 -5.33301 -1.83301 -9.66602 -5.5 -12.999s-7.83398 -5 -12.501 -5c-2.66699 0 -5.16699 0.666992 -7.5 2s-4.83301 3.66602 -7.5 6.99902c-1.33301 3.33301 -2.66602 6 -3.99902 8l-6 11l-4 8l-149 291l-148 -291
c-0.666992 0 -2.33398 -2.66699 -5.00098 -8l-4 -11l-5.5 -8c-2.33301 -3.33301 -4.66602 -5.66602 -6.99902 -6.99902s-4.83301 -2 -7.5 -2c-5.33301 0 -9.66602 1.66699 -12.999 5s-5 7.66602 -5 12.999z" />
    <glyph glyph-name="Y" unicode="Y" horiz-adv-x="509" 
d="M22 715c0 10.667 4.33301 16.001 13 16.001c7.33301 0 14 -5.66699 20 -17l199 -401l200 401c5.33301 11.333 12 17 20 17s12 -5.33301 12 -16c0 -6.66699 -1.66699 -13.334 -5 -20.001l-208 -416c-0.666992 -1.33301 -1 -3.33301 -1 -6v-255c0 -12 -6 -18 -18 -18
s-18 6 -18 18v255c0 2.66699 -0.333008 4.66699 -1 6l-207 416c-4 8 -6 14.667 -6 20z" />
    <glyph glyph-name="Z" unicode="Z" horiz-adv-x="464" 
d="M27 17c0 4 1 7.99902 3 11.999l350 666h-325c-12 0 -18 6 -18 18s6 18 18 18h355c12 0 18 -5 18 -15c0 -5.33301 -1.66699 -10.666 -5 -15.999l-349 -664h346c12 0 18 -6 18 -18s-6 -18 -18 -18h-375c-12 0 -18 5.66699 -18 17z" />
    <glyph glyph-name="bracketleft" unicode="[" horiz-adv-x="285" 
d="M74 -4v755.002c0 4.66699 1.83301 8.66699 5.5 12s7.83398 5 12.501 5h156c4.66699 0 8.66699 -1.66699 12 -5s5 -7.33301 5 -12s-1.66699 -8.83398 -5 -12.501s-7.33301 -5.5 -12 -5.5h-138v-719h138c4.66699 0 8.66699 -1.83301 12 -5.5s5 -7.83398 5 -12.501
s-1.66699 -8.66699 -5 -12s-7.33301 -5 -12 -5h-156c-4.66699 0 -8.83398 1.66699 -12.501 5s-5.5 7.33301 -5.5 12z" />
    <glyph glyph-name="backslash" unicode="\" horiz-adv-x="340" 
d="M28 735c0 6 1.83301 10.667 5.5 14s7.83398 5 12.501 5c7.33301 0 12 -3 14 -9l252 -724c0.666992 -1.33301 1 -3.33301 1 -6c0 -10 -5.66699 -15 -17 -15c-8.66699 0 -14.334 4 -17.001 12l-250 715c-0.666992 2 -1 4.66699 -1 8z" />
    <glyph glyph-name="bracketright" unicode="]" horiz-adv-x="285" 
d="M20 -4c0 4.66699 1.66699 8.83203 5 12.499s7.33301 5.5 12 5.5h138v719h-138c-4.66699 0 -8.66699 1.83301 -12 5.5s-5 7.83398 -5 12.501s1.66699 8.66699 5 12s7.33301 5 12 5h156c4.66699 0 8.83398 -1.66699 12.501 -5s5.5 -7.33301 5.5 -12v-755
c0 -4.66699 -1.83301 -8.66699 -5.5 -12s-7.83398 -5 -12.501 -5h-156c-4.66699 0 -8.66699 1.66699 -12 5s-5 7.33301 -5 12z" />
    <glyph glyph-name="asciicircum" unicode="^" horiz-adv-x="260" 
d="M0 619c0 6 3.00098 10.668 9.00098 14.001l104 56c5.33301 3.33301 11 5 17 5s11.667 -1.66699 17 -5l104 -55c6 -2.66699 9 -8.33398 9 -17.001c0 -4.66699 -1.66699 -8.5 -5 -11.5s-7.33301 -4.5 -12 -4.5l-9 3l-104 55l-104 -56c-0.666992 0 -2 -0.5 -4 -1.5
s-3.33301 -1.5 -4 -1.5c-4.66699 0 -8.83398 1.83301 -12.501 5.5s-5.5 8.16699 -5.5 13.5z" />
    <glyph glyph-name="underscore" unicode="_" horiz-adv-x="345" 
d="M-4 -18c0 12 5.66699 18.001 17 18.001h320c4.66699 0 8.83398 -1.83301 12.501 -5.5s5.5 -7.83398 5.5 -12.501s-1.83301 -8.66699 -5.5 -12s-7.83398 -5 -12.501 -5h-320c-11.333 0 -17 5.66699 -17 17z" />
    <glyph glyph-name="grave" unicode="`" horiz-adv-x="133" 
d="M0 676c0 12 5.33301 18.001 16 18.001c2 0 4.33301 -0.666992 7 -2l102 -60c5.33301 -2.66699 8 -7 8 -13c0 -4.66699 -1.83301 -8.83398 -5.5 -12.501s-8.16699 -5.5 -13.5 -5.5c-2.66699 0 -5.66699 1 -9 3l-95 54c-6.66699 4 -10 10 -10 18z" />
    <glyph glyph-name="a" unicode="a" horiz-adv-x="423" 
d="M35 126c0 50 19.834 84.501 59.501 103.501s97.5 28.5 173.5 28.5h56v28c0 42.667 -11 79.5 -33 110.5s-55 46.5 -99 46.5c-18 0 -34.833 -2.16699 -50.5 -6.5s-27.834 -8.83301 -36.501 -13.5s-14.334 -7 -17.001 -7c-5.33301 0 -9.66602 2.33301 -12.999 7s-5 9 -5 13
c0 10 13.167 19.5 39.5 28.5s54.5 13.5 84.5 13.5c57.333 0 99.166 -18.167 125.499 -54.5s39.5 -82.166 39.5 -137.499v-268c0 -12 -5.66699 -18 -17 -18c-5.33301 0 -9.66602 1.66699 -12.999 5s-5 7.66602 -5 12.999v52c-44 -50.667 -94 -76 -150 -76
c-41.333 0 -74.833 11.167 -100.5 33.5s-38.5 55.166 -38.5 98.499zM70.001 126.001c0 -32 9.5 -56.166 28.5 -72.499s43.833 -24.5 74.5 -24.5c36 0 70.167 12.667 102.5 38s48.5 49.333 48.5 72v84h-55c-30 0 -55.167 -1 -75.5 -3s-40.833 -6.16699 -61.5 -12.5
s-36.167 -16.333 -46.5 -30s-15.5 -30.834 -15.5 -51.501z" />
    <glyph glyph-name="b" unicode="b" horiz-adv-x="468" 
d="M69 18l0.000976562 732.999c0 11.333 5.66699 17 17 17c12 0 18 -5.66699 18 -17v-349c28.667 50.667 73.334 76 134.001 76c49.333 0 91.666 -17.667 126.999 -53s53 -77.666 53 -126.999v-122c0 -48 -17.833 -90.333 -53.5 -127s-77.167 -55 -124.5 -55
c-29.333 0 -56.5 7.33301 -81.5 22s-43.167 32.667 -54.5 54v-52c0 -4.66699 -1.83301 -8.83398 -5.5 -12.501s-7.83398 -5.5 -12.501 -5.5s-8.66699 1.83301 -12 5.5s-5 7.83398 -5 12.501zM104.001 138.999c0 -20.667 14.001 -44.167 42.001 -70.5s60 -39.5 96 -39.5
c37.333 0 70.166 15 98.499 45s42.5 64 42.5 102v122c0 37.333 -14.167 70.833 -42.5 100.5s-61.5 44.5 -99.5 44.5c-36 0 -67.833 -13.333 -95.5 -40s-41.5 -61.667 -41.5 -105v-159z" />
    <glyph glyph-name="c" unicode="c" horiz-adv-x="402" 
d="M52 176v120c0 54 15.5 97.833 46.5 131.5s76.5 50.5 136.5 50.5c36.667 0 67.667 -6.83301 93 -20.5s38 -26.5 38 -38.5c0 -4.66699 -1.83301 -8.66699 -5.5 -12s-7.83398 -5 -12.501 -5c-3.33301 0 -9.16602 3.33301 -17.499 10s-20.5 13.5 -36.5 20.5
s-35.667 10.5 -59 10.5c-47.333 0 -83.833 -13 -109.5 -39s-38.5 -62 -38.5 -108v-120c0 -46 12.833 -82 38.5 -108s62.5 -39 110.5 -39c24.667 0 45.5 3.5 62.5 10.5s29.667 13.833 38 20.5s14.5 10 18.5 10c4.66699 0 8.66699 -1.66699 12 -5s5 -7.33301 5 -12
c0 -12.667 -13.167 -25.667 -39.5 -39s-58.833 -20 -97.5 -20c-60 0 -105.5 16.667 -136.5 50s-46.5 77.333 -46.5 132z" />
    <glyph glyph-name="d" unicode="d" horiz-adv-x="468" 
d="M50 176l0.000976562 122.001c0 49.333 17.667 91.666 53 126.999s77.666 53 126.999 53c60.667 0 105.334 -25.333 134.001 -76v349c0 11.333 6 17 18 17c11.333 0 17 -5.66699 17 -17v-733c0 -4.66699 -1.66699 -8.83398 -5 -12.501s-7.33301 -5.5 -12 -5.5
s-8.83398 1.83301 -12.501 5.5s-5.5 7.83398 -5.5 12.501v52c-11.333 -21.333 -29.5 -39.333 -54.5 -54s-52.167 -22 -81.5 -22c-47.333 0 -88.833 18.333 -124.5 55s-53.5 79 -53.5 127zM85.001 176.001c0 -38 14.168 -72 42.501 -102s61.166 -45 98.499 -45
c36 0 68 13.167 96 39.5s42 49.833 42 70.5v159c0 43.333 -13.833 78.333 -41.5 105s-59.5 40 -95.5 40c-38 0 -71.167 -14.833 -99.5 -44.5s-42.5 -63.167 -42.5 -100.5v-122z" />
    <glyph glyph-name="e" unicode="e" horiz-adv-x="445" 
d="M51 176l-0.00195312 125.001c0 48 17.5 89.5 52.5 124.5s76.833 52.5 125.5 52.5c48 0 89.5 -17.167 124.5 -51.5s52.5 -77.166 52.5 -128.499c0 -17.333 -2 -31.333 -6 -42s-10.667 -18.334 -20 -23.001s-17.833 -7.5 -25.5 -8.5s-18.167 -1.5 -31.5 -1.5h-237v-47
c0 -44.667 15.667 -80.334 47 -107.001s72 -40 122 -40c24.667 0 45.334 3.5 62.001 10.5s29.167 13.833 37.5 20.5s14.5 10 18.5 10c4.66699 0 8.83398 -2 12.501 -6s5.5 -8 5.5 -12c0 -6.66699 -5.33301 -14.5 -16 -23.5s-27 -17 -49 -24s-46.333 -10.5 -73 -10.5
c-59.333 0 -107.833 16.833 -145.5 50.5s-56.5 77.5 -56.5 131.5zM85.998 258.001h224.999c24.667 0 40.834 2.33301 48.501 7s11.5 14.667 11.5 30c0 38 -13.333 72.167 -40 102.5s-60.667 45.5 -102 45.5c-40 0 -73.833 -14.167 -101.5 -42.5s-41.5 -61.5 -41.5 -99.5v-43
z" />
    <glyph glyph-name="f" unicode="f" horiz-adv-x="289" 
d="M69 17v573c0 48 17.667 89.667 53 125s77 53 125 53h10c4.66699 0 8.83398 -1.66699 12.501 -5s5.5 -7.66602 5.5 -12.999c0 -11.333 -6 -17 -18 -17h-10c-39.333 0 -72.833 -14.333 -100.5 -43s-41.834 -62 -42.501 -100v-118h153c4.66699 0 8.83398 -1.66699 12.501 -5
s5.5 -7.33301 5.5 -12s-1.83301 -8.83398 -5.5 -12.501s-7.83398 -5.5 -12.501 -5.5h-153v-420c0 -4.66699 -1.83301 -8.66699 -5.5 -12s-8.16699 -5 -13.5 -5c-10.667 0 -16 5.66699 -16 17z" />
    <glyph glyph-name="g" unicode="g" horiz-adv-x="446" 
d="M32 -108c0 52.667 30.335 89.668 91.002 111.001c-40.667 11.333 -61 35 -61 71c0 30.667 16.333 53.667 49 69c-34.667 30.667 -52 72.667 -52 126v45c0 48.667 14.833 88.167 44.5 118.5s68.5 45.5 116.5 45.5c48.667 0 88.334 -16 119.001 -48
c9.33301 17.333 21 31.833 35 43.5s27.333 17.5 40 17.5c14 0 21 -6.66699 21 -20c0 -6 -1.83301 -10.667 -5.5 -14s-7.83398 -5 -12.501 -5c-24 0 -44 -15.333 -60 -46c16.667 -23.333 25 -54 25 -92v-45c0 -48 -15.167 -87.667 -45.5 -119s-69.5 -47 -117.5 -47
c-30.667 0 -58 7 -82 21c-26.667 -12 -40 -28 -40 -48c0 -15.333 7.83301 -27.166 23.5 -35.499s35.167 -13.5 58.5 -15.5s48.666 -4.83301 75.999 -8.5s52.666 -8.5 75.999 -14.5s42.833 -17.833 58.5 -35.5s23.5 -40.5 23.5 -68.5c0 -42.667 -16.667 -75.834 -50 -99.501
s-79 -35.5 -137 -35.5c-58.667 0 -105.667 11.667 -141 35s-53 54.666 -53 93.999zM67.002 -104.999c0 -30 14.168 -54.1641 42.501 -72.4971s67.166 -27.5 116.499 -27.5c48.667 0 86.167 9.16699 112.5 27.5s39.5 43.166 39.5 74.499c0 15.333 -3.83301 28.5 -11.5 39.5
s-16.834 19.5 -27.501 25.5s-24.167 11 -40.5 15s-31 6.66699 -44 8s-28.167 2.66602 -45.5 3.99902s-29.666 2.66602 -36.999 3.99902c-70 -20 -105 -52.667 -105 -98zM94.0029 270.004c0 -38.667 11.334 -70.333 34.001 -95s53.667 -37 93 -37c38 0 68.5 12.333 91.5 37
s34.5 56 34.5 94v45c0 37.333 -11.333 68.166 -34 92.499s-53.667 36.5 -93 36.5c-38.667 0 -69.334 -12.167 -92.001 -36.5s-34 -55.166 -34 -92.499v-44z" />
    <glyph glyph-name="h" unicode="h" horiz-adv-x="482" 
d="M69 18l0.000976562 732.999c0 11.333 5.66699 17 17 17c12 0 18 -5.66699 18 -17v-349c28.667 50.667 73.334 76 134.001 76c49.333 0 91.666 -17.667 126.999 -53s53 -77.666 53 -126.999v-280c0 -12 -6 -18 -18 -18c-11.333 0 -17 6 -17 18v280
c0 37.333 -14.167 70.833 -42.5 100.5s-61.5 44.5 -99.5 44.5c-36 0 -67.833 -13.333 -95.5 -40s-41.5 -61.667 -41.5 -105v-280c0 -4.66699 -1.83301 -8.83398 -5.5 -12.501s-7.83398 -5.5 -12.501 -5.5s-8.66699 1.83301 -12 5.5s-5 7.83398 -5 12.501z" />
    <glyph glyph-name="i" unicode="i" horiz-adv-x="171" 
d="M53 660c0 8.66699 3.16699 16 9.5 22s13.833 9 22.5 9s16 -3 22 -9s9 -13.333 9 -22s-3 -16.167 -9 -22.5s-13.333 -9.5 -22 -9.5s-16.167 3.16699 -22.5 9.5s-9.5 13.833 -9.5 22.5zM68 18l0.000976562 437c0 4.66699 1.66699 8.66699 5 12s7.33301 5 12 5
c12 0 18 -5.66699 18 -17v-437c0 -4.66699 -1.83301 -8.83398 -5.5 -12.501s-7.83398 -5.5 -12.501 -5.5s-8.66699 1.83301 -12 5.5s-5 7.83398 -5 12.501z" />
    <glyph glyph-name="j" unicode="j" horiz-adv-x="173" 
d="M-36 -219c0 11.333 6.00195 16.999 18.002 16.999c35.333 0 58.666 12.833 69.999 38.5s17 64.167 17 115.5v503c0 11.333 5.66699 17 17 17c12 0 18 -5.66699 18 -17v-503c0 -126 -40.667 -189 -122 -189c-4.66699 0 -8.83398 1.83301 -12.501 5.5
s-5.5 7.83398 -5.5 12.501zM54.002 659.999c0 8.66699 3.16699 16 9.5 22s13.833 9 22.5 9s16 -3 22 -9s9 -13.333 9 -22s-3 -16.167 -9 -22.5s-13.333 -9.5 -22 -9.5s-16.167 3.16699 -22.5 9.5s-9.5 13.833 -9.5 22.5z" />
    <glyph glyph-name="k" unicode="k" horiz-adv-x="437" 
d="M69 18l0.000976562 733.001c0 11.333 5.66699 17 17 17c12 0 18 -5.66699 18 -17v-518l270 235c4 2.66699 7.33301 4 10 4c12.667 0 19 -5.33301 19 -16c0 -6.66699 -2 -11.667 -6 -15l-161 -140l185 -273c2 -2.66699 3 -6 3 -10
c0 -4.66699 -1.66699 -8.83398 -5 -12.501s-7.33301 -5.5 -12 -5.5c-5.33301 0 -10 3 -14 9l-184 269l-105 -92v-168c0 -4.66699 -1.83301 -8.83398 -5.5 -12.501s-7.83398 -5.5 -12.501 -5.5s-8.66699 1.83301 -12 5.5s-5 7.83398 -5 12.501z" />
    <glyph glyph-name="l" unicode="l" horiz-adv-x="189" 
d="M77 18l0.000976562 733c0 11.333 5.66699 17 17 17c12 0 18 -5.66699 18 -17v-733c0 -4.66699 -1.83301 -8.83398 -5.5 -12.501s-7.83398 -5.5 -12.501 -5.5s-8.66699 1.83301 -12 5.5s-5 7.83398 -5 12.501z" />
    <glyph glyph-name="m" unicode="m" horiz-adv-x="767" 
d="M68 18l0.000976562 437.001c0 11.333 5.66699 17 17 17c12 0 18 -5.66699 18 -17v-53c28.667 50.667 73.334 76 134.001 76c34 0 64.167 -9.16699 90.5 -27.5s46.166 -42.5 59.499 -72.5c16.667 32.667 38.667 57.5 66 74.5s56 25.5 86 25.5
c44.667 0 83.167 -16.333 115.5 -49s48.5 -76.334 48.5 -131.001v-280c0 -4.66699 -1.83301 -8.83398 -5.5 -12.501s-7.83398 -5.5 -12.501 -5.5s-8.66699 1.83301 -12 5.5s-5 7.83398 -5 12.501v280c0 45.333 -13.167 80.833 -39.5 106.5s-56.5 38.5 -90.5 38.5
c-35.333 0 -66.666 -13.167 -93.999 -39.5s-41 -59.5 -41 -99.5v-287c0 -11.333 -6 -17 -18 -17c-11.333 0 -17 5.66699 -17 17v286c0 39.333 -12.5 72.5 -37.5 99.5s-55.5 40.5 -91.5 40.5s-67.667 -13.333 -95 -40s-41 -61.667 -41 -105v-280
c0 -4.66699 -1.83301 -8.83398 -5.5 -12.501s-7.83398 -5.5 -12.501 -5.5s-8.66699 1.83301 -12 5.5s-5 7.83398 -5 12.501z" />
    <glyph glyph-name="n" unicode="n" horiz-adv-x="481" 
d="M68 18l0.000976562 436.999c0 11.333 5.66699 17 17 17c12 0 18 -5.66699 18 -17v-53c28.667 50.667 73.334 76 134.001 76c49.333 0 91.666 -17.667 126.999 -53s53 -77.666 53 -126.999v-280c0 -12 -6 -18 -18 -18c-11.333 0 -17 6 -17 18v280
c0 37.333 -14.167 70.833 -42.5 100.5s-61.5 44.5 -99.5 44.5c-36 0 -67.833 -13.333 -95.5 -40s-41.5 -61.667 -41.5 -105v-280c0 -4.66699 -1.83301 -8.83398 -5.5 -12.501s-7.83398 -5.5 -12.501 -5.5s-8.66699 1.83301 -12 5.5s-5 7.83398 -5 12.501z" />
    <glyph glyph-name="o" unicode="o" 
d="M50 176l-0.000976562 121.999c0 48 17.5 90 52.5 126s76.5 54 124.5 54s89.667 -17.667 125 -53s53 -77.666 53 -126.999v-122c0 -48 -17.833 -90.333 -53.5 -127s-77.167 -55 -124.5 -55s-88.666 18.333 -123.999 55s-53 79 -53 127zM84.999 175.999
c0 -38 14 -72 42 -102s61.333 -45 100 -45s72.167 15 100.5 45s42.5 64 42.5 102v122c0 37.333 -14 70.833 -42 100.5s-61.667 44.5 -101 44.5s-72.833 -14.833 -100.5 -44.5s-41.5 -63.167 -41.5 -100.5v-122z" />
    <glyph glyph-name="p" unicode="p" horiz-adv-x="468" 
d="M69 -219l0.000976562 673.999c0 11.333 5.66699 17 17 17c12 0 18 -5.66699 18 -17v-53c28.667 50.667 73.334 76 134.001 76c49.333 0 91.666 -17.667 126.999 -53s53 -77.666 53 -126.999v-122c0 -48 -17.833 -90.333 -53.5 -127s-77.167 -55 -124.5 -55
c-29.333 0 -56.5 7.33301 -81.5 22s-43.167 32.667 -54.5 54v-289c0 -4.66699 -1.83301 -8.83398 -5.5 -12.501s-7.83398 -5.5 -12.501 -5.5s-8.66699 1.83301 -12 5.5s-5 7.83398 -5 12.501zM104.001 138.999c0 -20.667 14.001 -44.167 42.001 -70.5s60 -39.5 96 -39.5
c37.333 0 70.166 15 98.499 45s42.5 64 42.5 102v122c0 37.333 -14.167 70.833 -42.5 100.5s-61.5 44.5 -99.5 44.5c-36 0 -67.833 -13.333 -95.5 -40s-41.5 -61.667 -41.5 -105v-159z" />
    <glyph glyph-name="q" unicode="q" horiz-adv-x="468" 
d="M50 176l0.000976562 122.001c0 49.333 17.667 91.666 53 126.999s77.666 53 126.999 53c60.667 0 105.334 -25.333 134.001 -76v53c0 11.333 6 17 18 17c11.333 0 17 -5.66699 17 -17v-674c0 -4.66699 -1.66699 -8.83398 -5 -12.501s-7.33301 -5.5 -12 -5.5
s-8.83398 1.83301 -12.501 5.5s-5.5 7.83398 -5.5 12.501v289c-11.333 -21.333 -29.5 -39.333 -54.5 -54s-52.167 -22 -81.5 -22c-47.333 0 -88.833 18.333 -124.5 55s-53.5 79 -53.5 127zM85.001 176.001c0 -38 14.168 -72 42.501 -102s61.166 -45 98.499 -45
c36 0 68 13.167 96 39.5s42 49.833 42 70.5v159c0 43.333 -13.833 78.333 -41.5 105s-59.5 40 -95.5 40c-38 0 -71.167 -14.833 -99.5 -44.5s-42.5 -63.167 -42.5 -100.5v-122z" />
    <glyph glyph-name="r" unicode="r" horiz-adv-x="308" 
d="M68 18l0.000976562 437.001c0 11.333 5.66699 17 17 17c12 0 18 -5.66699 18 -17v-53c30 50.667 76.333 76 139 76h37c4.66699 0 8.66699 -1.83301 12 -5.5s5 -7.83398 5 -12.501s-1.66699 -8.66699 -5 -12s-7.33301 -5 -12 -5h-37c-37.333 0 -69.833 -13.333 -97.5 -40
s-41.5 -61.667 -41.5 -105v-280c0 -4.66699 -1.83301 -8.83398 -5.5 -12.501s-7.83398 -5.5 -12.501 -5.5s-8.66699 1.83301 -12 5.5s-5 7.83398 -5 12.501z" />
    <glyph glyph-name="s" unicode="s" horiz-adv-x="373" 
d="M38 59c0 4.66699 1.50098 8.66602 4.50098 11.999s6.16699 5 9.5 5s8.33301 -2.66699 15 -8l21 -16c8 -5.33301 20.5 -10.5 37.5 -15.5s36.167 -7.5 57.5 -7.5c39.333 0 68.666 7.66699 87.999 23s29 35.333 29 60c0 28.667 -8.66699 51.167 -26 67.5
s-38.333 28.166 -63 35.499l-74 23c-24.667 8 -45.667 20.833 -63 38.5s-26 41.5 -26 71.5c0 34 12.667 64.167 38 90.5s62 39.5 110 39.5c29.333 0 57 -4.66699 83 -14s39 -18.666 39 -27.999c0 -4 -1.83301 -8.33301 -5.5 -13s-7.5 -7 -11.5 -7
c-0.666992 0 -12.167 4.5 -34.5 13.5s-45.5 13.5 -69.5 13.5c-38.667 0 -67.334 -9.83301 -86.001 -29.5s-28 -41.167 -28 -64.5c0 -24 8.66699 -43 26 -57s38.333 -24.333 63 -31s49.334 -14 74.001 -22s45.667 -22.333 63 -43s26 -48 26 -82
c0 -37.333 -13.333 -66.666 -40 -87.999s-63.667 -32 -111 -32c-41.333 0 -76 7.33301 -104 22s-42 29 -42 43z" />
    <glyph glyph-name="t" unicode="t" horiz-adv-x="272" 
d="M66 139l-0.00195312 547.002c0 4.66699 1.83301 8.66699 5.5 12s7.5 5 11.5 5c4.66699 0 8.83398 -1.66699 12.501 -5s5.5 -7.33301 5.5 -12v-214h135c4.66699 0 8.66699 -1.83301 12 -5.5s5 -7.83398 5 -12.501s-1.66699 -8.66699 -5 -12s-7.33301 -5 -12 -5h-135v-298
c0 -38 8.33301 -64.833 25 -80.5s45.334 -23.5 86.001 -23.5h23c4.66699 0 8.66699 -1.66699 12 -5s5 -7.33301 5 -12s-1.66699 -8.83398 -5 -12.501s-7.33301 -5.5 -12 -5.5h-23c-97.333 -0 -146 46.333 -146 139z" />
    <glyph glyph-name="u" unicode="u" horiz-adv-x="483" 
d="M64 174l-0.00195312 280c0 4.66699 1.83301 8.83398 5.5 12.501s7.83398 5.5 12.501 5.5s8.66699 -1.83301 12 -5.5s5 -7.83398 5 -12.501v-280c0 -38 14 -71.667 42 -101s61.667 -44 101 -44c38.667 0 72 14.667 100 44s42 63 42 101v281
c0 4.66699 1.83301 8.66699 5.5 12s7.83398 5 12.501 5s8.66699 -1.66699 12 -5s5 -7.33301 5 -12v-281c0 -48 -17.5 -90 -52.5 -126s-76.5 -54 -124.5 -54c-48.667 0 -90.5 18 -125.5 54s-52.5 78 -52.5 126z" />
    <glyph glyph-name="v" unicode="v" horiz-adv-x="392" 
d="M19 454c0 5.33301 1.83301 9.66699 5.5 13s7.83398 5 12.501 5c8 0 13.667 -3.66699 17 -11l142 -393l141 387l1 5c1.33301 2.66699 2.16602 4.16699 2.49902 4.5s1.16602 1.5 2.49902 3.5s2.83301 3.16699 4.5 3.5s3.83398 0.5 6.50098 0.5c4.66699 0 9 -1.66699 13 -5
s6 -7.33301 6 -12c0 -2 -1.33301 -7 -4 -15l-156 -434c-3.33301 -8 -9 -12 -17 -12s-13.667 4 -17 12l-156 434c-2.66699 8 -4 12.667 -4 14z" />
    <glyph glyph-name="w" unicode="w" horiz-adv-x="654" 
d="M19 454c0 5.33301 1.83203 9.66797 5.49902 13.001s7.83398 5 12.501 5c8 0 13.667 -3.66699 17 -11l141 -391l115 362c3.33301 8.66699 9.33301 13 18 13s14.667 -4.33301 18 -13l111 -367l144 396c2 7.33301 7.33301 11 16 11c12 0 18 -5.66699 18 -17
c0 -4 -1.33301 -8.66699 -4 -14l-157 -435c-2.66699 -8 -7.66699 -12 -15 -12c-6 0 -10.667 3.66699 -14 11l-117 375l-115 -369c-4 -11.333 -9.66699 -17 -17 -17c-4.66699 0 -8 1 -10 3s-4.33301 6.66699 -7 14l-156 430c-2.66699 5.33301 -4 9.66602 -4 12.999z" />
    <glyph glyph-name="x" unicode="x" horiz-adv-x="381" 
d="M27 11c0 3.33301 1 6.66602 3 9.99902l139 217l-139 213c-2 3.33301 -3 6.33301 -3 9c0 5.33301 1.83301 9.66602 5.5 12.999s7.83398 5 12.501 5c6.66699 0 11.667 -2.66699 15 -8l131 -200l132 200c3.33301 5.33301 8 8 14 8c4.66699 0 8.83398 -1.66699 12.501 -5
s5.5 -7.66602 5.5 -12.999c0 -2.66699 -1 -5.66699 -3 -9l-140 -213l140 -217c2 -3.33301 3 -6.66602 3 -9.99902c0 -4.66699 -1.83301 -8.66699 -5.5 -12s-7.83398 -5 -12.501 -5c-6 0 -10.667 2.66699 -14 8l-132 203l-131 -203c-4 -5.33301 -9 -8 -15 -8
c-4.66699 0 -8.83398 1.66699 -12.501 5s-5.5 7.33301 -5.5 12z" />
    <glyph glyph-name="y" unicode="y" horiz-adv-x="395" 
d="M18 461c0 4.66699 1.83398 8.66895 5.50098 12.002s8.16699 5 13.5 5c8.66699 0 14 -3.66699 16 -11l145 -400l144 400c3.33301 7.33301 8.66602 11 15.999 11c12 0 18 -5.66699 18 -17c0 -2.66699 -0.333008 -4.66699 -1 -6l-160 -442l-20 -55
c-4 -10.667 -11.167 -28.334 -21.5 -53.001s-19.666 -43.334 -27.999 -56.001s-18.333 -26.667 -30 -42s-24.167 -26.5 -37.5 -33.5s-27.333 -10.5 -42 -10.5c-4.66699 0 -8.66699 1.66699 -12 5s-5 7.33301 -5 12c0 12 5 18 15 18c11.333 0 22.333 2.66699 33 8
s20.667 14.5 30 27.5s17.166 24.5 23.499 34.5s14 26 23 48l18.5 46l18 51l-160 442c-1.33301 2.66699 -2 4.66699 -2 6z" />
    <glyph glyph-name="z" unicode="z" horiz-adv-x="385" 
d="M26 16c0 5.33301 1.33398 9.33398 4.00098 12.001l267 409h-243c-4.66699 0 -8.83398 1.66699 -12.501 5s-5.5 7.33301 -5.5 12c0 5.33301 1.66699 9.66602 5 12.999s7.66602 5 12.999 5h277c4.66699 0 8.83398 -1.66699 12.501 -5s5.5 -7.66602 5.5 -12.999
c0 -4 -1 -7.33301 -3 -10l-268 -409h263c4.66699 0 8.83398 -1.83301 12.501 -5.5s5.5 -7.83398 5.5 -12.501s-1.83301 -8.66699 -5.5 -12s-7.83398 -5 -12.501 -5h-297c-12 -0 -18 5.33301 -18 16z" />
    <glyph glyph-name="braceleft" unicode="{" horiz-adv-x="285" 
d="M34 384c0 7.33301 3.16602 12.333 9.49902 15s13.166 4 20.499 4s14.166 1.5 20.499 4.5s9.5 7.83301 9.5 14.5c0 5.33301 -3.5 34.666 -10.5 87.999s-10.5 85.666 -10.5 96.999c0 43.333 17.167 81 51.5 113s75.5 48 123.5 48c4.66699 0 8.66699 -1.66699 12 -5
s5 -7.33301 5 -12s-1.66699 -8.83398 -5 -12.501s-7.33301 -5.5 -12 -5.5c-40 0 -73.167 -13 -99.5 -39s-39.5 -56 -39.5 -90c0 -11.333 3.5 -43.166 10.5 -95.499s10.5 -81.166 10.5 -86.499c0 -10 -3.66699 -18.333 -11 -25s-15 -11 -23 -13
c22.667 -7.33301 34 -19.666 34 -36.999c0 -6.66699 -3.5 -41.5 -10.5 -104.5s-10.5 -101.5 -10.5 -115.5c0 -20.667 5 -38.834 15 -54.501s22.667 -27.334 38 -35.001s30.333 -13.334 45 -17.001s28.334 -5.5 41.001 -5.5c11.333 0 17 -5.66699 17 -17
c0 -5.33301 -1.83301 -9.66602 -5.5 -12.999s-7.5 -5 -11.5 -5c-50 0 -91.667 13.833 -125 41.5s-50 63.5 -50 107.5c0 12 3.5 50 10.5 114s10.5 98.667 10.5 104c0 6.66699 -3.16699 11.334 -9.5 14.001s-13.166 3.83398 -20.499 3.50098s-14.166 1 -20.499 4
s-9.5 8.16699 -9.5 15.5z" />
    <glyph glyph-name="bar" unicode="|" horiz-adv-x="184" 
d="M74 -4v755c0 4.66699 1.83301 8.66699 5.5 12s7.83398 5 12.501 5s8.83398 -1.66699 12.501 -5s5.5 -7.33301 5.5 -12v-755c0 -4.66699 -1.83301 -8.66699 -5.5 -12s-7.83398 -5 -12.501 -5s-8.83398 1.66699 -12.501 5s-5.5 7.33301 -5.5 12z" />
    <glyph glyph-name="braceright" unicode="}" horiz-adv-x="285" 
d="M20 -2c0 11.333 5.66602 17 16.999 17c12.667 0 26.334 1.83301 41.001 5.5s29.667 9.33398 45 17.001s28 19.334 38 35.001s15 33.834 15 54.501c0 14 -3.5 52.5 -10.5 115.5s-10.5 97.833 -10.5 104.5c0 9.33301 3.5 17.166 10.5 23.499s14.833 10.833 23.5 13.5
c-8 2 -15.667 6.33301 -23 13s-11 15 -11 25c0 5.33301 3.5 34.166 10.5 86.499s10.5 84.166 10.5 95.499c0 34 -13.167 64 -39.5 90s-59.5 39 -99.5 39c-4.66699 0 -8.66699 1.83301 -12 5.5s-5 7.83398 -5 12.501s1.66699 8.66699 5 12s7.33301 5 12 5
c48 0 89.167 -16 123.5 -48s51.5 -69.667 51.5 -113c0 -11.333 -3.5 -43.666 -10.5 -96.999s-10.5 -82.666 -10.5 -87.999c0 -6.66699 3.16699 -11.5 9.5 -14.5s13.166 -4.5 20.499 -4.5s14.166 -1.33301 20.499 -4s9.5 -7.66699 9.5 -15s-3.16699 -12.5 -9.5 -15.5
s-13.166 -4.33301 -20.499 -4s-14.166 -0.833984 -20.499 -3.50098s-9.5 -7.33398 -9.5 -14.001c0 -5.33301 3.5 -40 10.5 -104s10.5 -102 10.5 -114c0 -44 -16.667 -79.833 -50 -107.5s-75 -41.5 -125 -41.5c-4 0 -7.83301 1.66699 -11.5 5s-5.5 7.66602 -5.5 12.999z" />
    <glyph glyph-name="asciitilde" unicode="~" horiz-adv-x="400" 
d="M53 242c0 12.667 10.168 24.501 30.501 35.501s39.833 16.5 58.5 16.5c16 0 36.833 -6.16699 62.5 -18.5s47.167 -18.5 64.5 -18.5c13.333 0 24.166 2.66699 32.499 8s14.833 10.666 19.5 15.999s9 8 13 8c9.33301 0 14 -5 14 -15c0 -14 -9.5 -26 -28.5 -36
s-37.5 -15 -55.5 -15c-15.333 0 -35.833 6.16699 -61.5 18.5s-48.167 18.5 -67.5 18.5c-12.667 0 -23.667 -3 -33 -9s-16.833 -11.833 -22.5 -17.5s-10.167 -8.5 -13.5 -8.5c-8.66699 0 -13 5.66699 -13 17z" />
    <glyph glyph-name="uni00A0" unicode="&#xa0;" horiz-adv-x="200" 
 />
    <glyph glyph-name="exclamdown" unicode="&#xa1;" horiz-adv-x="193" 
d="M61 712c0 10 3.50098 18.499 10.501 25.499s15.5 10.5 25.5 10.5c9.33301 0 17.5 -3.66699 24.5 -11s10.5 -15.666 10.5 -24.999c0 -10 -3.5 -18.5 -10.5 -25.5s-15.167 -10.5 -24.5 -10.5c-10.667 0 -19.334 3.5 -26.001 10.5s-10 15.5 -10 25.5zM70.001 24.999
c0 60 1.83301 152.333 5.5 277s5.5 217 5.5 277c0 4.66699 1.5 8.5 4.5 11.5s6.5 4.5 10.5 4.5c3.33301 0 6.83301 -1.5 10.5 -4.5s5.5 -6.83301 5.5 -11.5c0 -60 1.83301 -152.333 5.5 -277s5.5 -217 5.5 -277c0 -10 -2.5 -17.667 -7.5 -23s-11.5 -8 -19.5 -8
c-17.333 0 -26 10.333 -26 31z" />
    <glyph glyph-name="cent" unicode="&#xa2;" horiz-adv-x="406" 
d="M41 356v20c0 47.333 11.833 87 35.5 119s59.167 52 106.5 60v122c0 4.66699 1.83301 8.66699 5.5 12s7.83398 5 12.501 5s8.83398 -1.66699 12.501 -5s5.5 -7.33301 5.5 -12v-119c37.333 0 70.333 -6 99 -18s43 -25.333 43 -40c0 -5.33301 -2 -9.66602 -6 -12.999
s-8.33301 -5 -13 -5c-4 0 -10.167 3.33301 -18.5 10s-21.333 13.5 -39 20.5s-39.5 10.5 -65.5 10.5v-314c26 0 47.833 3.5 65.5 10.5s30.667 13.833 39 20.5s14.5 10 18.5 10c4.66699 0 9 -1.66699 13 -5s6 -7.66602 6 -12.999c0 -15.333 -14.833 -28.833 -44.5 -40.5
s-62.167 -17.5 -97.5 -17.5v-117c0 -4.66699 -1.83301 -8.66699 -5.5 -12s-7.83398 -5 -12.501 -5s-8.83398 1.66699 -12.501 5s-5.5 7.33301 -5.5 12v120c-46 7.33301 -81.167 27.166 -105.5 59.499s-36.5 72.166 -36.5 119.499zM76 356
c0 -81.333 35.667 -128.999 107 -142.999v306c-71.333 -14.667 -107 -62.334 -107 -143.001v-20z" />
    <glyph glyph-name="sterling" unicode="&#xa3;" horiz-adv-x="461" 
d="M25 18c0 12 6.00195 18 18.002 18h63l46 331h-86c-11.333 0 -17 5.66699 -17 17c0 12 5.66699 18 17 18h91l27 188c7.33301 48.667 30.666 90.5 69.999 125.5s83.666 52.5 132.999 52.5h12c13.333 0 20 -6 20 -18c0 -4.66699 -1.83301 -8.66699 -5.5 -12
s-8.5 -5 -14.5 -5h-17c-39.333 0 -75 -14.333 -107 -43s-50.667 -62 -56 -100l-27 -188h163c10.667 0 16 -6 16 -18c0 -11.333 -5.33301 -17 -16 -17h-168l-47 -331h263c10.667 0 16 -6 16 -18s-5.33301 -18 -16 -18h-360c-12 0 -18 6 -18 18z" />
    <glyph glyph-name="currency" unicode="&#xa4;" horiz-adv-x="489" 
d="M68 316c0 4.66699 1.66797 8.66602 5.00098 11.999l34 34c-25.333 32.667 -38 69.334 -38 110.001s12.333 77 37 109l-26 27c-3.33301 3.33301 -5 7.66602 -5 12.999c0 4.66699 1.83301 8.66699 5.5 12s7.83398 5 12.501 5s8.66699 -1.66699 12 -5l25 -26
c33.333 30 72 45 116 45c40 0 76.667 -13.333 110 -40l28 28c3.33301 3.33301 7.66602 5 12.999 5c4.66699 0 8.66699 -1.66699 12 -5s5 -7.33301 5 -12c0 -5.33301 -1.66699 -9.66602 -5 -12.999l-28 -28c28.667 -32.667 43 -71 43 -115c0 -42 -14.667 -80.333 -44 -115
l29 -29c3.33301 -4.66699 5 -8.66699 5 -12c0 -4 -1.66699 -7.83301 -5 -11.5s-7.33301 -5.5 -12 -5.5c-5.33301 0 -9.33301 1.66699 -12 5l-29 28c-33.333 -28 -70 -42 -110 -42c-42.667 0 -81.334 15.667 -116.001 47l-33 -33c-3.33301 -3.33301 -7.33301 -5 -12 -5
s-8.66699 1.66699 -12 5s-5 7.33301 -5 12zM107.001 471.999c0 -37.333 13.667 -70.666 41 -99.999s60 -44 98 -44s70.833 14.667 98.5 44s41.5 62.666 41.5 99.999c0 36.667 -13.833 69.5 -41.5 98.5s-60.5 43.5 -98.5 43.5s-70.667 -14.5 -98 -43.5s-41 -61.833 -41 -98.5
z" />
    <glyph glyph-name="yen" unicode="&#xa5;" horiz-adv-x="479" 
d="M27 714c0 4 1.66895 7.83398 5.00195 11.501s7.66602 5.5 12.999 5.5c7.33301 0 13 -3.33301 17 -10l174 -346l184 346c4 6.66699 9.66699 10 17 10c10.667 0 16 -5.66699 16 -17c0 -3.33301 -0.333008 -5.66602 -1 -6.99902l-190 -362h122
c4.66699 0 8.83398 -1.83301 12.501 -5.5s5.5 -7.83398 5.5 -12.501s-1.83301 -8.66699 -5.5 -12s-7.83398 -5 -12.501 -5h-131v-78h131c4.66699 0 8.83398 -1.83301 12.501 -5.5s5.5 -7.83398 5.5 -12.501s-1.83301 -8.66699 -5.5 -12s-7.83398 -5 -12.501 -5h-131v-180
c0 -4.66699 -1.66699 -8.66699 -5 -12s-7.33301 -5 -12 -5s-8.83398 1.66699 -12.501 5s-5.5 7.33301 -5.5 12v180h-124c-11.333 0 -17 5.66699 -17 17c0 12 5.66699 18 17 18h124v78h-124c-11.333 0 -17 5.66699 -17 17c0 12 5.66699 18 17 18h115l-180 362
c-1.33301 2.66699 -2 5 -2 7z" />
    <glyph glyph-name="brokenbar" unicode="&#xa6;" horiz-adv-x="186" 
d="M75 -4v282c0 4.66699 1.83301 8.66699 5.5 12s7.83398 5 12.501 5s8.83398 -1.66699 12.501 -5s5.5 -7.33301 5.5 -12v-282c0 -4.66699 -1.83301 -8.66699 -5.5 -12s-7.83398 -5 -12.501 -5s-8.83398 1.66699 -12.501 5s-5.5 7.33301 -5.5 12zM75 469v282
c0 4.66699 1.83301 8.66699 5.5 12s7.83398 5 12.501 5s8.83398 -1.66699 12.501 -5s5.5 -7.33301 5.5 -12v-282c0 -4.66699 -1.83301 -8.66699 -5.5 -12s-7.83398 -5 -12.501 -5s-8.83398 1.66699 -12.501 5s-5.5 7.33301 -5.5 12z" />
    <glyph glyph-name="section" unicode="&#xa7;" horiz-adv-x="461" 
d="M52 99c0 13.333 6.33496 19.9971 19.002 19.9971c11.333 0 17 -6 17 -18c0 -30.667 10.5 -60.167 31.5 -88.5s55.833 -42.5 104.5 -42.5c45.333 0 80.5 12.333 105.5 37s37.5 60 37.5 106c0 25.333 -5.5 46.5 -16.5 63.5s-25.167 29.833 -42.5 38.5
s-36.5 16.334 -57.5 23.001s-42.167 13.834 -63.5 21.501s-40.666 17.167 -57.999 28.5s-31.5 27.666 -42.5 48.999s-16.5 47.333 -16.5 78v132c0 35.333 5.16699 65.666 15.5 90.999s24 44.333 41 57s34.167 21.834 51.5 27.501s35.666 8.5 54.999 8.5
c48.667 0 86.167 -14.333 112.5 -43s39.5 -67 39.5 -115c0 -14.667 -6.33301 -22 -19 -22s-19 8.33301 -19 25c0 28.667 -8.5 55.667 -25.5 81s-45.833 38 -86.5 38c-34.667 0 -64.834 -11.667 -90.501 -35s-38.5 -61 -38.5 -113c0 -34 10.167 -60.667 30.5 -80
s44.833 -33.666 73.5 -42.999l88 -28c29.333 -10 54.166 -27.333 74.499 -52s30.5 -57.667 30.5 -99v-130c0 -60 -16 -105.167 -48 -135.5s-73.667 -45.5 -125 -45.5c-52.667 0 -95.5 15.833 -128.5 47.5s-49.5 70.834 -49.5 117.501zM106.002 416.997
c0 -29.333 6.5 -53.6641 19.5 -72.9971s30.167 -33.833 51.5 -43.5s43.166 -17.834 65.499 -24.501s45.333 -15.5 69 -26.5s42.167 -24.167 55.5 -39.5v33c0 29.333 -6.5 53.666 -19.5 72.999s-30.167 33.666 -51.5 42.999s-43.166 17.333 -65.499 24s-45.333 15.5 -69 26.5
s-42.167 24.167 -55.5 39.5v-32z" />
    <glyph glyph-name="dieresis" unicode="&#xa8;" horiz-adv-x="170" 
d="M0 630c0 8.66699 2.83301 15.667 8.5 21s12.834 8 21.501 8s15.667 -2.66699 21 -8s8 -12.333 8 -21s-2.66699 -15.834 -8 -21.501s-12.333 -8.5 -21 -8.5s-15.834 2.83301 -21.501 8.5s-8.5 12.834 -8.5 21.501zM111 630c0 8.66699 2.83301 15.667 8.5 21
s12.834 8 21.501 8s15.667 -2.66699 21 -8s8 -12.333 8 -21s-2.66699 -15.834 -8 -21.501s-12.333 -8.5 -21 -8.5s-15.834 2.83301 -21.501 8.5s-8.5 12.834 -8.5 21.501z" />
    <glyph glyph-name="copyright" unicode="&#xa9;" horiz-adv-x="728" 
d="M57 358c0 53.333 9.5 101.5 28.5 144.5s43.833 77.333 74.5 103s63.834 45.334 99.501 59.001s71.5 20.5 107.5 20.5s71.667 -6.83301 107 -20.5s67.833 -33.334 97.5 -59.001s53.667 -59.667 72 -102s27.5 -89.5 27.5 -141.5c0 -53.333 -9.5 -101.5 -28.5 -144.5
s-43.833 -77.333 -74.5 -103s-63.834 -45.334 -99.501 -59.001s-71.5 -20.5 -107.5 -20.5s-71.667 6.83301 -107 20.5s-67.833 33.334 -97.5 59.001s-53.667 59.667 -72 102s-27.5 89.5 -27.5 141.5zM92 358c0 -84 24.833 -153 74.5 -207s114.5 -81 194.5 -81
s145.833 27.167 197.5 81.5s77.5 124.5 77.5 210.5c0 84 -24.833 153 -74.5 207s-114.5 81 -194.5 81s-145.833 -27.167 -197.5 -81.5s-77.5 -124.5 -77.5 -210.5zM267 283l0.00195312 167.002c0 39.333 9.16699 68.5 27.5 87.5s41.833 28.5 70.5 28.5
c30 0 53.833 -8.83301 71.5 -26.5s26.5 -39.167 26.5 -64.5c0 -8.66699 -1.33301 -14.5 -4 -17.5s-7.33398 -4.5 -14.001 -4.5c-12 0 -18 4.66699 -18 14c-2 43.333 -22.333 65 -61 65c-42 0 -63 -27.333 -63 -82v-167c0 -54.667 21.333 -82 64 -82c12 0 22.167 2 30.5 6
s14.333 10.167 18 18.5s6.16699 15.166 7.5 20.499s2.66602 12.666 3.99902 21.999s7.33301 14 18 14c12 0 18 -7.33301 18 -22c0 -26 -9 -47.833 -27 -65.5s-42 -26.5 -72 -26.5c-28.667 0 -52 9.33301 -70 28s-27 47.667 -27 87z" />
    <glyph glyph-name="ordfeminine" unicode="&#xaa;" horiz-adv-x="306" 
d="M39 512c0 31.333 12.3311 53.167 36.998 65.5s60.667 18.5 108 18.5h32v15c0 24 -6.16699 44.667 -18.5 62s-31.166 26 -56.499 26c-16.667 0 -31.667 -3 -45 -9s-20.333 -9 -21 -9c-10 0 -15 6.33301 -15 19c0 7.33301 8.83301 14.333 26.5 21s36.167 10 55.5 10
c38 0 65.833 -11.333 83.5 -34s26.5 -51.334 26.5 -86.001v-162c0 -10 -6 -15 -18 -15c-4.66699 0 -8.66699 1.5 -12 4.5s-5 6.5 -5 10.5v28c-25.333 -28.667 -54.333 -44 -87 -46c-11.333 0 -19.666 0.333008 -24.999 1c-44 6.66699 -66 33.334 -66 80.001zM74.998 514.001
c0 -17.333 5.16699 -30.501 15.5 -39.501s23.833 -13.5 40.5 -13.5c20.667 0 40 7.33301 58 22s27 29.334 27 44.001v42h-31c-34.667 0 -61.667 -3.66699 -81 -11s-29 -22 -29 -44z" />
    <glyph glyph-name="guillemotleft" unicode="&#xab;" horiz-adv-x="361" 
d="M40 277c0 6 1.66797 11.667 5.00098 17l96 178c3.33301 6 9 9 17 9c4.66699 0 8.5 -1.66699 11.5 -5s4.5 -7.33301 4.5 -12c0 -2.66699 -1 -5.66699 -3 -9l-96 -178l96 -177c2 -2.66699 3 -5.66699 3 -9c0 -4.66699 -1.83301 -8.66699 -5.5 -12s-7.83398 -5 -12.501 -5
c-6.66699 0 -11.667 3 -15 9l-96 177c-3.33301 5.33301 -5 11 -5 17zM186.001 277c0 6 1.66797 11.667 5.00098 17l96 178c3.33301 6 9 9 17 9c4.66699 0 8.5 -1.66699 11.5 -5s4.5 -7.33301 4.5 -12c0 -2.66699 -1 -5.66699 -3 -9l-96 -178l96 -177
c2 -2.66699 3 -5.66699 3 -9c0 -4.66699 -1.83301 -8.66699 -5.5 -12s-7.83398 -5 -12.501 -5c-6.66699 0 -11.667 3 -15 9l-96 177c-3.33301 5.33301 -5 11 -5 17z" />
    <glyph glyph-name="logicalnot" unicode="&#xac;" horiz-adv-x="479" 
d="M61 240c0 12 5.66602 18.001 16.999 18.001h310c4.66699 0 8.83398 -1.83301 12.501 -5.5s5.5 -7.83398 5.5 -12.501v-160c0 -11.333 -5.66699 -17 -17 -17c-12 0 -18 5.66699 -18 17v143h-293c-11.333 0 -17 5.66699 -17 17z" />
    <glyph glyph-name="uni00AD" unicode="&#xad;" 
d="M50 240c0 12 5.66699 18.001 17 18.001h320c4.66699 0 8.83398 -1.83301 12.501 -5.5s5.5 -7.83398 5.5 -12.501s-1.83301 -8.66699 -5.5 -12s-7.83398 -5 -12.501 -5h-320c-11.333 0 -17 5.66699 -17 17z" />
    <glyph glyph-name="registered" unicode="&#xae;" horiz-adv-x="728" 
d="M57 358c0 53.333 9.5 101.5 28.5 144.5s43.833 77.333 74.5 103s63.834 45.334 99.501 59.001s71.5 20.5 107.5 20.5s71.667 -6.83301 107 -20.5s67.833 -33.334 97.5 -59.001s53.667 -59.667 72 -102s27.5 -89.5 27.5 -141.5c0 -53.333 -9.5 -101.5 -28.5 -144.5
s-43.833 -77.333 -74.5 -103s-63.834 -45.334 -99.501 -59.001s-71.5 -20.5 -107.5 -20.5s-71.667 6.83301 -107 20.5s-67.833 33.334 -97.5 59.001s-53.667 59.667 -72 102s-27.5 89.5 -27.5 141.5zM92 358c0 -84 24.833 -153 74.5 -207s114.5 -81 194.5 -81
s145.833 27.167 197.5 81.5s77.5 124.5 77.5 210.5c0 84 -24.833 153 -74.5 207s-114.5 81 -194.5 81s-145.833 -27.167 -197.5 -81.5s-77.5 -124.5 -77.5 -210.5zM275 183l-0.000976562 367c0 8 4.33301 12.667 13 14h84c67.333 0 101 -35.667 101 -107
c0 -60 -23.333 -94.667 -70 -104l69 -159c1.33301 -4 2 -6.33301 2 -7c0 -4.66699 -2.16699 -9 -6.5 -13s-9.16602 -6 -14.499 -6c-6 0 -11.667 6.33301 -17 19l-73 162h-52v-166c0 -9.33301 -6 -14 -18 -14s-18 4.66699 -18 14zM310.999 380h61c43.333 0 65 25 65 75
s-21.667 75 -65 75h-61v-150z" />
    <glyph glyph-name="macron" unicode="&#xaf;" horiz-adv-x="255" 
d="M0 664c0 12 5.66699 18.001 17 18.001h220c4.66699 0 8.83398 -1.83301 12.501 -5.5s5.5 -7.83398 5.5 -12.501s-1.83301 -8.66699 -5.5 -12s-7.83398 -5 -12.501 -5h-220c-11.333 0 -17 5.66699 -17 17z" />
    <glyph glyph-name="degree" unicode="&#xb0;" horiz-adv-x="429" 
d="M37 588c0 48 17.499 89.999 52.499 125.999s76.5 54 124.5 54s89.667 -17.667 125 -53s53 -77.666 53 -126.999c0 -48 -17.833 -90.333 -53.5 -127s-77.167 -55 -124.5 -55s-88.666 18.333 -123.999 55s-53 79 -53 127zM74.999 587.999
c0 -37.333 13.667 -70.666 41 -99.999s60 -44 98 -44s70.833 14.667 98.5 44s41.5 62.666 41.5 99.999c0 36.667 -13.833 69.5 -41.5 98.5s-60.5 43.5 -98.5 43.5s-70.667 -14.5 -98 -43.5s-41 -61.833 -41 -98.5z" />
    <glyph glyph-name="plusminus" unicode="&#xb1;" horiz-adv-x="477" 
d="M61 85c0 12 5.66699 18.001 17 18.001h320c4.66699 0 8.83398 -1.83301 12.501 -5.5s5.5 -7.83398 5.5 -12.501s-1.83301 -8.66699 -5.5 -12s-7.83398 -5 -12.501 -5h-320c-11.333 0 -17 5.66699 -17 17zM61 345.001c0 12 5.66602 18.001 16.999 18.001h143v142
c0 4.66699 1.83301 8.83398 5.5 12.501s7.83398 5.5 12.501 5.5s8.66699 -1.83301 12 -5.5s5 -7.83398 5 -12.501v-142h142c4.66699 0 8.83398 -1.83301 12.501 -5.5s5.5 -7.83398 5.5 -12.501s-1.83301 -8.66699 -5.5 -12s-7.83398 -5 -12.501 -5h-142v-143
c0 -11.333 -5.66699 -17 -17 -17c-12 0 -18 5.66699 -18 17v143h-143c-11.333 0 -17 5.66699 -17 17z" />
    <glyph glyph-name="uni00B2" unicode="&#xb2;" horiz-adv-x="299" 
d="M37 378l0.00390625 48.001c0 15.333 6.5 30.166 19.5 44.499s28.833 27.5 47.5 39.5l56 36c18.667 12 34.5 25.5 47.5 40.5s19.5 30.5 19.5 46.5c0 17.333 -6.83301 32.666 -20.5 45.999s-32.834 20 -57.501 20c-20.667 0 -37.334 -5 -50.001 -15s-19 -24.667 -19 -44
c0 -8.66699 -6 -13 -18 -13c-10.667 0 -16 6.66699 -16 20c0 24.667 9.83301 44.834 29.5 60.501s44.5 23.5 74.5 23.5c32 0 58.333 -9.33301 79 -28s31 -41.667 31 -69c0 -24 -9.83301 -46.667 -29.5 -68s-41.334 -38.333 -65.001 -51s-45.334 -27 -65.001 -43
s-29.5 -31.333 -29.5 -46v-30h181c8.66699 0 13 -5 13 -15c0 -4 -1.33301 -7.66699 -4 -11s-5.66699 -5 -9 -5h-199c-10.667 0 -16 4.33301 -16 13z" />
    <glyph glyph-name="uni00B3" unicode="&#xb3;" horiz-adv-x="306" 
d="M34 445c0 11.333 5 17.001 15 17.001c12 0 18 -4.66699 18 -14c0 -13.333 6.33301 -25.833 19 -37.5s33.334 -17.5 62.001 -17.5c55.333 0 83 25 83 75v9c0 44 -27.333 66 -82 66c-9.33301 0 -14 4.66699 -14 14c0 10 4.66699 15 14 15c24 0 41.833 4.83301 53.5 14.5
s17.5 26.167 17.5 49.5c0 42.667 -23 64 -69 64c-27.333 0 -46.5 -5.33301 -57.5 -16s-16.5 -23 -16.5 -37c0 -10.667 -5.33301 -16 -16 -16c-6.66699 0 -11.167 1.33301 -13.5 4s-3.5 7.66699 -3.5 15c0 19.333 8.16699 37.666 24.5 54.999s44.166 26 83.499 26
c67.333 0 101 -29.333 101 -88c0 -44 -15.333 -72.333 -46 -85c38 -14 57 -41 57 -81v-9c0 -36.667 -10.5 -63.5 -31.5 -80.5s-48.833 -25.5 -83.5 -25.5c-36 0 -64.167 8.5 -84.5 25.5s-30.5 36.167 -30.5 57.5z" />
    <glyph glyph-name="acute" unicode="&#xb4;" horiz-adv-x="133" 
d="M0 619c0 6 2.66699 10.332 8 12.999l102 60c2.66699 1.33301 5 2 7 2c10.667 0 16 -6 16 -18c0 -8 -3.33301 -14 -10 -18l-95 -54c-2.66699 -2 -5.66699 -3 -9 -3c-5.33301 0 -9.83301 1.83301 -13.5 5.5s-5.5 7.83398 -5.5 12.501z" />
    <glyph glyph-name="uni00B5" unicode="&#xb5;" horiz-adv-x="477" 
d="M77 -220l-0.000976562 674c0 4.66699 1.66699 8.83398 5 12.501s7.33301 5.5 12 5.5s8.83398 -1.83301 12.501 -5.5s5.5 -7.83398 5.5 -12.501v-304c0 -24 15.333 -50.167 46 -78.5s63.334 -42.5 98.001 -42.5c35.333 0 66.666 15 93.999 45s41 63.333 41 100v280
c0 12 5.66699 18 17 18c12 0 18 -6 18 -18v-280c0 -50 -16.5 -92.5 -49.5 -127.5s-73.833 -52.5 -122.5 -52.5c-32 0 -60.667 7.33301 -86 22s-44 32.667 -56 54v-290c0 -11.333 -6 -17 -18 -17c-11.333 0 -17 5.66699 -17 17z" />
    <glyph glyph-name="paragraph" unicode="&#xb6;" horiz-adv-x="512" 
d="M38 513v12.001c0 71.333 17.833 123.5 53.5 156.5s83.167 49.5 142.5 49.5h177c12 0 18 -6 18 -18v-696c0 -11.333 -6 -17 -18 -17s-18 5.66699 -18 17v678h-75v-677c0 -12 -6 -18 -18 -18s-18 6 -18 18v288h-48c-59.333 0 -106.833 16.667 -142.5 50
s-53.5 85.666 -53.5 156.999z" />
    <glyph glyph-name="periodcentered" unicode="&#xb7;" horiz-adv-x="176" 
d="M53 300c0 10 3.33203 18.499 9.99902 25.499s15.334 10.5 26.001 10.5c9.33301 0 17.5 -3.5 24.5 -10.5s10.5 -15.5 10.5 -25.5c0 -9.33301 -3.5 -17.666 -10.5 -24.999s-15.167 -11 -24.5 -11c-10 0 -18.5 3.5 -25.5 10.5s-10.5 15.5 -10.5 25.5z" />
    <glyph glyph-name="cedilla" unicode="&#xb8;" horiz-adv-x="156" 
d="M0 -183c0 3.33301 1.33203 7.16895 3.99902 11.502s5.33398 6.5 8.00098 6.5l18 -7c12 -4 24.667 -6 38 -6c36.667 0 55 13.667 55 41c0 26.667 -23.333 41.667 -70 45l-29 2l24 99h32l-18 -74c32 -0.666992 55.667 -7.83398 71 -21.501s23 -29.834 23 -48.501
c0 -19.333 -7.5 -36.166 -22.5 -50.499s-34.833 -21.5 -59.5 -21.5c-15.333 0 -31.5 2.16699 -48.5 6.5s-25.5 10.166 -25.5 17.499z" />
    <glyph glyph-name="uni00B9" unicode="&#xb9;" horiz-adv-x="158" 
d="M23 650c0 5.33301 2.33301 10.333 7 15l45 59c3.33301 4.66699 8 7 14 7c9.33301 0 14 -4.33301 14 -13v-340c0 -8.66699 -5.33301 -13 -16 -13c-11.333 0 -17 4.33301 -17 13v296l-23 -32c-2.66699 -4 -6 -6 -10 -6s-7.33301 1.5 -10 4.5s-4 6.16699 -4 9.5z" />
    <glyph glyph-name="ordmasculine" unicode="&#xba;" horiz-adv-x="320" 
d="M44 546v70c0 30.667 11.333 57.5 34 80.5s50 34.5 82 34.5c31.333 0 58.5 -11.333 81.5 -34s34.5 -49.667 34.5 -81v-70c0 -30.667 -11.667 -57.667 -35 -81s-50.333 -35 -81 -35s-57.667 11.667 -81 35s-35 50.333 -35 81zM80 546c0 -21.333 7.83301 -40.5 23.5 -57.5
s34.5 -25.5 56.5 -25.5c21.333 0 40 8.5 56 25.5s24 36.167 24 57.5v70c0 21.333 -7.83301 40.166 -23.5 56.499s-34.5 24.5 -56.5 24.5s-40.833 -8.16699 -56.5 -24.5s-23.5 -35.166 -23.5 -56.499v-70z" />
    <glyph glyph-name="guillemotright" unicode="&#xbb;" horiz-adv-x="361" 
d="M41 91c0 3.33301 1 6.33301 3 9l96 177l-96 178c-2 3.33301 -3 6.33301 -3 9c0 4.66699 1.5 8.66699 4.5 12s6.83301 5 11.5 5c8.66699 0 14.334 -3 17.001 -9l96 -178c3.33301 -5.33301 5 -11 5 -17s-1.66699 -11.667 -5 -17l-96 -177c-3.33301 -6 -8.33301 -9 -15 -9
c-4.66699 0 -8.83398 1.66699 -12.501 5s-5.5 7.33301 -5.5 12zM187 91c0 3.33301 1 6.33301 3 9l96 177l-96 178c-2 3.33301 -3 6.33301 -3 9c0 4.66699 1.5 8.66699 4.5 12s6.83301 5 11.5 5c8.66699 0 14.334 -3 17.001 -9l96 -178c3.33301 -5.33301 5 -11 5 -17
s-1.66699 -11.667 -5 -17l-96 -177c-3.33301 -6 -8.33301 -9 -15 -9c-4.66699 0 -8.83398 1.66699 -12.501 5s-5.5 7.33301 -5.5 12z" />
    <glyph glyph-name="onequarter" unicode="&#xbc;" horiz-adv-x="579" 
d="M35 650c0 5.33301 2.33301 10.333 7 15l45 59c3.33301 4.66699 8 7 14 7c9.33301 0 14 -4.33301 14 -13v-340c0 -8.66699 -5.33301 -13 -16 -13c-11.333 0 -17 4.33301 -17 13v296l-23 -32c-2.66699 -4 -6 -6 -10 -6s-7.33301 1.5 -10 4.5s-4 6.16699 -4 9.5zM69 -5
c0 4 0.666992 7 2 9l391 756c2.66699 5.33301 7 8 13 8c4 0 8 -1.83301 12 -5.5s6 -8.16699 6 -13.5c0 -3.33301 -1 -7 -3 -11l-388 -747c-4 -7.33301 -9.66699 -11 -17 -11c-10.667 0 -16 5 -16 15zM316 100c0 1.33301 0.666992 4 2 8l141 247c4 7.33301 9.33301 11 16 11
c4 0 7.83301 -1.33301 11.5 -4s5.5 -6 5.5 -10c0 -2 -0.666992 -4.33301 -2 -7l-131 -227h114v96c0 8 5.33301 12 16 12c11.333 0 17 -4 17 -12v-96h31c9.33301 0 14 -5.33301 14 -16c0 -4 -1.33301 -7.66699 -4 -11s-6 -5 -10 -5h-31v-73c0 -8.66699 -5.66699 -13 -17 -13
c-10.667 -0 -16 4.33301 -16 13v73h-144c-8.66699 0 -13 4.66699 -13 14z" />
    <glyph glyph-name="onehalf" unicode="&#xbd;" horiz-adv-x="608" 
d="M39 650c0 5.33301 2.33301 10.333 7 15l45 59c3.33301 4.66699 8 7 14 7c9.33301 0 14 -4.33301 14 -13v-340c0 -8.66699 -5.33301 -13 -16 -13c-11.333 0 -17 4.33301 -17 13v296l-23 -32c-2.66699 -4 -6 -6 -10 -6s-7.33301 1.5 -10 4.5s-4 6.16699 -4 9.5zM57 -5
c0 4 0.666992 7 2 9l391 756c2.66699 5.33301 7 8 13 8c4 0 8 -1.83301 12 -5.5s6 -8.16699 6 -13.5c0 -3.33301 -1 -7 -3 -11l-388 -747c-4 -7.33301 -9.66699 -11 -17 -11c-10.667 0 -16 5 -16 15zM343 13l0.00390625 48.001c0 15.333 6.5 30.166 19.5 44.499
s28.833 27.5 47.5 39.5l56 36c18.667 12 34.5 25.5 47.5 40.5s19.5 30.5 19.5 46.5c0 17.333 -6.83301 32.666 -20.5 45.999s-32.834 20 -57.501 20c-20.667 0 -37.334 -5 -50.001 -15s-19 -24.667 -19 -44c0 -8.66699 -6 -13 -18 -13c-10.667 0 -16 6.66699 -16 20
c0 24.667 9.83301 44.834 29.5 60.501s44.5 23.5 74.5 23.5c32 0 58.333 -9.33301 79 -28s31 -41.667 31 -69c0 -24 -9.83301 -46.667 -29.5 -68s-41.334 -38.333 -65.001 -51s-45.334 -27 -65.001 -43s-29.5 -31.333 -29.5 -46v-30h181c8.66699 0 13 -5 13 -15
c0 -4 -1.33301 -7.66699 -4 -11s-5.66699 -5 -9 -5h-199c-10.667 -0 -16 4.33301 -16 13z" />
    <glyph glyph-name="threequarters" unicode="&#xbe;" horiz-adv-x="707" 
d="M36 445c0 11.333 5 17.001 15 17.001c12 0 18 -4.66699 18 -14c0 -13.333 6.33301 -25.833 19 -37.5s33.334 -17.5 62.001 -17.5c55.333 0 83 25 83 75v9c0 44 -27.333 66 -82 66c-9.33301 0 -14 4.66699 -14 14c0 10 4.66699 15 14 15c24 0 41.833 4.83301 53.5 14.5
s17.5 26.167 17.5 49.5c0 42.667 -23 64 -69 64c-27.333 0 -46.5 -5.33301 -57.5 -16s-16.5 -23 -16.5 -37c0 -10.667 -5.33301 -16 -16 -16c-6.66699 0 -11.167 1.33301 -13.5 4s-3.5 7.66699 -3.5 15c0 19.333 8.16699 37.666 24.5 54.999s44.166 26 83.499 26
c67.333 0 101 -29.333 101 -88c0 -44 -15.333 -72.333 -46 -85c38 -14 57 -41 57 -81v-9c0 -36.667 -10.5 -63.5 -31.5 -80.5s-48.833 -25.5 -83.5 -25.5c-36 0 -64.167 8.5 -84.5 25.5s-30.5 36.167 -30.5 57.5zM192 -4.99902c0 4 0.666992 7 2 9l391 756
c2.66699 5.33301 7 8 13 8c4 0 8 -1.83301 12 -5.5s6 -8.16699 6 -13.5c0 -3.33301 -1 -7 -3 -11l-388 -747c-3.33301 -7.33301 -9 -11 -17 -11c-10.667 0 -16 5 -16 15zM445 100.001c0 1.33301 0.666992 4 2 8l141 247c4 7.33301 9.33301 11 16 11
c4 0 7.83301 -1.33301 11.5 -4s5.5 -6 5.5 -10c0 -2 -0.666992 -4.33301 -2 -7l-131 -227h114v96c0 8 5.33301 12 16 12c11.333 0 17 -4 17 -12v-96h31c9.33301 0 14 -5.33301 14 -16c0 -4 -1.33301 -7.66699 -4 -11s-6 -5 -10 -5h-31v-73c0 -8.66699 -5.66699 -13 -17 -13
c-10.667 0 -16 4.33301 -16 13v73h-144c-8.66699 0 -13 4.66699 -13 14z" />
    <glyph glyph-name="questiondown" unicode="&#xbf;" horiz-adv-x="383" 
d="M38 176c0 31.333 5.66895 60.6641 17.002 87.9971s23.666 48.333 36.999 63s29.5 31.334 48.5 50.001s31.833 32 38.5 40c12 15.333 19.5 34 22.5 56s4.5 57 4.5 105c0 11.333 5.66699 17 17 17s17 -5.66699 17 -17c0 -56.667 -2.66699 -97.167 -8 -121.5
s-14.333 -44.166 -27 -59.499c-6.66699 -8 -19.334 -21 -38.001 -39s-33.834 -33.5 -45.501 -46.5s-22.667 -31.667 -33 -56s-15.5 -50.5 -15.5 -78.5c0 -46.667 12.667 -83 38 -109s62.666 -39 111.999 -39c24.667 0 45.834 3.33301 63.501 10s30.834 13.334 39.501 20.001
s14.667 10 18 10s6.5 -1.66699 9.5 -5s4.5 -7.33301 4.5 -12c0 -13.333 -14.5 -26.333 -43.5 -39s-60.833 -19 -95.5 -19c-59.333 0 -104.333 17 -135 51s-46 77.667 -46 131zM188.002 711.998c0 10 3.33301 18.5 10 25.5s15 10.5 25 10.5s18.5 -3.5 25.5 -10.5
s10.5 -15.5 10.5 -25.5s-3.5 -18.5 -10.5 -25.5s-15.5 -10.5 -25.5 -10.5c-9.33301 0 -17.5 3.5 -24.5 10.5s-10.5 15.5 -10.5 25.5z" />
    <glyph glyph-name="Agrave" unicode="&#xc0;" horiz-adv-x="521" 
d="M25 16c0 2.66699 0.333984 4.66699 1.00098 6l217 701c2.66699 9.33301 8.66699 14 18 14s15.666 -4.66699 18.999 -14l215 -701c0 -0.666992 0.166992 -1.5 0.5 -2.5s0.5 -1.83301 0.5 -2.5c0 -4.66699 -2 -8.66699 -6 -12s-8.66699 -5 -14 -5
c-8 -0 -13.333 4.33301 -16 13l-51 164h-298l-50 -164c-2.66699 -8.66699 -8.66699 -13 -18 -13c-12 -0 -18 5.33301 -18 16zM122.001 213h276l-137 448zM194.001 935c0 12 5.33301 18.001 16 18.001c2 0 4.33301 -0.666992 7 -2l102 -60c5.33301 -2.66699 8 -7 8 -13
c0 -4.66699 -1.83301 -8.83398 -5.5 -12.501s-8.16699 -5.5 -13.5 -5.5c-2.66699 0 -5.66699 1 -9 3l-95 54c-6.66699 4 -10 10 -10 18z" />
    <glyph glyph-name="Aacute" unicode="&#xc1;" horiz-adv-x="521" 
d="M25 16c0 2.66699 0.333984 4.66699 1.00098 6l217 701c2.66699 9.33301 8.66699 14 18 14s15.666 -4.66699 18.999 -14l215 -701c0 -0.666992 0.166992 -1.5 0.5 -2.5s0.5 -1.83301 0.5 -2.5c0 -4.66699 -2 -8.66699 -6 -12s-8.66699 -5 -14 -5
c-8 -0 -13.333 4.33301 -16 13l-51 164h-298l-50 -164c-2.66699 -8.66699 -8.66699 -13 -18 -13c-12 -0 -18 5.33301 -18 16zM122.001 213h276l-137 448zM194.001 878c0 6 2.66699 10.332 8 12.999l102 60c2.66699 1.33301 5 2 7 2c10.667 0 16 -6 16 -18
c0 -8 -3.33301 -14 -10 -18l-95 -54c-2.66699 -2 -5.66699 -3 -9 -3c-5.33301 0 -9.83301 1.83301 -13.5 5.5s-5.5 7.83398 -5.5 12.501z" />
    <glyph glyph-name="Acircumflex" unicode="&#xc2;" horiz-adv-x="521" 
d="M25 16c0 2.66699 0.333984 4.66699 1.00098 6l217 701c2.66699 9.33301 8.66699 14 18 14s15.666 -4.66699 18.999 -14l215 -701c0 -0.666992 0.166992 -1.5 0.5 -2.5s0.5 -1.83301 0.5 -2.5c0 -4.66699 -2 -8.66699 -6 -12s-8.66699 -5 -14 -5
c-8 -0 -13.333 4.33301 -16 13l-51 164h-298l-50 -164c-2.66699 -8.66699 -8.66699 -13 -18 -13c-12 -0 -18 5.33301 -18 16zM122.001 213h276l-137 448zM130.001 878c0 6.66699 3.00098 11.333 9.00098 14l104 56c5.33301 3.33301 11 5 17 5s11.667 -1.66699 17 -5l104 -55
c6 -3.33301 9 -9 9 -17c0 -4.66699 -1.66699 -8.5 -5 -11.5s-7.33301 -4.5 -12 -4.5l-9 3l-104 55l-104 -56c-0.666992 0 -2 -0.5 -4 -1.5s-3.33301 -1.5 -4 -1.5c-4.66699 0 -8.83398 1.83301 -12.501 5.5s-5.5 8.16699 -5.5 13.5z" />
    <glyph glyph-name="Atilde" unicode="&#xc3;" horiz-adv-x="521" 
d="M25 16c0 2.66699 0.333984 4.66699 1.00098 6l217 701c2.66699 9.33301 8.66699 14 18 14s15.666 -4.66699 18.999 -14l215 -701c0 -0.666992 0.166992 -1.5 0.5 -2.5s0.5 -1.83301 0.5 -2.5c0 -4.66699 -2 -8.66699 -6 -12s-8.66699 -5 -14 -5
c-8 -0 -13.333 4.33301 -16 13l-51 164h-298l-50 -164c-2.66699 -8.66699 -8.66699 -13 -18 -13c-12 -0 -18 5.33301 -18 16zM113.001 897c0 12.667 10.168 24.501 30.501 35.501s39.833 16.5 58.5 16.5c16 0 36.833 -6.16699 62.5 -18.5s47.167 -18.5 64.5 -18.5
c13.333 0 24.166 2.66699 32.499 8s14.833 10.666 19.5 15.999s9 8 13 8c9.33301 0 14 -5 14 -15c0 -14 -9.5 -26 -28.5 -36s-37.5 -15 -55.5 -15c-15.333 0 -35.833 6.16699 -61.5 18.5s-48.167 18.5 -67.5 18.5c-12.667 0 -23.667 -2.83301 -33 -8.5
s-16.833 -11.5 -22.5 -17.5s-10.167 -9 -13.5 -9c-8.66699 0 -13 5.66699 -13 17zM122.002 213.001h276l-137 448z" />
    <glyph glyph-name="Adieresis" unicode="&#xc4;" horiz-adv-x="521" 
d="M25 16c0 2.66699 0.333984 4.66699 1.00098 6l217 701c2.66699 9.33301 8.66699 14 18 14s15.666 -4.66699 18.999 -14l215 -701c0 -0.666992 0.166992 -1.5 0.5 -2.5s0.5 -1.83301 0.5 -2.5c0 -4.66699 -2 -8.66699 -6 -12s-8.66699 -5 -14 -5
c-8 -0 -13.333 4.33301 -16 13l-51 164h-298l-50 -164c-2.66699 -8.66699 -8.66699 -13 -18 -13c-12 -0 -18 5.33301 -18 16zM122.001 213h276l-137 448zM175.001 889c0 8.66699 2.83301 15.667 8.5 21s12.834 8 21.501 8s15.667 -2.66699 21 -8s8 -12.333 8 -21
s-2.66699 -15.834 -8 -21.501s-12.333 -8.5 -21 -8.5s-15.834 2.83301 -21.501 8.5s-8.5 12.834 -8.5 21.501zM286.001 889c0 8.66699 2.83301 15.667 8.5 21s12.834 8 21.501 8s15.667 -2.66699 21 -8s8 -12.333 8 -21s-2.66699 -15.834 -8 -21.501s-12.333 -8.5 -21 -8.5
s-15.834 2.83301 -21.501 8.5s-8.5 12.834 -8.5 21.501z" />
    <glyph glyph-name="Aring" unicode="&#xc5;" horiz-adv-x="521" 
d="M25 16c0 2.66699 0.333984 4.66699 1.00098 6l217 701c2.66699 9.33301 8.66699 14 18 14s15.666 -4.66699 18.999 -14l215 -701c0 -0.666992 0.166992 -1.5 0.5 -2.5s0.5 -1.83301 0.5 -2.5c0 -4.66699 -2 -8.66699 -6 -12s-8.66699 -5 -14 -5
c-8 -0 -13.333 4.33301 -16 13l-51 164h-298l-50 -164c-2.66699 -8.66699 -8.66699 -13 -18 -13c-12 -0 -18 5.33301 -18 16zM122.001 213h276l-137 448zM170.001 936c0 24 8.83301 45.167 26.5 63.5s38.834 27.5 63.501 27.5c23.333 0 44.166 -9.16699 62.499 -27.5
s27.5 -39.5 27.5 -63.5c0 -24.667 -9.16699 -46.334 -27.5 -65.001s-39.166 -28 -62.499 -28c-24.667 0 -45.834 9.33301 -63.501 28s-26.5 40.334 -26.5 65.001zM194.001 936c0 -18 6.66797 -34.167 20.001 -48.5s28.666 -21.5 45.999 -21.5s32.5 7.16699 45.5 21.5
s19.5 30.5 19.5 48.5c0 16 -6.5 30.833 -19.5 44.5s-28.167 20.5 -45.5 20.5c-18 0 -33.5 -6.83301 -46.5 -20.5s-19.5 -28.5 -19.5 -44.5z" />
    <glyph glyph-name="AE" unicode="&#xc6;" horiz-adv-x="680" 
d="M79 23v502c0 71.333 17.833 123.5 53.5 156.5s83.167 49.5 142.5 49.5h360c11.333 0 17 -5.66699 17 -17c0 -12.667 -5.66699 -19 -17 -19h-237v-311h160c11.333 0 17 -6.33301 17 -19c0 -11.333 -5.66699 -17 -17 -17h-160v-312h237c11.333 0 17 -6.33301 17 -19
c0 -11.333 -5.66699 -17 -17 -17h-255c-12 0 -18 6 -18 18v330h-247v-325c0 -15.333 -6 -23 -18 -23s-18 7.66699 -18 23zM115 384h247v311h-87c-51.333 0 -90.833 -14.167 -118.5 -42.5s-41.5 -70.833 -41.5 -127.5v-141z" />
    <glyph glyph-name="Ccedilla" unicode="&#xc7;" horiz-adv-x="512" 
d="M76 200l-0.000976562 325.001c0 70.667 18.5 122.667 55.5 156s84.833 50 143.5 50c60.667 0 107.834 -15.5 141.501 -46.5s50.5 -67.833 50.5 -110.5c0 -18.667 -6 -28 -18 -28s-18 6 -18 18c-0.666992 14.667 -3.33398 28.5 -8.00098 41.5s-12.167 26.833 -22.5 41.5
s-26.333 26.334 -48 35.001s-47.834 13 -78.501 13c-108 0 -162 -56.667 -162 -170v-325c0 -113.333 55.333 -170 166 -170c25.333 0 47.333 3.16699 66 9.5s32.834 13.333 42.501 21s18 18.5 25 32.5s11.5 25.167 13.5 33.5s4 19.833 6 34.5c1.33301 12 7.33301 18 18 18
c12 0 18 -9.66699 18 -29c0 -37.333 -14 -70.666 -42 -99.999s-67 -47 -117 -53l-15 -62c32 -0.666992 55.667 -7.83398 71 -21.501s23 -29.834 23 -48.501c0 -19.333 -7.5 -36.166 -22.5 -50.499s-34.833 -21.5 -59.5 -21.5c-15.333 0 -31.5 2.16699 -48.5 6.5
s-25.5 10.166 -25.5 17.499c0 3.33301 1.33301 7.16602 4 11.499s5.33398 6.5 8.00098 6.5l18 -7c12 -4 24.667 -6 38 -6c36.667 0 55 13.667 55 41c0 26.667 -23.333 41.667 -70 45l-29 2l21 84h-4c-58 0 -105.167 16.667 -141.5 50s-54.5 85.333 -54.5 156z" />
    <glyph glyph-name="Egrave" unicode="&#xc8;" horiz-adv-x="498" 
d="M83 18v695c0 12 6 18 18 18h356c11.333 0 17 -5.66699 17 -17c0 -12.667 -5.66699 -19 -17 -19h-338v-311h160c11.333 0 17 -6.33301 17 -19c0 -11.333 -5.66699 -17 -17 -17h-160v-312h338c11.333 0 17 -6.33301 17 -19c0 -11.333 -5.66699 -17 -17 -17h-356
c-12 0 -18 6 -18 18zM212 935c0 12 5.33301 18.001 16 18.001c2 0 4.33301 -0.666992 7 -2l102 -60c5.33301 -2.66699 8 -7 8 -13c0 -4.66699 -1.83301 -8.83398 -5.5 -12.501s-8.16699 -5.5 -13.5 -5.5c-2.66699 0 -5.66699 1 -9 3l-95 54c-6.66699 4 -10 10 -10 18z" />
    <glyph glyph-name="Eacute" unicode="&#xc9;" horiz-adv-x="498" 
d="M83 18v695c0 12 6 18 18 18h356c11.333 0 17 -5.66699 17 -17c0 -12.667 -5.66699 -19 -17 -19h-338v-311h160c11.333 0 17 -6.33301 17 -19c0 -11.333 -5.66699 -17 -17 -17h-160v-312h338c11.333 0 17 -6.33301 17 -19c0 -11.333 -5.66699 -17 -17 -17h-356
c-12 0 -18 6 -18 18zM212 878c0 6 2.66699 10.332 8 12.999l102 60c2.66699 1.33301 5 2 7 2c10.667 0 16 -6 16 -18c0 -8 -3.33301 -14 -10 -18l-95 -54c-2.66699 -2 -5.66699 -3 -9 -3c-5.33301 0 -9.83301 1.83301 -13.5 5.5s-5.5 7.83398 -5.5 12.501z" />
    <glyph glyph-name="Ecircumflex" unicode="&#xca;" horiz-adv-x="498" 
d="M83 18v695c0 12 6 18 18 18h356c11.333 0 17 -5.66699 17 -17c0 -12.667 -5.66699 -19 -17 -19h-338v-311h160c11.333 0 17 -6.33301 17 -19c0 -11.333 -5.66699 -17 -17 -17h-160v-312h338c11.333 0 17 -6.33301 17 -19c0 -11.333 -5.66699 -17 -17 -17h-356
c-12 0 -18 6 -18 18zM148 878c0 6.66699 3.00098 11.333 9.00098 14l104 56c5.33301 3.33301 11 5 17 5s11.667 -1.66699 17 -5l104 -55c6 -3.33301 9 -9 9 -17c0 -4.66699 -1.66699 -8.5 -5 -11.5s-7.33301 -4.5 -12 -4.5l-9 3l-104 55l-104 -56
c-0.666992 0 -2 -0.5 -4 -1.5s-3.33301 -1.5 -4 -1.5c-4.66699 0 -8.83398 1.83301 -12.501 5.5s-5.5 8.16699 -5.5 13.5z" />
    <glyph glyph-name="Edieresis" unicode="&#xcb;" horiz-adv-x="498" 
d="M83 18v695c0 12 6 18 18 18h356c11.333 0 17 -5.66699 17 -17c0 -12.667 -5.66699 -19 -17 -19h-338v-311h160c11.333 0 17 -6.33301 17 -19c0 -11.333 -5.66699 -17 -17 -17h-160v-312h338c11.333 0 17 -6.33301 17 -19c0 -11.333 -5.66699 -17 -17 -17h-356
c-12 0 -18 6 -18 18zM193 889c0 8.66699 2.83301 15.667 8.5 21s12.834 8 21.501 8s15.667 -2.66699 21 -8s8 -12.333 8 -21s-2.66699 -15.834 -8 -21.501s-12.333 -8.5 -21 -8.5s-15.834 2.83301 -21.501 8.5s-8.5 12.834 -8.5 21.501zM304 889
c0 8.66699 2.83301 15.667 8.5 21s12.834 8 21.501 8s15.667 -2.66699 21 -8s8 -12.333 8 -21s-2.66699 -15.834 -8 -21.501s-12.333 -8.5 -21 -8.5s-15.834 2.83301 -21.501 8.5s-8.5 12.834 -8.5 21.501z" />
    <glyph glyph-name="Igrave" unicode="&#xcc;" horiz-adv-x="202" 
d="M34 935c0 12 5.33301 18.001 16 18.001c2 0 4.33301 -0.666992 7 -2l102 -60c5.33301 -2.66699 8 -7 8 -13c0 -4.66699 -1.83301 -8.83398 -5.5 -12.501s-8.16699 -5.5 -13.5 -5.5c-2.66699 0 -5.66699 1 -9 3l-95 54c-6.66699 4 -10 10 -10 18zM83 18.001v696
c0 11.333 6 17 18 17s18 -5.66699 18 -17v-696c0 -12 -6 -18 -18 -18s-18 6 -18 18z" />
    <glyph glyph-name="Iacute" unicode="&#xcd;" horiz-adv-x="202" 
d="M34 878c0 6 2.66699 10.332 8 12.999l102 60c2.66699 1.33301 5 2 7 2c10.667 0 16 -6 16 -18c0 -8 -3.33301 -14 -10 -18l-95 -54c-2.66699 -2 -5.66699 -3 -9 -3c-5.33301 0 -9.83301 1.83301 -13.5 5.5s-5.5 7.83398 -5.5 12.501zM83 17.999v696c0 11.333 6 17 18 17
s18 -5.66699 18 -17v-696c0 -12 -6 -18 -18 -18s-18 6 -18 18z" />
    <glyph glyph-name="Icircumflex" unicode="&#xce;" horiz-adv-x="202" 
d="M-29 878c0 6.66699 3.00098 11.333 9.00098 14l104 56c5.33301 3.33301 11 5 17 5s11.667 -1.66699 17 -5l104 -55c6 -3.33301 9 -9 9 -17c0 -4.66699 -1.66699 -8.5 -5 -11.5s-7.33301 -4.5 -12 -4.5l-9 3l-104 55l-104 -56c-0.666992 0 -2 -0.5 -4 -1.5
s-3.33301 -1.5 -4 -1.5c-4.66699 0 -8.83398 1.83301 -12.501 5.5s-5.5 8.16699 -5.5 13.5zM83.001 17.999v696c0 11.333 6 17 18 17s18 -5.66699 18 -17v-696c0 -12 -6 -18 -18 -18s-18 6 -18 18z" />
    <glyph glyph-name="Idieresis" unicode="&#xcf;" horiz-adv-x="202" 
d="M16 889c0 8.66699 2.83301 15.667 8.5 21s12.834 8 21.501 8s15.667 -2.66699 21 -8s8 -12.333 8 -21s-2.66699 -15.834 -8 -21.501s-12.333 -8.5 -21 -8.5s-15.834 2.83301 -21.501 8.5s-8.5 12.834 -8.5 21.501zM83 18v696c0 11.333 6 17 18 17s18 -5.66699 18 -17
v-696c0 -12 -6 -18 -18 -18s-18 6 -18 18zM127 889c0 8.66699 2.83301 15.667 8.5 21s12.834 8 21.501 8s15.667 -2.66699 21 -8s8 -12.333 8 -21s-2.66699 -15.834 -8 -21.501s-12.333 -8.5 -21 -8.5s-15.834 2.83301 -21.501 8.5s-8.5 12.834 -8.5 21.501z" />
    <glyph glyph-name="Eth" unicode="&#xd0;" horiz-adv-x="560" 
d="M3 384c0 12 5.66699 18 17 18h73v312c0 11.333 6 17 18 17h177c59.333 0 106.833 -16.5 142.5 -49.5s53.5 -85.167 53.5 -156.5v-319c0 -71.333 -17.833 -123.5 -53.5 -156.5s-83.167 -49.5 -142.5 -49.5h-177c-12 0 -18 5.66699 -18 17v350h-73
c-11.333 0 -17 5.66699 -17 17zM129 36l159 0.000976562c51.333 0 90.833 14.167 118.5 42.5s41.5 70.833 41.5 127.5v319c0 56.667 -13.833 99.167 -41.5 127.5s-67.167 42.5 -118.5 42.5h-159v-293h131c4.66699 0 8.83398 -1.83301 12.501 -5.5s5.5 -7.83398 5.5 -12.501
s-1.83301 -8.66699 -5.5 -12s-7.83398 -5 -12.501 -5h-131v-331z" />
    <glyph glyph-name="Ntilde" unicode="&#xd1;" horiz-adv-x="557" 
d="M83 18l0.000976562 696c0 11.333 6 17 18 17c7.33301 0 17.666 -12 30.999 -36l306 -606v625c0 11.333 6 17 18 17s18 -5.66699 18 -17v-696c0 -12 -6 -18 -18 -18c-7.33301 0 -17 12 -29 36l-308 607v-625c0 -12 -6 -18 -18 -18s-18 6 -18 18zM131.001 897
c0 12.667 10.168 24.501 30.501 35.501s39.833 16.5 58.5 16.5c16 0 36.833 -6.16699 62.5 -18.5s47.167 -18.5 64.5 -18.5c13.333 0 24.166 2.66699 32.499 8s14.833 10.666 19.5 15.999s9 8 13 8c9.33301 0 14 -5 14 -15c0 -14 -9.5 -26 -28.5 -36s-37.5 -15 -55.5 -15
c-15.333 0 -35.833 6.16699 -61.5 18.5s-48.167 18.5 -67.5 18.5c-12.667 0 -23.667 -2.83301 -33 -8.5s-16.833 -11.5 -22.5 -17.5s-10.167 -9 -13.5 -9c-8.66699 0 -13 5.66699 -13 17z" />
    <glyph glyph-name="Ograve" unicode="&#xd2;" horiz-adv-x="543" 
d="M76 200v325c0 71.333 17.667 123.5 53 156.5s82.666 49.5 141.999 49.5s106.833 -16.5 142.5 -49.5s53.5 -85.167 53.5 -156.5v-325c0 -71.333 -17.833 -123.5 -53.5 -156.5s-83.167 -49.5 -142.5 -49.5s-106.666 16.5 -141.999 49.5s-53 85.167 -53 156.5zM112 200
c0 -56.667 13.667 -99.167 41 -127.5s66.666 -42.5 117.999 -42.5s90.833 14.167 118.5 42.5s41.5 70.833 41.5 127.5v325c0 56.667 -13.833 99.167 -41.5 127.5s-67.167 42.5 -118.5 42.5s-90.666 -14.167 -117.999 -42.5s-41 -70.833 -41 -127.5v-325zM205 935
c0 12 5.33301 18.001 16 18.001c2 0 4.33301 -0.666992 7 -2l102 -60c5.33301 -2.66699 8 -7 8 -13c0 -4.66699 -1.83301 -8.83398 -5.5 -12.501s-8.16699 -5.5 -13.5 -5.5c-3.33301 0 -6.33301 1 -9 3l-95 54c-6.66699 4 -10 10 -10 18z" />
    <glyph glyph-name="Oacute" unicode="&#xd3;" horiz-adv-x="543" 
d="M76 200v325c0 71.333 17.667 123.5 53 156.5s82.666 49.5 141.999 49.5s106.833 -16.5 142.5 -49.5s53.5 -85.167 53.5 -156.5v-325c0 -71.333 -17.833 -123.5 -53.5 -156.5s-83.167 -49.5 -142.5 -49.5s-106.666 16.5 -141.999 49.5s-53 85.167 -53 156.5zM112 200
c0 -56.667 13.667 -99.167 41 -127.5s66.666 -42.5 117.999 -42.5s90.833 14.167 118.5 42.5s41.5 70.833 41.5 127.5v325c0 56.667 -13.833 99.167 -41.5 127.5s-67.167 42.5 -118.5 42.5s-90.666 -14.167 -117.999 -42.5s-41 -70.833 -41 -127.5v-325zM205 878
c0 6 2.66699 10.332 8 12.999l102 60c2.66699 1.33301 5 2 7 2c10.667 0 16 -6 16 -18c0 -8 -3.33301 -14 -10 -18l-95 -54c-3.33301 -2 -6.33301 -3 -9 -3c-5.33301 0 -9.83301 1.83301 -13.5 5.5s-5.5 7.83398 -5.5 12.501z" />
    <glyph glyph-name="Ocircumflex" unicode="&#xd4;" horiz-adv-x="543" 
d="M76 200v325c0 71.333 17.667 123.5 53 156.5s82.666 49.5 141.999 49.5s106.833 -16.5 142.5 -49.5s53.5 -85.167 53.5 -156.5v-325c0 -71.333 -17.833 -123.5 -53.5 -156.5s-83.167 -49.5 -142.5 -49.5s-106.666 16.5 -141.999 49.5s-53 85.167 -53 156.5zM112 200
c0 -56.667 13.667 -99.167 41 -127.5s66.666 -42.5 117.999 -42.5s90.833 14.167 118.5 42.5s41.5 70.833 41.5 127.5v325c0 56.667 -13.833 99.167 -41.5 127.5s-67.167 42.5 -118.5 42.5s-90.666 -14.167 -117.999 -42.5s-41 -70.833 -41 -127.5v-325zM141 878
c0 6.66699 3.00098 11.333 9.00098 14l104 56c5.33301 3.33301 11 5 17 5s11.667 -1.66699 17 -5l104 -55c6 -3.33301 9 -9 9 -17c0 -4.66699 -1.66699 -8.5 -5 -11.5s-7.33301 -4.5 -12 -4.5l-9 3l-104 55l-104 -56c-0.666992 0 -2 -0.5 -4 -1.5s-3.33301 -1.5 -4 -1.5
c-4.66699 0 -8.83398 1.83301 -12.501 5.5s-5.5 8.16699 -5.5 13.5z" />
    <glyph glyph-name="Otilde" unicode="&#xd5;" horiz-adv-x="543" 
d="M76 200v325c0 71.333 17.667 123.5 53 156.5s82.666 49.5 141.999 49.5s106.833 -16.5 142.5 -49.5s53.5 -85.167 53.5 -156.5v-325c0 -71.333 -17.833 -123.5 -53.5 -156.5s-83.167 -49.5 -142.5 -49.5s-106.666 16.5 -141.999 49.5s-53 85.167 -53 156.5zM112 200
c0 -56.667 13.667 -99.167 41 -127.5s66.666 -42.5 117.999 -42.5s90.833 14.167 118.5 42.5s41.5 70.833 41.5 127.5v325c0 56.667 -13.833 99.167 -41.5 127.5s-67.167 42.5 -118.5 42.5s-90.666 -14.167 -117.999 -42.5s-41 -70.833 -41 -127.5v-325zM124 897
c0 12.667 10.168 24.501 30.501 35.501s39.833 16.5 58.5 16.5c16 0 36.833 -6.16699 62.5 -18.5s47.167 -18.5 64.5 -18.5c13.333 0 24.166 2.66699 32.499 8s14.833 10.666 19.5 15.999s9 8 13 8c9.33301 0 14 -5 14 -15c0 -14 -9.5 -26 -28.5 -36s-37.5 -15 -55.5 -15
c-15.333 0 -35.833 6.16699 -61.5 18.5s-48.167 18.5 -67.5 18.5c-12.667 0 -23.667 -2.83301 -33 -8.5s-16.833 -11.5 -22.5 -17.5s-10.167 -9 -13.5 -9c-8.66699 0 -13 5.66699 -13 17z" />
    <glyph glyph-name="Odieresis" unicode="&#xd6;" horiz-adv-x="543" 
d="M76 200v325c0 71.333 17.667 123.5 53 156.5s82.666 49.5 141.999 49.5s106.833 -16.5 142.5 -49.5s53.5 -85.167 53.5 -156.5v-325c0 -71.333 -17.833 -123.5 -53.5 -156.5s-83.167 -49.5 -142.5 -49.5s-106.666 16.5 -141.999 49.5s-53 85.167 -53 156.5zM112 200
c0 -56.667 13.667 -99.167 41 -127.5s66.666 -42.5 117.999 -42.5s90.833 14.167 118.5 42.5s41.5 70.833 41.5 127.5v325c0 56.667 -13.833 99.167 -41.5 127.5s-67.167 42.5 -118.5 42.5s-90.666 -14.167 -117.999 -42.5s-41 -70.833 -41 -127.5v-325zM186 889
c0 8.66699 2.83301 15.667 8.5 21s12.834 8 21.501 8s15.667 -2.66699 21 -8s8 -12.333 8 -21s-2.66699 -15.834 -8 -21.501s-12.333 -8.5 -21 -8.5s-15.834 2.83301 -21.501 8.5s-8.5 12.834 -8.5 21.501zM297 889c0 8.66699 2.83301 15.667 8.5 21s12.834 8 21.501 8
s15.667 -2.66699 21 -8s8 -12.333 8 -21s-2.66699 -15.834 -8 -21.501s-12.333 -8.5 -21 -8.5s-15.834 2.83301 -21.501 8.5s-8.5 12.834 -8.5 21.501z" />
    <glyph glyph-name="multiply" unicode="&#xd7;" horiz-adv-x="393" 
d="M66 162c0 4.66699 1.66895 8.66699 5.00195 12l101 101l-101 101c-3.33301 3.33301 -5 7.66602 -5 12.999c0 4.66699 1.66699 8.66699 5 12s7.33301 5 12 5c5.33301 0 9.66602 -1.66699 12.999 -5l100 -101l101 101c3.33301 3.33301 7.66602 5 12.999 5
c4.66699 0 8.66699 -1.66699 12 -5s5 -7.33301 5 -12c0 -5.33301 -1.66699 -9.66602 -5 -12.999l-101 -101l101 -101c3.33301 -3.33301 5 -7.33301 5 -12c0 -4 -1.66699 -7.83301 -5 -11.5s-7.33301 -5.5 -12 -5.5s-8.66699 1.66699 -12 5l-102 101l-101 -101
c-3.33301 -3.33301 -7.33301 -5 -12 -5s-8.66699 1.66699 -12 5s-5 7.33301 -5 12z" />
    <glyph glyph-name="Oslash" unicode="&#xd8;" horiz-adv-x="543" 
d="M59 -5c0 4 0.667969 7.00098 2.00098 9.00098l40 77c-16.667 32 -25 71.667 -25 119v325c0 71.333 17.667 123.5 53 156.5s82.666 49.5 141.999 49.5s106.333 -16.333 141 -49l40 78c2.66699 5.33301 7 8 13 8c4 0 8 -1.83301 12 -5.5s6 -8.16699 6 -13.5
c0 -3.33301 -1 -7 -3 -11l-44 -85c20.667 -34.667 31 -77.334 31 -128.001v-325c0 -71.333 -17.833 -123.5 -53.5 -156.5s-83.167 -49.5 -142.5 -49.5c-66 0 -115.333 18.667 -148 56l-31 -59c-4 -7.33301 -9.66699 -11 -17 -11c-10.667 0 -16 5 -16 15zM112.001 200.001
c0 -28.667 3.66602 -54 10.999 -76l271 523c-28 32 -69 48 -123 48c-51.333 0 -90.666 -14.167 -117.999 -42.5s-41 -70.833 -41 -127.5v-325zM141 86.001c26.667 -37.333 70 -55.999 130 -55.999c51.333 0 90.833 14.167 118.5 42.5s41.5 70.833 41.5 127.5v325
c0 35.333 -5.33301 64.666 -16 87.999z" />
    <glyph glyph-name="Ugrave" unicode="&#xd9;" horiz-adv-x="549" 
d="M79 200v514c0 11.333 6 17 18 17s18 -5.66699 18 -17v-514c0 -56.667 13.667 -99.167 41 -127.5s66.666 -42.5 117.999 -42.5s90.833 14.167 118.5 42.5s41.5 70.833 41.5 127.5v514c0 11.333 6 17 18 17s18 -5.66699 18 -17v-514c0 -71.333 -17.833 -123.5 -53.5 -156.5
s-83.167 -49.5 -142.5 -49.5s-106.666 16.5 -141.999 49.5s-53 85.167 -53 156.5zM208 935c0 12 5.33301 18.001 16 18.001c2 0 4.33301 -0.666992 7 -2l102 -60c5.33301 -2.66699 8 -7 8 -13c0 -4.66699 -1.83301 -8.83398 -5.5 -12.501s-8.16699 -5.5 -13.5 -5.5
c-2.66699 0 -5.66699 1 -9 3l-95 54c-6.66699 4 -10 10 -10 18z" />
    <glyph glyph-name="Uacute" unicode="&#xda;" horiz-adv-x="549" 
d="M79 200v514c0 11.333 6 17 18 17s18 -5.66699 18 -17v-514c0 -56.667 13.667 -99.167 41 -127.5s66.666 -42.5 117.999 -42.5s90.833 14.167 118.5 42.5s41.5 70.833 41.5 127.5v514c0 11.333 6 17 18 17s18 -5.66699 18 -17v-514c0 -71.333 -17.833 -123.5 -53.5 -156.5
s-83.167 -49.5 -142.5 -49.5s-106.666 16.5 -141.999 49.5s-53 85.167 -53 156.5zM208 878c0 6 2.66699 10.332 8 12.999l102 60c2.66699 1.33301 5 2 7 2c10.667 0 16 -6 16 -18c0 -8 -3.33301 -14 -10 -18l-95 -54c-2.66699 -2 -5.66699 -3 -9 -3
c-5.33301 0 -9.83301 1.83301 -13.5 5.5s-5.5 7.83398 -5.5 12.501z" />
    <glyph glyph-name="Ucircumflex" unicode="&#xdb;" horiz-adv-x="549" 
d="M79 200v514c0 11.333 6 17 18 17s18 -5.66699 18 -17v-514c0 -56.667 13.667 -99.167 41 -127.5s66.666 -42.5 117.999 -42.5s90.833 14.167 118.5 42.5s41.5 70.833 41.5 127.5v514c0 11.333 6 17 18 17s18 -5.66699 18 -17v-514c0 -71.333 -17.833 -123.5 -53.5 -156.5
s-83.167 -49.5 -142.5 -49.5s-106.666 16.5 -141.999 49.5s-53 85.167 -53 156.5zM144 878c0 6.66699 3.00098 11.333 9.00098 14l104 56c5.33301 3.33301 11 5 17 5s11.667 -1.66699 17 -5l104 -55c6 -3.33301 9 -9 9 -17c0 -4.66699 -1.66699 -8.5 -5 -11.5
s-7.33301 -4.5 -12 -4.5l-9 3l-104 55l-104 -56c-0.666992 0 -2 -0.5 -4 -1.5s-3.33301 -1.5 -4 -1.5c-4.66699 0 -8.83398 1.83301 -12.501 5.5s-5.5 8.16699 -5.5 13.5z" />
    <glyph glyph-name="Udieresis" unicode="&#xdc;" horiz-adv-x="549" 
d="M79 200v514c0 11.333 6 17 18 17s18 -5.66699 18 -17v-514c0 -56.667 13.667 -99.167 41 -127.5s66.666 -42.5 117.999 -42.5s90.833 14.167 118.5 42.5s41.5 70.833 41.5 127.5v514c0 11.333 6 17 18 17s18 -5.66699 18 -17v-514c0 -71.333 -17.833 -123.5 -53.5 -156.5
s-83.167 -49.5 -142.5 -49.5s-106.666 16.5 -141.999 49.5s-53 85.167 -53 156.5zM189 889c0 8.66699 2.83301 15.667 8.5 21s12.834 8 21.501 8s15.667 -2.66699 21 -8s8 -12.333 8 -21s-2.66699 -15.834 -8 -21.501s-12.333 -8.5 -21 -8.5s-15.834 2.83301 -21.501 8.5
s-8.5 12.834 -8.5 21.501zM300 889c0 8.66699 2.83301 15.667 8.5 21s12.834 8 21.501 8s15.667 -2.66699 21 -8s8 -12.333 8 -21s-2.66699 -15.834 -8 -21.501s-12.333 -8.5 -21 -8.5s-15.834 2.83301 -21.501 8.5s-8.5 12.834 -8.5 21.501z" />
    <glyph glyph-name="Yacute" unicode="&#xdd;" horiz-adv-x="509" 
d="M22 715c0 10.667 4.33301 16.001 13 16.001c7.33301 0 14 -5.66699 20 -17l199 -401l200 401c5.33301 11.333 12 17 20 17s12 -5.33301 12 -16c0 -6.66699 -1.66699 -13.334 -5 -20.001l-208 -416c-0.666992 -1.33301 -1 -3.33301 -1 -6v-255c0 -12 -6 -18 -18 -18
s-18 6 -18 18v255c0 2.66699 -0.333008 4.66699 -1 6l-207 416c-4 8 -6 14.667 -6 20zM187 878.001c0 6 2.66699 10.332 8 12.999l102 60c2.66699 1.33301 5 2 7 2c10.667 0 16 -6 16 -18c0 -8 -3.33301 -14 -10 -18l-95 -54c-3.33301 -2 -6.33301 -3 -9 -3
c-5.33301 0 -9.83301 1.83301 -13.5 5.5s-5.5 7.83398 -5.5 12.501z" />
    <glyph glyph-name="Thorn" unicode="&#xde;" horiz-adv-x="483" 
d="M83 18l-0.000976562 696.998c0 10.667 5.66699 16 17 16c12 0 18 -5.66699 18 -17v-172c28.667 50.667 76.334 76 143.001 76c46.667 0 86.834 -12.833 120.501 -38.5s50.5 -61.167 50.5 -106.5v-192c0 -45.333 -16.833 -81.166 -50.5 -107.499
s-72.167 -39.5 -115.5 -39.5c-32.667 0 -63.5 7.33301 -92.5 22s-47.5 33.334 -55.5 56.001v-194c0 -4.66699 -1.66699 -8.83398 -5 -12.501s-7.33301 -5.5 -12 -5.5s-8.83398 1.83301 -12.501 5.5s-5.5 7.83398 -5.5 12.501zM117.999 280.998c0 -28 14 -53.667 42 -77
s62.333 -35 103 -35c36 0 67.333 9.66699 94 29s40 47 40 83v192c0 35.333 -13.167 62.5 -39.5 81.5s-57.833 28.5 -94.5 28.5c-39.333 0 -73.333 -10.333 -102 -31s-43 -47 -43 -79v-192z" />
    <glyph glyph-name="germandbls" unicode="&#xdf;" horiz-adv-x="528" 
d="M8 454c0 12 5.66797 18.002 17.001 18.002h81v118c0 52 12.667 94.667 38 128s63.666 50 114.999 50c47.333 0 85.5 -15 114.5 -45s43.5 -74.667 43.5 -134c0 -39.333 -6.33301 -75.833 -19 -109.5s-30.667 -55.834 -54 -66.501
c34.667 -6.66699 66.667 -29.334 96 -68.001s44 -82 44 -130v-19c0 -70 -16.167 -123.5 -48.5 -160.5s-71.166 -55.5 -116.499 -55.5c-22 0 -45.667 2.83301 -71 8.5s-38 14.834 -38 27.501c0 4.66699 1.5 8.66699 4.5 12s6.5 5 10.5 5
c1.33301 0 10.666 -3.66699 27.999 -11s36 -11 56 -11c44 0 78.833 15.833 104.5 47.5s38.5 77.5 38.5 137.5v19c0 26 -4.66699 51.167 -14 75.5s-27.333 46.666 -54 66.999s-60 31.833 -100 34.5c-11.333 0.666992 -19.333 1.83398 -24 3.50098s-7 5.83398 -7 12.501
c0 11.333 10.667 17.666 32 18.999c64.667 4 97 54 97 150c0 49.333 -10.5 87.666 -31.5 114.999s-51.5 41 -91.5 41c-41.333 0 -71.333 -13.5 -90 -40.5s-28 -61.167 -28 -102.5v-573c0 -4.66699 -1.83301 -8.66699 -5.5 -12s-8.16699 -5 -13.5 -5
c-10.667 0 -16 5.66699 -16 17v420h-81c-11.333 0 -17 5.66699 -17 17z" />
    <glyph glyph-name="agrave" unicode="&#xe0;" horiz-adv-x="423" 
d="M35 126c0 50 19.834 84.501 59.501 103.501s97.5 28.5 173.5 28.5h56v28c0 42.667 -11 79.5 -33 110.5s-55 46.5 -99 46.5c-18 0 -34.833 -2.16699 -50.5 -6.5s-27.834 -8.83301 -36.501 -13.5s-14.334 -7 -17.001 -7c-5.33301 0 -9.66602 2.33301 -12.999 7s-5 9 -5 13
c0 10 13.167 19.5 39.5 28.5s54.5 13.5 84.5 13.5c57.333 0 99.166 -18.167 125.499 -54.5s39.5 -82.166 39.5 -137.499v-268c0 -12 -5.66699 -18 -17 -18c-5.33301 0 -9.66602 1.66699 -12.999 5s-5 7.66602 -5 12.999v52c-44 -50.667 -94 -76 -150 -76
c-41.333 0 -74.833 11.167 -100.5 33.5s-38.5 55.166 -38.5 98.499zM70.001 126.001c0 -32 9.5 -56.166 28.5 -72.499s43.833 -24.5 74.5 -24.5c36 0 70.167 12.667 102.5 38s48.5 49.333 48.5 72v84h-55c-30 0 -55.167 -1 -75.5 -3s-40.833 -6.16699 -61.5 -12.5
s-36.167 -16.333 -46.5 -30s-15.5 -30.834 -15.5 -51.501zM130.001 676.002c0 12 5.33301 18.001 16 18.001c2 0 4.33301 -0.666992 7 -2l102 -60c5.33301 -2.66699 8 -7 8 -13c0 -4.66699 -1.83301 -8.83398 -5.5 -12.501s-8.16699 -5.5 -13.5 -5.5
c-2.66699 0 -5.66699 1 -9 3l-95 54c-6.66699 4 -10 10 -10 18z" />
    <glyph glyph-name="aacute" unicode="&#xe1;" horiz-adv-x="423" 
d="M35 126c0 50 19.834 84.501 59.501 103.501s97.5 28.5 173.5 28.5h56v28c0 42.667 -11 79.5 -33 110.5s-55 46.5 -99 46.5c-18 0 -34.833 -2.16699 -50.5 -6.5s-27.834 -8.83301 -36.501 -13.5s-14.334 -7 -17.001 -7c-5.33301 0 -9.66602 2.33301 -12.999 7s-5 9 -5 13
c0 10 13.167 19.5 39.5 28.5s54.5 13.5 84.5 13.5c57.333 0 99.166 -18.167 125.499 -54.5s39.5 -82.166 39.5 -137.499v-268c0 -12 -5.66699 -18 -17 -18c-5.33301 0 -9.66602 1.66699 -12.999 5s-5 7.66602 -5 12.999v52c-44 -50.667 -94 -76 -150 -76
c-41.333 0 -74.833 11.167 -100.5 33.5s-38.5 55.166 -38.5 98.499zM70.001 126.001c0 -32 9.5 -56.166 28.5 -72.499s43.833 -24.5 74.5 -24.5c36 0 70.167 12.667 102.5 38s48.5 49.333 48.5 72v84h-55c-30 0 -55.167 -1 -75.5 -3s-40.833 -6.16699 -61.5 -12.5
s-36.167 -16.333 -46.5 -30s-15.5 -30.834 -15.5 -51.501zM130.001 619.002c0 6 2.66699 10.332 8 12.999l102 60c2.66699 1.33301 5 2 7 2c10.667 0 16 -6 16 -18c0 -8 -3.33301 -14 -10 -18l-95 -54c-2.66699 -2 -5.66699 -3 -9 -3c-5.33301 0 -9.83301 1.83301 -13.5 5.5
s-5.5 7.83398 -5.5 12.501z" />
    <glyph glyph-name="acircumflex" unicode="&#xe2;" horiz-adv-x="423" 
d="M35 126c0 50 19.834 84.501 59.501 103.501s97.5 28.5 173.5 28.5h56v28c0 42.667 -11 79.5 -33 110.5s-55 46.5 -99 46.5c-18 0 -34.833 -2.16699 -50.5 -6.5s-27.834 -8.83301 -36.501 -13.5s-14.334 -7 -17.001 -7c-5.33301 0 -9.66602 2.33301 -12.999 7s-5 9 -5 13
c0 10 13.167 19.5 39.5 28.5s54.5 13.5 84.5 13.5c57.333 0 99.166 -18.167 125.499 -54.5s39.5 -82.166 39.5 -137.499v-268c0 -12 -5.66699 -18 -17 -18c-5.33301 0 -9.66602 1.66699 -12.999 5s-5 7.66602 -5 12.999v52c-44 -50.667 -94 -76 -150 -76
c-41.333 0 -74.833 11.167 -100.5 33.5s-38.5 55.166 -38.5 98.499zM70.001 126.001c0 -32 9.5 -56.166 28.5 -72.499s43.833 -24.5 74.5 -24.5c36 0 70.167 12.667 102.5 38s48.5 49.333 48.5 72v84h-55c-30 0 -55.167 -1 -75.5 -3s-40.833 -6.16699 -61.5 -12.5
s-36.167 -16.333 -46.5 -30s-15.5 -30.834 -15.5 -51.501zM71.001 619.002c0 6 3.00098 10.668 9.00098 14.001l104 56c5.33301 3.33301 11 5 17 5s11.667 -1.66699 17 -5l104 -55c6 -2.66699 9 -8.33398 9 -17.001c0 -4.66699 -1.66699 -8.5 -5 -11.5
s-7.33301 -4.5 -12 -4.5l-9 3l-104 55l-104 -56c-0.666992 0 -2 -0.5 -4 -1.5s-3.33301 -1.5 -4 -1.5c-4.66699 0 -8.83398 1.83301 -12.501 5.5s-5.5 8.16699 -5.5 13.5z" />
    <glyph glyph-name="atilde" unicode="&#xe3;" horiz-adv-x="423" 
d="M35 126c0 50 19.834 84.501 59.501 103.501s97.5 28.5 173.5 28.5h56v28c0 42.667 -11 79.5 -33 110.5s-55 46.5 -99 46.5c-18 0 -34.833 -2.16699 -50.5 -6.5s-27.834 -8.83301 -36.501 -13.5s-14.334 -7 -17.001 -7c-5.33301 0 -9.66602 2.33301 -12.999 7s-5 9 -5 13
c0 10 13.167 19.5 39.5 28.5s54.5 13.5 84.5 13.5c57.333 0 99.166 -18.167 125.499 -54.5s39.5 -82.166 39.5 -137.499v-268c0 -12 -5.66699 -18 -17 -18c-5.33301 0 -9.66602 1.66699 -12.999 5s-5 7.66602 -5 12.999v52c-44 -50.667 -94 -76 -150 -76
c-41.333 0 -74.833 11.167 -100.5 33.5s-38.5 55.166 -38.5 98.499zM49.001 638.001c0 12.667 10.168 24.501 30.501 35.501s39.833 16.5 58.5 16.5c16 0 36.833 -6.16699 62.5 -18.5s47.167 -18.5 64.5 -18.5c13.333 0 24.166 2.66699 32.499 8s14.833 10.666 19.5 15.999
s9 8 13 8c9.33301 0 14 -5 14 -15c0 -14 -9.5 -26 -28.5 -36s-37.5 -15 -55.5 -15c-15.333 0 -35.833 6.16699 -61.5 18.5s-48.167 18.5 -67.5 18.5c-12.667 0 -23.667 -3 -33 -9s-16.833 -11.833 -22.5 -17.5s-10.167 -8.5 -13.5 -8.5c-8.66699 0 -13 5.66699 -13 17z
M70.002 126.002c0 -32 9.5 -56.166 28.5 -72.499s43.833 -24.5 74.5 -24.5c36 0 70.167 12.667 102.5 38s48.5 49.333 48.5 72v84h-55c-30 0 -55.167 -1 -75.5 -3s-40.833 -6.16699 -61.5 -12.5s-36.167 -16.333 -46.5 -30s-15.5 -30.834 -15.5 -51.501z" />
    <glyph glyph-name="adieresis" unicode="&#xe4;" horiz-adv-x="423" 
d="M35 126c0 50 19.834 84.501 59.501 103.501s97.5 28.5 173.5 28.5h56v28c0 42.667 -11 79.5 -33 110.5s-55 46.5 -99 46.5c-18 0 -34.833 -2.16699 -50.5 -6.5s-27.834 -8.83301 -36.501 -13.5s-14.334 -7 -17.001 -7c-5.33301 0 -9.66602 2.33301 -12.999 7s-5 9 -5 13
c0 10 13.167 19.5 39.5 28.5s54.5 13.5 84.5 13.5c57.333 0 99.166 -18.167 125.499 -54.5s39.5 -82.166 39.5 -137.499v-268c0 -12 -5.66699 -18 -17 -18c-5.33301 0 -9.66602 1.66699 -12.999 5s-5 7.66602 -5 12.999v52c-44 -50.667 -94 -76 -150 -76
c-41.333 0 -74.833 11.167 -100.5 33.5s-38.5 55.166 -38.5 98.499zM70.001 126.001c0 -32 9.5 -56.166 28.5 -72.499s43.833 -24.5 74.5 -24.5c36 0 70.167 12.667 102.5 38s48.5 49.333 48.5 72v84h-55c-30 0 -55.167 -1 -75.5 -3s-40.833 -6.16699 -61.5 -12.5
s-36.167 -16.333 -46.5 -30s-15.5 -30.834 -15.5 -51.501zM112.001 630.002c0 8.66699 2.83301 15.667 8.5 21s12.834 8 21.501 8s15.667 -2.66699 21 -8s8 -12.333 8 -21s-2.66699 -15.834 -8 -21.501s-12.333 -8.5 -21 -8.5s-15.834 2.83301 -21.501 8.5
s-8.5 12.834 -8.5 21.501zM223.001 630.002c0 8.66699 2.83301 15.667 8.5 21s12.834 8 21.501 8s15.667 -2.66699 21 -8s8 -12.333 8 -21s-2.66699 -15.834 -8 -21.501s-12.333 -8.5 -21 -8.5s-15.834 2.83301 -21.501 8.5s-8.5 12.834 -8.5 21.501z" />
    <glyph glyph-name="aring" unicode="&#xe5;" horiz-adv-x="423" 
d="M35 126c0 50 19.834 84.501 59.501 103.501s97.5 28.5 173.5 28.5h56v28c0 42.667 -11 79.5 -33 110.5s-55 46.5 -99 46.5c-18 0 -34.833 -2.16699 -50.5 -6.5s-27.834 -8.83301 -36.501 -13.5s-14.334 -7 -17.001 -7c-5.33301 0 -9.66602 2.33301 -12.999 7s-5 9 -5 13
c0 10 13.167 19.5 39.5 28.5s54.5 13.5 84.5 13.5c57.333 0 99.166 -18.167 125.499 -54.5s39.5 -82.166 39.5 -137.499v-268c0 -12 -5.66699 -18 -17 -18c-5.33301 0 -9.66602 1.66699 -12.999 5s-5 7.66602 -5 12.999v52c-44 -50.667 -94 -76 -150 -76
c-41.333 0 -74.833 11.167 -100.5 33.5s-38.5 55.166 -38.5 98.499zM70.001 126.001c0 -32 9.5 -56.166 28.5 -72.499s43.833 -24.5 74.5 -24.5c36 0 70.167 12.667 102.5 38s48.5 49.333 48.5 72v84h-55c-30 0 -55.167 -1 -75.5 -3s-40.833 -6.16699 -61.5 -12.5
s-36.167 -16.333 -46.5 -30s-15.5 -30.834 -15.5 -51.501zM107.001 677.002c0 24 8.83301 45.167 26.5 63.5s38.834 27.5 63.501 27.5c23.333 0 44.166 -9.16699 62.499 -27.5s27.5 -39.5 27.5 -63.5c0 -24.667 -9.16699 -46.334 -27.5 -65.001s-39.166 -28 -62.499 -28
c-24.667 0 -45.834 9.33301 -63.501 28s-26.5 40.334 -26.5 65.001zM131.001 677.002c0 -18 6.5 -34.167 19.5 -48.5s28.5 -21.5 46.5 -21.5c17.333 0 32.5 7.16699 45.5 21.5s19.5 30.5 19.5 48.5c0 16 -6.5 30.833 -19.5 44.5s-28.167 20.5 -45.5 20.5
c-18 0 -33.5 -6.83301 -46.5 -20.5s-19.5 -28.5 -19.5 -44.5z" />
    <glyph glyph-name="ae" unicode="&#xe6;" horiz-adv-x="719" 
d="M35 125c0 50 19.5029 84.666 58.5029 103.999s96.5 29 172.5 29h56v29c0 43.333 -11 80.333 -33 111s-56 46 -102 46c-22.667 0 -45.334 -4.66699 -68.001 -14l-34 -13c-4 0 -7.83301 2.33301 -11.5 7s-5.5 9 -5.5 13c0 10 13.167 19.5 39.5 28.5s54.5 13.5 84.5 13.5
c76 0 126.333 -33.667 151 -101c15.333 29.333 37 53.333 65 72s59 28 93 28c20 0 39.833 -3.5 59.5 -10.5s38.667 -17.667 57 -32s33.166 -34.666 44.499 -60.999s17 -56.5 17 -90.5c0 -25.333 -5.16699 -41.833 -15.5 -49.5s-32.833 -11.5 -67.5 -11.5h-235v-47
c0 -44.667 15.5 -80.334 46.5 -107.001s70.5 -40 118.5 -40c24 0 44.5 3.5 61.5 10.5s30 13.833 39 20.5s15.5 10 19.5 10s8 -1.66699 12 -5s6 -7.66602 6 -12.999c0 -14 -16.667 -27.167 -50 -39.5s-66.666 -18.5 -99.999 -18.5c-37.333 0 -71.833 9.16699 -103.5 27.5
s-54.834 43.833 -69.501 76.5c-19.333 -36 -44.333 -62.333 -75 -79s-62.334 -25 -95.001 -25c-38.667 0 -71 11.167 -97 33.5s-39 54.833 -39 97.5zM70.0029 123.999c0 -30.667 9.49902 -54.167 28.499 -70.5s43.5 -24.5 73.5 -24.5c38.667 0 73.334 12.667 104.001 38
s46 49.333 46 72v84h-55c-30.667 0 -56.167 -1 -76.5 -3s-40.5 -6.16699 -60.5 -12.5s-35 -16.5 -45 -30.5s-15 -31.667 -15 -53zM361.002 257.999l223.001 0.000976562c25.333 0 41.666 2.33301 48.999 7s11 14 11 28c0 39.333 -13.333 74.166 -40 104.499
s-60.667 45.5 -102 45.5c-40 0 -73.5 -14 -100.5 -42s-40.5 -61 -40.5 -99v-44z" />
    <glyph glyph-name="ccedilla" unicode="&#xe7;" horiz-adv-x="402" 
d="M52 176l-0.00195312 120.003c0 54 15.5 97.833 46.5 131.5s76.5 50.5 136.5 50.5c36.667 0 67.667 -6.83301 93 -20.5s38 -26.5 38 -38.5c0 -4.66699 -1.83301 -8.66699 -5.5 -12s-7.83398 -5 -12.501 -5c-3.33301 0 -9.16602 3.33301 -17.499 10s-20.5 13.5 -36.5 20.5
s-35.667 10.5 -59 10.5c-47.333 0 -83.833 -13 -109.5 -39s-38.5 -62 -38.5 -108v-120c0 -46 12.833 -82 38.5 -108s62.5 -39 110.5 -39c24.667 0 45.5 3.5 62.5 10.5s29.667 13.833 38 20.5s14.5 10 18.5 10c4.66699 0 8.66699 -1.66699 12 -5s5 -7.33301 5 -12
c0 -11.333 -11.667 -23.333 -35 -36s-52.666 -20 -87.999 -22l-14 -60c32 -0.666992 55.667 -7.83398 71 -21.501s23 -29.834 23 -48.501c0 -19.333 -7.5 -36.166 -22.5 -50.499s-34.833 -21.5 -59.5 -21.5c-15.333 0 -31.5 2.16699 -48.5 6.5s-25.5 10.166 -25.5 17.499
c0 3.33301 1.33301 7.16602 4 11.499s5.33398 6.5 8.00098 6.5l18 -7c12 -4 24.667 -6 38 -6c36.667 0 55 13.667 55 41c0 26.667 -23.333 41.667 -70 45l-29 2l20 85c-54 2.66699 -95 20.5 -123 53.5s-42 75.5 -42 127.5z" />
    <glyph glyph-name="egrave" unicode="&#xe8;" horiz-adv-x="445" 
d="M51 176l-0.00195312 125.001c0 48 17.5 89.5 52.5 124.5s76.833 52.5 125.5 52.5c48 0 89.5 -17.167 124.5 -51.5s52.5 -77.166 52.5 -128.499c0 -17.333 -2 -31.333 -6 -42s-10.667 -18.334 -20 -23.001s-17.833 -7.5 -25.5 -8.5s-18.167 -1.5 -31.5 -1.5h-237v-47
c0 -44.667 15.667 -80.334 47 -107.001s72 -40 122 -40c24.667 0 45.334 3.5 62.001 10.5s29.167 13.833 37.5 20.5s14.5 10 18.5 10c4.66699 0 8.83398 -2 12.501 -6s5.5 -8 5.5 -12c0 -6.66699 -5.33301 -14.5 -16 -23.5s-27 -17 -49 -24s-46.333 -10.5 -73 -10.5
c-59.333 0 -107.833 16.833 -145.5 50.5s-56.5 77.5 -56.5 131.5zM85.998 258.001h224.999c24.667 0 40.834 2.33301 48.501 7s11.5 14.667 11.5 30c0 38 -13.333 72.167 -40 102.5s-60.667 45.5 -102 45.5c-40 0 -73.833 -14.167 -101.5 -42.5s-41.5 -61.5 -41.5 -99.5v-43
zM161.997 676.001c0 12 5.33301 18.001 16 18.001c2 0 4.33301 -0.666992 7 -2l102 -60c5.33301 -2.66699 8 -7 8 -13c0 -4.66699 -1.83301 -8.83398 -5.5 -12.501s-8.16699 -5.5 -13.5 -5.5c-2.66699 0 -5.66699 1 -9 3l-95 54c-6.66699 4 -10 10 -10 18z" />
    <glyph glyph-name="eacute" unicode="&#xe9;" horiz-adv-x="445" 
d="M51 176l-0.00195312 125.001c0 48 17.5 89.5 52.5 124.5s76.833 52.5 125.5 52.5c48 0 89.5 -17.167 124.5 -51.5s52.5 -77.166 52.5 -128.499c0 -17.333 -2 -31.333 -6 -42s-10.667 -18.334 -20 -23.001s-17.833 -7.5 -25.5 -8.5s-18.167 -1.5 -31.5 -1.5h-237v-47
c0 -44.667 15.667 -80.334 47 -107.001s72 -40 122 -40c24.667 0 45.334 3.5 62.001 10.5s29.167 13.833 37.5 20.5s14.5 10 18.5 10c4.66699 0 8.83398 -2 12.501 -6s5.5 -8 5.5 -12c0 -6.66699 -5.33301 -14.5 -16 -23.5s-27 -17 -49 -24s-46.333 -10.5 -73 -10.5
c-59.333 0 -107.833 16.833 -145.5 50.5s-56.5 77.5 -56.5 131.5zM85.998 258.001h224.999c24.667 0 40.834 2.33301 48.501 7s11.5 14.667 11.5 30c0 38 -13.333 72.167 -40 102.5s-60.667 45.5 -102 45.5c-40 0 -73.833 -14.167 -101.5 -42.5s-41.5 -61.5 -41.5 -99.5v-43
zM161.997 619.001c0 6 2.66699 10.332 8 12.999l102 60c2.66699 1.33301 5 2 7 2c10.667 0 16 -6 16 -18c0 -8 -3.33301 -14 -10 -18l-95 -54c-2.66699 -2 -5.66699 -3 -9 -3c-5.33301 0 -9.83301 1.83301 -13.5 5.5s-5.5 7.83398 -5.5 12.501z" />
    <glyph glyph-name="ecircumflex" unicode="&#xea;" horiz-adv-x="445" 
d="M51 176l-0.00195312 125.001c0 48 17.5 89.5 52.5 124.5s76.833 52.5 125.5 52.5c48 0 89.5 -17.167 124.5 -51.5s52.5 -77.166 52.5 -128.499c0 -17.333 -2 -31.333 -6 -42s-10.667 -18.334 -20 -23.001s-17.833 -7.5 -25.5 -8.5s-18.167 -1.5 -31.5 -1.5h-237v-47
c0 -44.667 15.667 -80.334 47 -107.001s72 -40 122 -40c24.667 0 45.334 3.5 62.001 10.5s29.167 13.833 37.5 20.5s14.5 10 18.5 10c4.66699 0 8.83398 -2 12.501 -6s5.5 -8 5.5 -12c0 -6.66699 -5.33301 -14.5 -16 -23.5s-27 -17 -49 -24s-46.333 -10.5 -73 -10.5
c-59.333 0 -107.833 16.833 -145.5 50.5s-56.5 77.5 -56.5 131.5zM85.998 258.001h224.999c24.667 0 40.834 2.33301 48.501 7s11.5 14.667 11.5 30c0 38 -13.333 72.167 -40 102.5s-60.667 45.5 -102 45.5c-40 0 -73.833 -14.167 -101.5 -42.5s-41.5 -61.5 -41.5 -99.5v-43
zM97.9971 619.001c0 6 3.00098 10.668 9.00098 14.001l104 56c5.33301 3.33301 11 5 17 5s11.667 -1.66699 17 -5l104 -55c6 -2.66699 9 -8.33398 9 -17.001c0 -4.66699 -1.66699 -8.5 -5 -11.5s-7.33301 -4.5 -12 -4.5l-9 3l-104 55l-104 -56c-0.666992 0 -2 -0.5 -4 -1.5
s-3.33301 -1.5 -4 -1.5c-4.66699 0 -8.83398 1.83301 -12.501 5.5s-5.5 8.16699 -5.5 13.5z" />
    <glyph glyph-name="edieresis" unicode="&#xeb;" horiz-adv-x="445" 
d="M51 176l-0.00195312 125.001c0 48 17.5 89.5 52.5 124.5s76.833 52.5 125.5 52.5c48 0 89.5 -17.167 124.5 -51.5s52.5 -77.166 52.5 -128.499c0 -17.333 -2 -31.333 -6 -42s-10.667 -18.334 -20 -23.001s-17.833 -7.5 -25.5 -8.5s-18.167 -1.5 -31.5 -1.5h-237v-47
c0 -44.667 15.667 -80.334 47 -107.001s72 -40 122 -40c24.667 0 45.334 3.5 62.001 10.5s29.167 13.833 37.5 20.5s14.5 10 18.5 10c4.66699 0 8.83398 -2 12.501 -6s5.5 -8 5.5 -12c0 -6.66699 -5.33301 -14.5 -16 -23.5s-27 -17 -49 -24s-46.333 -10.5 -73 -10.5
c-59.333 0 -107.833 16.833 -145.5 50.5s-56.5 77.5 -56.5 131.5zM85.998 258.001h224.999c24.667 0 40.834 2.33301 48.501 7s11.5 14.667 11.5 30c0 38 -13.333 72.167 -40 102.5s-60.667 45.5 -102 45.5c-40 0 -73.833 -14.167 -101.5 -42.5s-41.5 -61.5 -41.5 -99.5v-43
zM142.997 630.001c0 8.66699 2.83301 15.667 8.5 21s12.834 8 21.501 8s15.667 -2.66699 21 -8s8 -12.333 8 -21s-2.66699 -15.834 -8 -21.501s-12.333 -8.5 -21 -8.5s-15.834 2.83301 -21.501 8.5s-8.5 12.834 -8.5 21.501zM253.997 630.001
c0 8.66699 2.83301 15.667 8.5 21s12.834 8 21.501 8s15.667 -2.66699 21 -8s8 -12.333 8 -21s-2.66699 -15.834 -8 -21.501s-12.333 -8.5 -21 -8.5s-15.834 2.83301 -21.501 8.5s-8.5 12.834 -8.5 21.501z" />
    <glyph glyph-name="igrave" unicode="&#xec;" horiz-adv-x="171" 
d="M18 676c0 12 5.33301 18.001 16 18.001c2 0 4.33301 -0.666992 7 -2l102 -60c5.33301 -2.66699 8 -7 8 -13c0 -4.66699 -1.83301 -8.83398 -5.5 -12.501s-8.16699 -5.5 -13.5 -5.5c-2.66699 0 -5.66699 1 -9 3l-95 54c-6.66699 4 -10 10 -10 18zM68 18.001
l0.000976562 437c0 4.66699 1.66699 8.66699 5 12s7.33301 5 12 5c12 0 18 -5.66699 18 -17v-437c0 -4.66699 -1.83301 -8.83398 -5.5 -12.501s-7.83398 -5.5 -12.501 -5.5s-8.66699 1.83301 -12 5.5s-5 7.83398 -5 12.501z" />
    <glyph glyph-name="iacute" unicode="&#xed;" horiz-adv-x="171" 
d="M18 619c0 6 2.66699 10.332 8 12.999l102 60c2.66699 1.33301 5 2 7 2c10.667 0 16 -6 16 -18c0 -8 -3.33301 -14 -10 -18l-95 -54c-2.66699 -2 -5.66699 -3 -9 -3c-5.33301 0 -9.83301 1.83301 -13.5 5.5s-5.5 7.83398 -5.5 12.501zM68 17.999l0.000976562 437
c0 4.66699 1.66699 8.66699 5 12s7.33301 5 12 5c12 0 18 -5.66699 18 -17v-437c0 -4.66699 -1.83301 -8.83398 -5.5 -12.501s-7.83398 -5.5 -12.501 -5.5s-8.66699 1.83301 -12 5.5s-5 7.83398 -5 12.501z" />
    <glyph glyph-name="icircumflex" unicode="&#xee;" horiz-adv-x="171" 
d="M-45 619c0 6 3.00098 10.668 9.00098 14.001l104 56c5.33301 3.33301 11 5 17 5s11.667 -1.66699 17 -5l104 -55c6 -2.66699 9 -8.33398 9 -17.001c0 -4.66699 -1.66699 -8.5 -5 -11.5s-7.33301 -4.5 -12 -4.5l-9 3l-104 55l-104 -56c-0.666992 0 -2 -0.5 -4 -1.5
s-3.33301 -1.5 -4 -1.5c-4.66699 0 -8.83398 1.83301 -12.501 5.5s-5.5 8.16699 -5.5 13.5zM68.001 18.001l0.000976562 437c0 4.66699 1.66699 8.66699 5 12s7.33301 5 12 5c12 0 18 -5.66699 18 -17v-437c0 -4.66699 -1.83301 -8.83398 -5.5 -12.501
s-7.83398 -5.5 -12.501 -5.5s-8.66699 1.83301 -12 5.5s-5 7.83398 -5 12.501z" />
    <glyph glyph-name="idieresis" unicode="&#xef;" horiz-adv-x="171" 
d="M1 630c0 8.66699 2.83301 15.667 8.5 21s12.834 8 21.501 8s15.667 -2.66699 21 -8s8 -12.333 8 -21s-2.66699 -15.834 -8 -21.501s-12.333 -8.5 -21 -8.5s-15.834 2.83301 -21.501 8.5s-8.5 12.834 -8.5 21.501zM68 18l0.000976562 437c0 4.66699 1.66699 8.66699 5 12
s7.33301 5 12 5c12 0 18 -5.66699 18 -17v-437c0 -4.66699 -1.83301 -8.83398 -5.5 -12.501s-7.83398 -5.5 -12.501 -5.5s-8.66699 1.83301 -12 5.5s-5 7.83398 -5 12.501zM112.001 630c0 8.66699 2.83301 15.667 8.5 21s12.834 8 21.501 8s15.667 -2.66699 21 -8
s8 -12.333 8 -21s-2.66699 -15.834 -8 -21.501s-12.333 -8.5 -21 -8.5s-15.834 2.83301 -21.501 8.5s-8.5 12.834 -8.5 21.501z" />
    <glyph glyph-name="eth" unicode="&#xf0;" horiz-adv-x="468" 
d="M50 176l-0.00195312 121.999c0 48 17.5 90 52.5 126s76.5 54 124.5 54c30.667 0 60.167 -7.83301 88.5 -23.5s46.5 -36.5 54.5 -62.5c-9.33301 102 -37 184 -83 246l-98 -56c-3.33301 -2 -6.33301 -3 -9 -3c-4.66699 0 -8.66699 2 -12 6s-5 8.33301 -5 13
c0 6.66699 3 11.334 9 14.001l92 53c-42 44 -87.667 66 -137 66c-8 0 -12 5.66699 -12 17c0 13.333 8 20 24 20c54 0 106.333 -28.333 157 -85l80 46c2.66699 1.33301 5 2 7 2c4.66699 0 8.83398 -1.66699 12.501 -5s5.5 -7.33301 5.5 -12c0 -6.66699 -3 -11.667 -9 -15
l-74 -43c58 -78 87 -175 87 -291v-189c0 -48 -17.833 -90.333 -53.5 -127s-77.167 -55 -124.5 -55s-88.666 18.333 -123.999 55s-53 79 -53 127zM84.998 175.999c0 -38 14 -72 42 -102s61.333 -45 100 -45s72.167 15 100.5 45s42.5 64 42.5 102v127
c0 36 -14.167 68.333 -42.5 97s-61.833 43 -100.5 43c-39.333 0 -72.833 -14.833 -100.5 -44.5s-41.5 -63.167 -41.5 -100.5v-122z" />
    <glyph glyph-name="ntilde" unicode="&#xf1;" horiz-adv-x="481" 
d="M68 18l0.000976562 436.999c0 11.333 5.66699 17 17 17c12 0 18 -5.66699 18 -17v-53c28.667 50.667 73.334 76 134.001 76c49.333 0 91.666 -17.667 126.999 -53s53 -77.666 53 -126.999v-280c0 -12 -6 -18 -18 -18c-11.333 0 -17 6 -17 18v280
c0 37.333 -14.167 70.833 -42.5 100.5s-61.5 44.5 -99.5 44.5c-36 0 -67.833 -13.333 -95.5 -40s-41.5 -61.667 -41.5 -105v-280c0 -4.66699 -1.83301 -8.83398 -5.5 -12.501s-7.83398 -5.5 -12.501 -5.5s-8.66699 1.83301 -12 5.5s-5 7.83398 -5 12.501zM90.001 637.999
c0 12.667 10.168 24.501 30.501 35.501s39.833 16.5 58.5 16.5c16 0 36.833 -6.16699 62.5 -18.5s47.167 -18.5 64.5 -18.5c13.333 0 24.166 2.66699 32.499 8s14.833 10.666 19.5 15.999s9 8 13 8c9.33301 0 14 -5 14 -15c0 -14 -9.5 -26 -28.5 -36s-37.5 -15 -55.5 -15
c-15.333 0 -35.833 6.16699 -61.5 18.5s-48.167 18.5 -67.5 18.5c-12.667 0 -23.667 -3 -33 -9s-16.833 -11.833 -22.5 -17.5s-10.167 -8.5 -13.5 -8.5c-8.66699 0 -13 5.66699 -13 17z" />
    <glyph glyph-name="ograve" unicode="&#xf2;" 
d="M50 176l-0.000976562 121.999c0 48 17.5 90 52.5 126s76.5 54 124.5 54s89.667 -17.667 125 -53s53 -77.666 53 -126.999v-122c0 -48 -17.833 -90.333 -53.5 -127s-77.167 -55 -124.5 -55s-88.666 18.333 -123.999 55s-53 79 -53 127zM84.999 175.999
c0 -38 14 -72 42 -102s61.333 -45 100 -45s72.167 15 100.5 45s42.5 64 42.5 102v122c0 37.333 -14 70.833 -42 100.5s-61.667 44.5 -101 44.5s-72.833 -14.833 -100.5 -44.5s-41.5 -63.167 -41.5 -100.5v-122zM160.999 675.999c0 12 5.33301 18.001 16 18.001
c2 0 4.33301 -0.666992 7 -2l102 -60c5.33301 -2.66699 8 -7 8 -13c0 -4.66699 -1.83301 -8.83398 -5.5 -12.501s-8.16699 -5.5 -13.5 -5.5c-3.33301 0 -6.33301 1 -9 3l-95 54c-6.66699 4 -10 10 -10 18z" />
    <glyph glyph-name="oacute" unicode="&#xf3;" 
d="M50 176l-0.000976562 121.999c0 48 17.5 90 52.5 126s76.5 54 124.5 54s89.667 -17.667 125 -53s53 -77.666 53 -126.999v-122c0 -48 -17.833 -90.333 -53.5 -127s-77.167 -55 -124.5 -55s-88.666 18.333 -123.999 55s-53 79 -53 127zM84.999 175.999
c0 -38 14 -72 42 -102s61.333 -45 100 -45s72.167 15 100.5 45s42.5 64 42.5 102v122c0 37.333 -14 70.833 -42 100.5s-61.667 44.5 -101 44.5s-72.833 -14.833 -100.5 -44.5s-41.5 -63.167 -41.5 -100.5v-122zM160.999 618.999c0 6 2.66699 10.332 8 12.999l102 60
c2.66699 1.33301 5 2 7 2c10.667 0 16 -6 16 -18c0 -8 -3.33301 -14 -10 -18l-95 -54c-3.33301 -2 -6.33301 -3 -9 -3c-5.33301 0 -9.83301 1.83301 -13.5 5.5s-5.5 7.83398 -5.5 12.501z" />
    <glyph glyph-name="ocircumflex" unicode="&#xf4;" 
d="M50 176l-0.000976562 121.999c0 48 17.5 90 52.5 126s76.5 54 124.5 54s89.667 -17.667 125 -53s53 -77.666 53 -126.999v-122c0 -48 -17.833 -90.333 -53.5 -127s-77.167 -55 -124.5 -55s-88.666 18.333 -123.999 55s-53 79 -53 127zM84.999 175.999
c0 -38 14 -72 42 -102s61.333 -45 100 -45s72.167 15 100.5 45s42.5 64 42.5 102v122c0 37.333 -14 70.833 -42 100.5s-61.667 44.5 -101 44.5s-72.833 -14.833 -100.5 -44.5s-41.5 -63.167 -41.5 -100.5v-122zM96.999 618.999c0 6 3.00098 10.668 9.00098 14.001l104 56
c5.33301 3.33301 11 5 17 5s11.667 -1.66699 17 -5l104 -55c6 -2.66699 9 -8.33398 9 -17.001c0 -4.66699 -1.66699 -8.5 -5 -11.5s-7.33301 -4.5 -12 -4.5l-9 3l-104 55l-104 -56c-0.666992 0 -2 -0.5 -4 -1.5s-3.33301 -1.5 -4 -1.5
c-4.66699 0 -8.83398 1.83301 -12.501 5.5s-5.5 8.16699 -5.5 13.5z" />
    <glyph glyph-name="otilde" unicode="&#xf5;" 
d="M50 176l-0.000976562 121.999c0 48 17.5 90 52.5 126s76.5 54 124.5 54s89.667 -17.667 125 -53s53 -77.666 53 -126.999v-122c0 -48 -17.833 -90.333 -53.5 -127s-77.167 -55 -124.5 -55s-88.666 18.333 -123.999 55s-53 79 -53 127zM79.999 637.999
c0 12.667 10.168 24.501 30.501 35.501s39.833 16.5 58.5 16.5c16 0 36.833 -6.16699 62.5 -18.5s47.167 -18.5 64.5 -18.5c13.333 0 24.166 2.66699 32.499 8s14.833 10.666 19.5 15.999s9 8 13 8c9.33301 0 14 -5 14 -15c0 -14 -9.5 -26 -28.5 -36s-37.5 -15 -55.5 -15
c-15.333 0 -35.833 6.16699 -61.5 18.5s-48.167 18.5 -67.5 18.5c-12.667 0 -23.667 -3 -33 -9s-16.833 -11.833 -22.5 -17.5s-10.167 -8.5 -13.5 -8.5c-8.66699 0 -13 5.66699 -13 17zM85 176c0 -38 14 -72 42 -102s61.333 -45 100 -45s72.167 15 100.5 45
s42.5 64 42.5 102v122c0 37.333 -14 70.833 -42 100.5s-61.667 44.5 -101 44.5s-72.833 -14.833 -100.5 -44.5s-41.5 -63.167 -41.5 -100.5v-122z" />
    <glyph glyph-name="odieresis" unicode="&#xf6;" 
d="M50 176l-0.000976562 121.999c0 48 17.5 90 52.5 126s76.5 54 124.5 54s89.667 -17.667 125 -53s53 -77.666 53 -126.999v-122c0 -48 -17.833 -90.333 -53.5 -127s-77.167 -55 -124.5 -55s-88.666 18.333 -123.999 55s-53 79 -53 127zM84.999 175.999
c0 -38 14 -72 42 -102s61.333 -45 100 -45s72.167 15 100.5 45s42.5 64 42.5 102v122c0 37.333 -14 70.833 -42 100.5s-61.667 44.5 -101 44.5s-72.833 -14.833 -100.5 -44.5s-41.5 -63.167 -41.5 -100.5v-122zM141.999 629.999c0 8.66699 2.83301 15.667 8.5 21
s12.834 8 21.501 8s15.667 -2.66699 21 -8s8 -12.333 8 -21s-2.66699 -15.834 -8 -21.501s-12.333 -8.5 -21 -8.5s-15.834 2.83301 -21.501 8.5s-8.5 12.834 -8.5 21.501zM252.999 629.999c0 8.66699 2.83301 15.667 8.5 21s12.834 8 21.501 8s15.667 -2.66699 21 -8
s8 -12.333 8 -21s-2.66699 -15.834 -8 -21.501s-12.333 -8.5 -21 -8.5s-15.834 2.83301 -21.501 8.5s-8.5 12.834 -8.5 21.501z" />
    <glyph glyph-name="divide" unicode="&#xf7;" horiz-adv-x="461" 
d="M53 240c0 12 5.66699 18.001 17 18.001h320c4.66699 0 8.83398 -1.83301 12.501 -5.5s5.5 -7.83398 5.5 -12.501s-1.83301 -8.66699 -5.5 -12s-7.83398 -5 -12.501 -5h-320c-11.333 0 -17 5.66699 -17 17zM183 80.001c0 11.333 4.33301 21.333 13 30s19 13 31 13
c11.333 0 21.333 -4.33301 30 -13s13 -18.667 13 -30s-4.33301 -21.333 -13 -30s-18.667 -13 -30 -13c-12 0 -22.333 4.33301 -31 13s-13 18.667 -13 30zM183 401.001c0 11.333 4.33301 21.333 13 30s19 13 31 13c11.333 0 21.333 -4.33301 30 -13s13 -18.667 13 -30
s-4.33301 -21.333 -13 -30s-18.667 -13 -30 -13c-12 0 -22.333 4.33301 -31 13s-13 18.667 -13 30z" />
    <glyph glyph-name="oslash" unicode="&#xf8;" 
d="M50 176v121.999c0 48 17.5 90 52.5 126s76.5 54 124.5 54c31.333 0 61 -8.33301 89 -25l25 48c2.66699 5.33301 7 8 13 8c4 0 8 -1.83301 12 -5.5s6 -8.16699 6 -13.5c0 -3.33301 -1 -7 -3 -11l-25 -47c40.667 -36 61 -80.667 61 -134v-122
c0 -48 -17.833 -90.333 -53.5 -127s-77.167 -55 -124.5 -55c-32.667 0 -63.667 9.66699 -93 29l-23 -44c-3.33301 -7.33301 -9 -11 -17 -11c-10.667 0 -16 5 -16 15c0 4 0.666992 7 2 9l27 53c-38 36.667 -57 80.334 -57 131.001zM85 175.999
c0 -37.333 12.667 -70.333 38 -99l177 344c-22 14.667 -46.333 22 -73 22c-39.333 0 -72.833 -14.833 -100.5 -44.5s-41.5 -63.167 -41.5 -100.5v-122zM149 53.999c22.667 -16.667 48.667 -25.001 78 -25.001c38.667 0 72.167 15 100.5 45s42.5 64 42.5 102v122
c0 38.667 -14.333 72.334 -43 101.001z" />
    <glyph glyph-name="ugrave" unicode="&#xf9;" horiz-adv-x="483" 
d="M64 174l-0.00195312 280c0 4.66699 1.83301 8.83398 5.5 12.501s7.83398 5.5 12.501 5.5s8.66699 -1.83301 12 -5.5s5 -7.83398 5 -12.501v-280c0 -38 14 -71.667 42 -101s61.667 -44 101 -44c38.667 0 72 14.667 100 44s42 63 42 101v281
c0 4.66699 1.83301 8.66699 5.5 12s7.83398 5 12.501 5s8.66699 -1.66699 12 -5s5 -7.33301 5 -12v-281c0 -48 -17.5 -90 -52.5 -126s-76.5 -54 -124.5 -54c-48.667 0 -90.5 18 -125.5 54s-52.5 78 -52.5 126zM174.998 676c0 12 5.33301 18.001 16 18.001
c2 0 4.33301 -0.666992 7 -2l102 -60c5.33301 -2.66699 8 -7 8 -13c0 -4.66699 -1.83301 -8.83398 -5.5 -12.501s-8.16699 -5.5 -13.5 -5.5c-3.33301 0 -6.33301 1 -9 3l-95 54c-6.66699 4 -10 10 -10 18z" />
    <glyph glyph-name="uacute" unicode="&#xfa;" horiz-adv-x="483" 
d="M64 174l-0.00195312 280c0 4.66699 1.83301 8.83398 5.5 12.501s7.83398 5.5 12.501 5.5s8.66699 -1.83301 12 -5.5s5 -7.83398 5 -12.501v-280c0 -38 14 -71.667 42 -101s61.667 -44 101 -44c38.667 0 72 14.667 100 44s42 63 42 101v281
c0 4.66699 1.83301 8.66699 5.5 12s7.83398 5 12.501 5s8.66699 -1.66699 12 -5s5 -7.33301 5 -12v-281c0 -48 -17.5 -90 -52.5 -126s-76.5 -54 -124.5 -54c-48.667 0 -90.5 18 -125.5 54s-52.5 78 -52.5 126zM174.998 619c0 6 2.66699 10.332 8 12.999l102 60
c2.66699 1.33301 5 2 7 2c10.667 0 16 -6 16 -18c0 -8 -3.33301 -14 -10 -18l-95 -54c-3.33301 -2 -6.33301 -3 -9 -3c-5.33301 0 -9.83301 1.83301 -13.5 5.5s-5.5 7.83398 -5.5 12.501z" />
    <glyph glyph-name="ucircumflex" unicode="&#xfb;" horiz-adv-x="483" 
d="M64 174l-0.00195312 280c0 4.66699 1.83301 8.83398 5.5 12.501s7.83398 5.5 12.501 5.5s8.66699 -1.83301 12 -5.5s5 -7.83398 5 -12.501v-280c0 -38 14 -71.667 42 -101s61.667 -44 101 -44c38.667 0 72 14.667 100 44s42 63 42 101v281
c0 4.66699 1.83301 8.66699 5.5 12s7.83398 5 12.501 5s8.66699 -1.66699 12 -5s5 -7.33301 5 -12v-281c0 -48 -17.5 -90 -52.5 -126s-76.5 -54 -124.5 -54c-48.667 0 -90.5 18 -125.5 54s-52.5 78 -52.5 126zM110.998 619c0 6 3.00098 10.668 9.00098 14.001l104 56
c5.33301 3.33301 11 5 17 5s11.667 -1.66699 17 -5l104 -55c6 -2.66699 9 -8.33398 9 -17.001c0 -4.66699 -1.66699 -8.5 -5 -11.5s-7.33301 -4.5 -12 -4.5l-9 3l-104 55l-104 -56c-0.666992 0 -2 -0.5 -4 -1.5s-3.33301 -1.5 -4 -1.5
c-4.66699 0 -8.83398 1.83301 -12.501 5.5s-5.5 8.16699 -5.5 13.5z" />
    <glyph glyph-name="udieresis" unicode="&#xfc;" horiz-adv-x="483" 
d="M64 174l-0.00195312 280c0 4.66699 1.83301 8.83398 5.5 12.501s7.83398 5.5 12.501 5.5s8.66699 -1.83301 12 -5.5s5 -7.83398 5 -12.501v-280c0 -38 14 -71.667 42 -101s61.667 -44 101 -44c38.667 0 72 14.667 100 44s42 63 42 101v281
c0 4.66699 1.83301 8.66699 5.5 12s7.83398 5 12.501 5s8.66699 -1.66699 12 -5s5 -7.33301 5 -12v-281c0 -48 -17.5 -90 -52.5 -126s-76.5 -54 -124.5 -54c-48.667 0 -90.5 18 -125.5 54s-52.5 78 -52.5 126zM155.998 630c0 8.66699 2.83301 15.667 8.5 21
s12.834 8 21.501 8s15.667 -2.66699 21 -8s8 -12.333 8 -21s-2.66699 -15.834 -8 -21.501s-12.333 -8.5 -21 -8.5s-15.834 2.83301 -21.501 8.5s-8.5 12.834 -8.5 21.501zM266.998 630c0 8.66699 2.83301 15.667 8.5 21s12.834 8 21.501 8s15.667 -2.66699 21 -8
s8 -12.333 8 -21s-2.66699 -15.834 -8 -21.501s-12.333 -8.5 -21 -8.5s-15.834 2.83301 -21.501 8.5s-8.5 12.834 -8.5 21.501z" />
    <glyph glyph-name="yacute" unicode="&#xfd;" horiz-adv-x="395" 
d="M18 461c0 4.66699 1.83398 8.66895 5.50098 12.002s8.16699 5 13.5 5c8.66699 0 14 -3.66699 16 -11l145 -400l144 400c3.33301 7.33301 8.66602 11 15.999 11c12 0 18 -5.66699 18 -17c0 -2.66699 -0.333008 -4.66699 -1 -6l-160 -442l-20 -55
c-4 -10.667 -11.167 -28.334 -21.5 -53.001s-19.666 -43.334 -27.999 -56.001s-18.333 -26.667 -30 -42s-24.167 -26.5 -37.5 -33.5s-27.333 -10.5 -42 -10.5c-4.66699 0 -8.66699 1.66699 -12 5s-5 7.33301 -5 12c0 12 5 18 15 18c11.333 0 22.333 2.66699 33 8
s20.667 14.5 30 27.5s17.166 24.5 23.499 34.5s14 26 23 48l18.5 46l18 51l-160 442c-1.33301 2.66699 -2 4.66699 -2 6zM130.001 619.002c0 6 2.66699 10.332 8 12.999l102 60c2.66699 1.33301 5 2 7 2c10.667 0 16 -6 16 -18c0 -8 -3.33301 -14 -10 -18l-95 -54
c-2.66699 -2 -5.66699 -3 -9 -3c-5.33301 0 -9.83301 1.83301 -13.5 5.5s-5.5 7.83398 -5.5 12.501z" />
    <glyph glyph-name="thorn" unicode="&#xfe;" horiz-adv-x="468" 
d="M69 -219l0.000976562 969.999c0 11.333 5.66699 17 17 17c12 0 18 -5.66699 18 -17v-349c28.667 50.667 73.334 76 134.001 76c49.333 0 91.666 -17.667 126.999 -53s53 -77.666 53 -126.999v-122c0 -48 -17.833 -90.333 -53.5 -127s-77.167 -55 -124.5 -55
c-29.333 0 -56.5 7.33301 -81.5 22s-43.167 32.667 -54.5 54v-289c0 -4.66699 -1.83301 -8.83398 -5.5 -12.501s-7.83398 -5.5 -12.501 -5.5s-8.66699 1.83301 -12 5.5s-5 7.83398 -5 12.501zM104.001 138.999c0 -20.667 14.001 -44.167 42.001 -70.5s60 -39.5 96 -39.5
c37.333 0 70.166 15 98.499 45s42.5 64 42.5 102v122c0 37.333 -14.167 70.833 -42.5 100.5s-61.5 44.5 -99.5 44.5c-36 0 -67.833 -13.333 -95.5 -40s-41.5 -61.667 -41.5 -105v-159z" />
    <glyph glyph-name="ydieresis" unicode="&#xff;" horiz-adv-x="395" 
d="M18 461c0 4.66699 1.83398 8.66895 5.50098 12.002s8.16699 5 13.5 5c8.66699 0 14 -3.66699 16 -11l145 -400l144 400c3.33301 7.33301 8.66602 11 15.999 11c12 0 18 -5.66699 18 -17c0 -2.66699 -0.333008 -4.66699 -1 -6l-160 -442l-20 -55
c-4 -10.667 -11.167 -28.334 -21.5 -53.001s-19.666 -43.334 -27.999 -56.001s-18.333 -26.667 -30 -42s-24.167 -26.5 -37.5 -33.5s-27.333 -10.5 -42 -10.5c-4.66699 0 -8.66699 1.66699 -12 5s-5 7.33301 -5 12c0 12 5 18 15 18c11.333 0 22.333 2.66699 33 8
s20.667 14.5 30 27.5s17.166 24.5 23.499 34.5s14 26 23 48l18.5 46l18 51l-160 442c-1.33301 2.66699 -2 4.66699 -2 6zM112.001 630.002c0 8.66699 2.83301 15.667 8.5 21s12.834 8 21.501 8s15.667 -2.66699 21 -8s8 -12.333 8 -21s-2.66699 -15.834 -8 -21.501
s-12.333 -8.5 -21 -8.5s-15.834 2.83301 -21.501 8.5s-8.5 12.834 -8.5 21.501zM223.001 630.002c0 8.66699 2.83301 15.667 8.5 21s12.834 8 21.501 8s15.667 -2.66699 21 -8s8 -12.333 8 -21s-2.66699 -15.834 -8 -21.501s-12.333 -8.5 -21 -8.5
s-15.834 2.83301 -21.501 8.5s-8.5 12.834 -8.5 21.501z" />
    <glyph glyph-name="Amacron" unicode="&#x100;" horiz-adv-x="521" 
d="M25 16c0 2.66699 0.333984 4.66699 1.00098 6l217 701c2.66699 9.33301 8.66699 14 18 14s15.666 -4.66699 18.999 -14l215 -701c0 -0.666992 0.166992 -1.5 0.5 -2.5s0.5 -1.83301 0.5 -2.5c0 -4.66699 -2 -8.66699 -6 -12s-8.66699 -5 -14 -5
c-8 -0 -13.333 4.33301 -16 13l-51 164h-298l-50 -164c-2.66699 -8.66699 -8.66699 -13 -18 -13c-12 -0 -18 5.33301 -18 16zM122.001 213h276l-137 448zM133.001 923c0 12 5.66699 18.001 17 18.001h220c4.66699 0 8.83398 -1.83301 12.501 -5.5s5.5 -7.83398 5.5 -12.501
s-1.83301 -8.66699 -5.5 -12s-7.83398 -5 -12.501 -5h-220c-11.333 0 -17 5.66699 -17 17z" />
    <glyph glyph-name="amacron" unicode="&#x101;" horiz-adv-x="423" 
d="M35 126c0 50 19.834 84.501 59.501 103.501s97.5 28.5 173.5 28.5h56v28c0 42.667 -11 79.5 -33 110.5s-55 46.5 -99 46.5c-18 0 -34.833 -2.16699 -50.5 -6.5s-27.834 -8.83301 -36.501 -13.5s-14.334 -7 -17.001 -7c-5.33301 0 -9.66602 2.33301 -12.999 7s-5 9 -5 13
c0 10 13.167 19.5 39.5 28.5s54.5 13.5 84.5 13.5c57.333 0 99.166 -18.167 125.499 -54.5s39.5 -82.166 39.5 -137.499v-268c0 -12 -5.66699 -18 -17 -18c-5.33301 0 -9.66602 1.66699 -12.999 5s-5 7.66602 -5 12.999v52c-44 -50.667 -94 -76 -150 -76
c-41.333 0 -74.833 11.167 -100.5 33.5s-38.5 55.166 -38.5 98.499zM70.001 126.001c0 -32 9.5 -56.166 28.5 -72.499s43.833 -24.5 74.5 -24.5c36 0 70.167 12.667 102.5 38s48.5 49.333 48.5 72v84h-55c-30 0 -55.167 -1 -75.5 -3s-40.833 -6.16699 -61.5 -12.5
s-36.167 -16.333 -46.5 -30s-15.5 -30.834 -15.5 -51.501zM79.001 664.002c0 12 5.66699 18.001 17 18.001h220c4.66699 0 8.83398 -1.83301 12.501 -5.5s5.5 -7.83398 5.5 -12.501s-1.83301 -8.66699 -5.5 -12s-7.83398 -5 -12.501 -5h-220c-11.333 0 -17 5.66699 -17 17z
" />
    <glyph glyph-name="Abreve" unicode="&#x102;" horiz-adv-x="521" 
d="M25 16c0 2.66699 0.333984 4.66699 1.00098 6l217 701c2.66699 9.33301 8.66699 14 18 14s15.666 -4.66699 18.999 -14l215 -701c0 -0.666992 0.166992 -1.5 0.5 -2.5s0.5 -1.83301 0.5 -2.5c0 -4.66699 -2 -8.66699 -6 -12s-8.66699 -5 -14 -5
c-8 -0 -13.333 4.33301 -16 13l-51 164h-298l-50 -164c-2.66699 -8.66699 -8.66699 -13 -18 -13c-12 -0 -18 5.33301 -18 16zM122.001 213h276l-137 448zM151.001 969h32c0 -22.667 7.5 -42.167 22.5 -58.5s33.167 -24.5 54.5 -24.5c20.667 0 38.5 8.16699 53.5 24.5
s22.5 35.833 22.5 58.5h33c0 -29.333 -11 -54.833 -33 -76.5s-47.333 -32.5 -76 -32.5c-29.333 0 -54.833 10.833 -76.5 32.5s-32.5 47.167 -32.5 76.5z" />
    <glyph glyph-name="abreve" unicode="&#x103;" horiz-adv-x="423" 
d="M35 126c0 50 19.834 84.501 59.501 103.501s97.5 28.5 173.5 28.5h56v28c0 42.667 -11 79.5 -33 110.5s-55 46.5 -99 46.5c-18 0 -34.833 -2.16699 -50.5 -6.5s-27.834 -8.83301 -36.501 -13.5s-14.334 -7 -17.001 -7c-5.33301 0 -9.66602 2.33301 -12.999 7s-5 9 -5 13
c0 10 13.167 19.5 39.5 28.5s54.5 13.5 84.5 13.5c57.333 0 99.166 -18.167 125.499 -54.5s39.5 -82.166 39.5 -137.499v-268c0 -12 -5.66699 -18 -17 -18c-5.33301 0 -9.66602 1.66699 -12.999 5s-5 7.66602 -5 12.999v52c-44 -50.667 -94 -76 -150 -76
c-41.333 0 -74.833 11.167 -100.5 33.5s-38.5 55.166 -38.5 98.499zM70.001 126.001c0 -32 9.5 -56.166 28.5 -72.499s43.833 -24.5 74.5 -24.5c36 0 70.167 12.667 102.5 38s48.5 49.333 48.5 72v84h-55c-30 0 -55.167 -1 -75.5 -3s-40.833 -6.16699 -61.5 -12.5
s-36.167 -16.333 -46.5 -30s-15.5 -30.834 -15.5 -51.501zM98.001 710.002h32c0 -22.667 7.5 -42.167 22.5 -58.5s33.167 -24.5 54.5 -24.5c20.667 0 38.5 8.16699 53.5 24.5s22.5 35.833 22.5 58.5h33c0 -29.333 -11 -54.833 -33 -76.5s-47.333 -32.5 -76 -32.5
c-29.333 0 -54.833 10.833 -76.5 32.5s-32.5 47.167 -32.5 76.5z" />
    <glyph glyph-name="Aogonek" unicode="&#x104;" horiz-adv-x="521" 
d="M25 16c0 2.66699 0.334961 4.66797 1.00195 6.00098l217 701c2.66699 9.33301 8.66699 14 18 14s15.666 -4.66699 18.999 -14l215 -701c0 -0.666992 0.166992 -1.5 0.5 -2.5s0.5 -1.83301 0.5 -2.5c0 -6 -3.66699 -11 -11 -15c-24 -23.333 -42 -44.5 -54 -63.5
s-18 -40.5 -18 -64.5c0 -28.667 21 -43 63 -43c12 0 18 -4.33301 18 -13s-7.66699 -13 -23 -13c-22.667 0 -42.834 5.16699 -60.501 15.5s-26.5 27.5 -26.5 51.5c0 49.333 24.667 97.666 74 144.999l-49 160h-298l-50 -164c-2.66699 -8.66699 -8.66699 -13 -18 -13
c-12 -0 -18 5.33301 -18 16zM122.002 213.001h276l-137 448z" />
    <glyph glyph-name="aogonek" unicode="&#x105;" horiz-adv-x="423" 
d="M35 126c0 50 19.8359 84.499 59.5029 103.499s97.5 28.5 173.5 28.5h56v28c0 42.667 -11 79.5 -33 110.5s-55 46.5 -99 46.5c-18 0 -34.833 -2.16699 -50.5 -6.5s-27.834 -8.83301 -36.501 -13.5s-14.334 -7 -17.001 -7c-5.33301 0 -9.66602 2.33301 -12.999 7
s-5 9 -5 13c0 10 13.167 19.5 39.5 28.5s54.5 13.5 84.5 13.5c57.333 0 99.166 -18.167 125.499 -54.5s39.5 -82.166 39.5 -137.499v-268c0 -7.33301 -3 -12.666 -9 -15.999c-24 -23.333 -42 -44.5 -54 -63.5s-18 -40.5 -18 -64.5c0 -28.667 21 -43 63 -43
c12 0 18 -4.33301 18 -13s-7.66699 -13 -23 -13c-22.667 0 -42.834 5.16699 -60.501 15.5s-26.5 27.5 -26.5 51.5c0 49.333 25 98 75 146v52c-44 -50.667 -94 -76 -150 -76c-41.333 0 -74.833 11.167 -100.5 33.5s-38.5 55.166 -38.5 98.499zM70.0029 125.999
c0 -32 9.5 -56.166 28.5 -72.499s43.833 -24.5 74.5 -24.5c36 0 70.167 12.667 102.5 38s48.5 49.333 48.5 72v84h-55c-30 0 -55.167 -1 -75.5 -3s-40.833 -6.16699 -61.5 -12.5s-36.167 -16.333 -46.5 -30s-15.5 -30.834 -15.5 -51.501z" />
    <glyph glyph-name="Cacute" unicode="&#x106;" horiz-adv-x="512" 
d="M76 200l0.000976562 324.998c0 70.667 18.5 122.667 55.5 156s84.833 50 143.5 50c60.667 0 107.834 -15.5 141.501 -46.5s50.5 -67.833 50.5 -110.5c0 -18.667 -6 -28 -18 -28s-18 6 -18 18c-0.666992 14.667 -3.33398 28.5 -8.00098 41.5s-12.167 26.833 -22.5 41.5
s-26.333 26.334 -48 35.001s-47.834 13 -78.501 13c-108 0 -162 -56.667 -162 -170v-325c0 -113.333 55.333 -170 166 -170c25.333 0 47.333 3.16699 66 9.5s32.834 13.333 42.501 21s18 18.5 25 32.5s11.5 25.167 13.5 33.5s4 19.833 6 34.5c1.33301 12 7.33301 18 18 18
c12 0 18 -9.66699 18 -29c0 -41.333 -17.333 -77.666 -52 -108.999s-82.334 -47 -143.001 -47c-58 0 -105.167 16.667 -141.5 50s-54.5 85.333 -54.5 156zM205.001 877.998c0 6 2.66699 10.332 8 12.999l102 60c2.66699 1.33301 5 2 7 2c10.667 0 16 -6 16 -18
c0 -8 -3.33301 -14 -10 -18l-95 -54c-3.33301 -2 -6.33301 -3 -9 -3c-5.33301 0 -9.83301 1.83301 -13.5 5.5s-5.5 7.83398 -5.5 12.501z" />
    <glyph glyph-name="cacute" unicode="&#x107;" horiz-adv-x="402" 
d="M52 176v120c0 54 15.5 97.833 46.5 131.5s76.5 50.5 136.5 50.5c36.667 0 67.667 -6.83301 93 -20.5s38 -26.5 38 -38.5c0 -4.66699 -1.83301 -8.66699 -5.5 -12s-7.83398 -5 -12.501 -5c-3.33301 0 -9.16602 3.33301 -17.499 10s-20.5 13.5 -36.5 20.5
s-35.667 10.5 -59 10.5c-47.333 0 -83.833 -13 -109.5 -39s-38.5 -62 -38.5 -108v-120c0 -46 12.833 -82 38.5 -108s62.5 -39 110.5 -39c24.667 0 45.5 3.5 62.5 10.5s29.667 13.833 38 20.5s14.5 10 18.5 10c4.66699 0 8.66699 -1.66699 12 -5s5 -7.33301 5 -12
c0 -12.667 -13.167 -25.667 -39.5 -39s-58.833 -20 -97.5 -20c-60 0 -105.5 16.667 -136.5 50s-46.5 77.333 -46.5 132zM145 619c0 6 2.66699 10.332 8 12.999l102 60c2.66699 1.33301 5 2 7 2c10.667 0 16 -6 16 -18c0 -8 -3.33301 -14 -10 -18l-95 -54
c-3.33301 -2 -6.33301 -3 -9 -3c-5.33301 0 -9.83301 1.83301 -13.5 5.5s-5.5 7.83398 -5.5 12.501z" />
    <glyph glyph-name="Ccircumflex" unicode="&#x108;" horiz-adv-x="512" 
d="M76 200l0.000976562 324.998c0 70.667 18.5 122.667 55.5 156s84.833 50 143.5 50c60.667 0 107.834 -15.5 141.501 -46.5s50.5 -67.833 50.5 -110.5c0 -18.667 -6 -28 -18 -28s-18 6 -18 18c-0.666992 14.667 -3.33398 28.5 -8.00098 41.5s-12.167 26.833 -22.5 41.5
s-26.333 26.334 -48 35.001s-47.834 13 -78.501 13c-108 0 -162 -56.667 -162 -170v-325c0 -113.333 55.333 -170 166 -170c25.333 0 47.333 3.16699 66 9.5s32.834 13.333 42.501 21s18 18.5 25 32.5s11.5 25.167 13.5 33.5s4 19.833 6 34.5c1.33301 12 7.33301 18 18 18
c12 0 18 -9.66699 18 -29c0 -41.333 -17.333 -77.666 -52 -108.999s-82.334 -47 -143.001 -47c-58 0 -105.167 16.667 -141.5 50s-54.5 85.333 -54.5 156zM141.001 877.998c0 6.66699 3.00098 11.333 9.00098 14l104 56c5.33301 3.33301 11 5 17 5s11.667 -1.66699 17 -5
l104 -55c6 -3.33301 9 -9 9 -17c0 -4.66699 -1.66699 -8.5 -5 -11.5s-7.33301 -4.5 -12 -4.5l-9 3l-104 55l-104 -56c-0.666992 0 -2 -0.5 -4 -1.5s-3.33301 -1.5 -4 -1.5c-4.66699 0 -8.83398 1.83301 -12.501 5.5s-5.5 8.16699 -5.5 13.5z" />
    <glyph glyph-name="ccircumflex" unicode="&#x109;" horiz-adv-x="402" 
d="M52 176v120c0 54 15.5 97.833 46.5 131.5s76.5 50.5 136.5 50.5c36.667 0 67.667 -6.83301 93 -20.5s38 -26.5 38 -38.5c0 -4.66699 -1.83301 -8.66699 -5.5 -12s-7.83398 -5 -12.501 -5c-3.33301 0 -9.16602 3.33301 -17.499 10s-20.5 13.5 -36.5 20.5
s-35.667 10.5 -59 10.5c-47.333 0 -83.833 -13 -109.5 -39s-38.5 -62 -38.5 -108v-120c0 -46 12.833 -82 38.5 -108s62.5 -39 110.5 -39c24.667 0 45.5 3.5 62.5 10.5s29.667 13.833 38 20.5s14.5 10 18.5 10c4.66699 0 8.66699 -1.66699 12 -5s5 -7.33301 5 -12
c0 -12.667 -13.167 -25.667 -39.5 -39s-58.833 -20 -97.5 -20c-60 0 -105.5 16.667 -136.5 50s-46.5 77.333 -46.5 132zM82 619c0 6 3.00098 10.668 9.00098 14.001l104 56c5.33301 3.33301 11 5 17 5s11.667 -1.66699 17 -5l104 -55c6 -2.66699 9 -8.33398 9 -17.001
c0 -4.66699 -1.66699 -8.5 -5 -11.5s-7.33301 -4.5 -12 -4.5l-9 3l-104 55l-104 -56c-0.666992 0 -2 -0.5 -4 -1.5s-3.33301 -1.5 -4 -1.5c-4.66699 0 -8.83398 1.83301 -12.501 5.5s-5.5 8.16699 -5.5 13.5z" />
    <glyph glyph-name="Cdotaccent" unicode="&#x10a;" horiz-adv-x="512" 
d="M76 200l0.000976562 324.998c0 70.667 18.5 122.667 55.5 156s84.833 50 143.5 50c60.667 0 107.834 -15.5 141.501 -46.5s50.5 -67.833 50.5 -110.5c0 -18.667 -6 -28 -18 -28s-18 6 -18 18c-0.666992 14.667 -3.33398 28.5 -8.00098 41.5s-12.167 26.833 -22.5 41.5
s-26.333 26.334 -48 35.001s-47.834 13 -78.501 13c-108 0 -162 -56.667 -162 -170v-325c0 -113.333 55.333 -170 166 -170c25.333 0 47.333 3.16699 66 9.5s32.834 13.333 42.501 21s18 18.5 25 32.5s11.5 25.167 13.5 33.5s4 19.833 6 34.5c1.33301 12 7.33301 18 18 18
c12 0 18 -9.66699 18 -29c0 -41.333 -17.333 -77.666 -52 -108.999s-82.334 -47 -143.001 -47c-58 0 -105.167 16.667 -141.5 50s-54.5 85.333 -54.5 156zM242.001 888.998c0 8.66699 2.83301 15.667 8.5 21s12.834 8 21.501 8s15.667 -2.66699 21 -8s8 -12.333 8 -21
s-2.66699 -15.834 -8 -21.501s-12.333 -8.5 -21 -8.5s-15.834 2.83301 -21.501 8.5s-8.5 12.834 -8.5 21.501z" />
    <glyph glyph-name="cdotaccent" unicode="&#x10b;" horiz-adv-x="402" 
d="M52 176v120c0 54 15.5 97.833 46.5 131.5s76.5 50.5 136.5 50.5c36.667 0 67.667 -6.83301 93 -20.5s38 -26.5 38 -38.5c0 -4.66699 -1.83301 -8.66699 -5.5 -12s-7.83398 -5 -12.501 -5c-3.33301 0 -9.16602 3.33301 -17.499 10s-20.5 13.5 -36.5 20.5
s-35.667 10.5 -59 10.5c-47.333 0 -83.833 -13 -109.5 -39s-38.5 -62 -38.5 -108v-120c0 -46 12.833 -82 38.5 -108s62.5 -39 110.5 -39c24.667 0 45.5 3.5 62.5 10.5s29.667 13.833 38 20.5s14.5 10 18.5 10c4.66699 0 8.66699 -1.66699 12 -5s5 -7.33301 5 -12
c0 -12.667 -13.167 -25.667 -39.5 -39s-58.833 -20 -97.5 -20c-60 0 -105.5 16.667 -136.5 50s-46.5 77.333 -46.5 132zM182 630c0 8.66699 2.83301 15.667 8.5 21s12.834 8 21.501 8s15.667 -2.66699 21 -8s8 -12.333 8 -21s-2.66699 -15.834 -8 -21.501
s-12.333 -8.5 -21 -8.5s-15.834 2.83301 -21.501 8.5s-8.5 12.834 -8.5 21.501z" />
    <glyph glyph-name="Ccaron" unicode="&#x10c;" horiz-adv-x="512" 
d="M76 200l0.000976562 324.998c0 70.667 18.5 122.667 55.5 156s84.833 50 143.5 50c60.667 0 107.834 -15.5 141.501 -46.5s50.5 -67.833 50.5 -110.5c0 -18.667 -6 -28 -18 -28s-18 6 -18 18c-0.666992 14.667 -3.33398 28.5 -8.00098 41.5s-12.167 26.833 -22.5 41.5
s-26.333 26.334 -48 35.001s-47.834 13 -78.501 13c-108 0 -162 -56.667 -162 -170v-325c0 -113.333 55.333 -170 166 -170c25.333 0 47.333 3.16699 66 9.5s32.834 13.333 42.501 21s18 18.5 25 32.5s11.5 25.167 13.5 33.5s4 19.833 6 34.5c1.33301 12 7.33301 18 18 18
c12 0 18 -9.66699 18 -29c0 -41.333 -17.333 -77.666 -52 -108.999s-82.334 -47 -143.001 -47c-58 0 -105.167 16.667 -141.5 50s-54.5 85.333 -54.5 156zM141.001 974.998c0 4 1.5 7.5 4.5 10.5s6.5 4.5 10.5 4.5c6 0 11.333 -2.66699 16 -8l98 -103l98 103
c4.66699 5.33301 10 8 16 8c4 0 7.5 -1.5 10.5 -4.5s4.5 -6.5 4.5 -10.5s-2.66699 -9.33301 -8 -16l-100 -101c-7.33301 -7.33301 -14.333 -11 -21 -11c-8 0 -15 3.66699 -21 11l-100 101c-5.33301 6.66699 -8 12 -8 16z" />
    <glyph glyph-name="ccaron" unicode="&#x10d;" horiz-adv-x="402" 
d="M52 176v120c0 54 15.5 97.833 46.5 131.5s76.5 50.5 136.5 50.5c36.667 0 67.667 -6.83301 93 -20.5s38 -26.5 38 -38.5c0 -4.66699 -1.83301 -8.66699 -5.5 -12s-7.83398 -5 -12.501 -5c-3.33301 0 -9.16602 3.33301 -17.499 10s-20.5 13.5 -36.5 20.5
s-35.667 10.5 -59 10.5c-47.333 0 -83.833 -13 -109.5 -39s-38.5 -62 -38.5 -108v-120c0 -46 12.833 -82 38.5 -108s62.5 -39 110.5 -39c24.667 0 45.5 3.5 62.5 10.5s29.667 13.833 38 20.5s14.5 10 18.5 10c4.66699 0 8.66699 -1.66699 12 -5s5 -7.33301 5 -12
c0 -12.667 -13.167 -25.667 -39.5 -39s-58.833 -20 -97.5 -20c-60 0 -105.5 16.667 -136.5 50s-46.5 77.333 -46.5 132zM82 716c0 4 1.5 7.5 4.5 10.5s6.5 4.5 10.5 4.5c6 0 11.333 -2.66699 16 -8l98 -103l98 103c4.66699 5.33301 10 8 16 8c4 0 7.5 -1.5 10.5 -4.5
s4.5 -6.5 4.5 -10.5s-2.66699 -9.33301 -8 -16l-100 -101c-7.33301 -7.33301 -14.333 -11 -21 -11c-8 0 -15 3.66699 -21 11l-100 101c-5.33301 6.66699 -8 12 -8 16z" />
    <glyph glyph-name="Dcaron" unicode="&#x10e;" horiz-adv-x="550" 
d="M83 17v697c0 11.333 6 17 18 17h177c59.333 0 106.833 -16.5 142.5 -49.5s53.5 -85.167 53.5 -156.5v-319c0 -71.333 -17.833 -123.5 -53.5 -156.5s-83.167 -49.5 -142.5 -49.5h-177c-12 0 -18 5.66699 -18 17zM119 36h159c51.333 0 90.833 14.167 118.5 42.5
s41.5 70.833 41.5 127.5v319c0 56.667 -13.833 99.167 -41.5 127.5s-67.167 42.5 -118.5 42.5h-159v-659zM148 975c0 4 1.5 7.5 4.5 10.5s6.5 4.5 10.5 4.5c6 0 11.333 -2.66699 16 -8l98 -103l98 103c4.66699 5.33301 10 8 16 8c4 0 7.5 -1.5 10.5 -4.5s4.5 -6.5 4.5 -10.5
s-2.66699 -9.33301 -8 -16l-100 -101c-7.33301 -7.33301 -14.333 -11 -21 -11c-8 0 -15 3.66699 -21 11l-100 101c-5.33301 6.66699 -8 12 -8 16z" />
    <glyph glyph-name="dcaron" unicode="&#x10f;" horiz-adv-x="468" 
d="M50 176l0.000976562 122.001c0 49.333 17.667 91.666 53 126.999s77.666 53 126.999 53c60.667 0 105.334 -25.333 134.001 -76v349c0 11.333 6 17 18 17c11.333 0 17 -5.66699 17 -17v-733c0 -4.66699 -1.66699 -8.83398 -5 -12.501s-7.33301 -5.5 -12 -5.5
s-8.83398 1.83301 -12.501 5.5s-5.5 7.83398 -5.5 12.501v52c-11.333 -21.333 -29.5 -39.333 -54.5 -54s-52.167 -22 -81.5 -22c-47.333 0 -88.833 18.333 -124.5 55s-53.5 79 -53.5 127zM85.001 176.001c0 -38 14.168 -72 42.501 -102s61.166 -45 98.499 -45
c36 0 68 13.167 96 39.5s42 49.833 42 70.5v159c0 43.333 -13.833 78.333 -41.5 105s-59.5 40 -95.5 40c-38 0 -71.167 -14.833 -99.5 -44.5s-42.5 -63.167 -42.5 -100.5v-122zM462.002 705.001c0 10 3.33203 18.499 9.99902 25.499s15.334 10.5 26.001 10.5
c9.33301 0 17.5 -3.5 24.5 -10.5s10.5 -15.5 10.5 -25.5c0 -20.667 -11 -53 -33 -97c-3.33301 -6.66699 -8 -10 -14 -10c-10.667 0 -16 5 -16 15c0 2.66699 0.333008 4.66699 1 6l18 51c-18 4.66699 -27 16.334 -27 35.001z" />
    <glyph glyph-name="Dcroat" unicode="&#x110;" horiz-adv-x="560" 
d="M3 384c0 12 5.66699 18 17 18h73v312c0 11.333 6 17 18 17h177c59.333 0 106.833 -16.5 142.5 -49.5s53.5 -85.167 53.5 -156.5v-319c0 -71.333 -17.833 -123.5 -53.5 -156.5s-83.167 -49.5 -142.5 -49.5h-177c-12 0 -18 5.66699 -18 17v350h-73
c-11.333 0 -17 5.66699 -17 17zM129 36l159 0.000976562c51.333 0 90.833 14.167 118.5 42.5s41.5 70.833 41.5 127.5v319c0 56.667 -13.833 99.167 -41.5 127.5s-67.167 42.5 -118.5 42.5h-159v-293h131c4.66699 0 8.83398 -1.83301 12.501 -5.5s5.5 -7.83398 5.5 -12.501
s-1.83301 -8.66699 -5.5 -12s-7.83398 -5 -12.501 -5h-131v-331z" />
    <glyph glyph-name="dcroat" unicode="&#x111;" horiz-adv-x="468" 
d="M50 176l0.000976562 122.002c0 49.333 17.667 91.666 53 126.999s77.666 53 126.999 53c60.667 0 105.334 -25.333 134.001 -76v181h-138c-11.333 0 -17 5.66699 -17 17c0 12 5.66699 18 17 18h138v133c0 11.333 6 17 18 17c11.333 0 17 -5.66699 17 -17v-133h57
c4.66699 0 8.83398 -1.83301 12.501 -5.5s5.5 -7.83398 5.5 -12.501s-1.83301 -8.66699 -5.5 -12s-7.83398 -5 -12.501 -5h-57v-565c0 -4.66699 -1.66699 -8.83398 -5 -12.501s-7.33301 -5.5 -12 -5.5s-8.83398 1.83301 -12.501 5.5s-5.5 7.83398 -5.5 12.501v52
c-11.333 -21.333 -29.5 -39.333 -54.5 -54s-52.167 -22 -81.5 -22c-47.333 0 -88.833 18.333 -124.5 55s-53.5 79 -53.5 127zM85.001 176.002c0 -38 14.168 -72 42.501 -102s61.166 -45 98.499 -45c36 0 68 13.167 96 39.5s42 49.833 42 70.5v159
c0 43.333 -13.833 78.333 -41.5 105s-59.5 40 -95.5 40c-38 0 -71.167 -14.833 -99.5 -44.5s-42.5 -63.167 -42.5 -100.5v-122z" />
    <glyph glyph-name="Emacron" unicode="&#x112;" horiz-adv-x="498" 
d="M83 18v695c0 12 6 18 18 18h356c11.333 0 17 -5.66699 17 -17c0 -12.667 -5.66699 -19 -17 -19h-338v-311h160c11.333 0 17 -6.33301 17 -19c0 -11.333 -5.66699 -17 -17 -17h-160v-312h338c11.333 0 17 -6.33301 17 -19c0 -11.333 -5.66699 -17 -17 -17h-356
c-12 0 -18 6 -18 18zM151 923c0 12 5.66699 18.001 17 18.001h220c4.66699 0 8.83398 -1.83301 12.501 -5.5s5.5 -7.83398 5.5 -12.501s-1.83301 -8.66699 -5.5 -12s-7.83398 -5 -12.501 -5h-220c-11.333 0 -17 5.66699 -17 17z" />
    <glyph glyph-name="emacron" unicode="&#x113;" horiz-adv-x="445" 
d="M51 176l-0.00195312 125.001c0 48 17.5 89.5 52.5 124.5s76.833 52.5 125.5 52.5c48 0 89.5 -17.167 124.5 -51.5s52.5 -77.166 52.5 -128.499c0 -17.333 -2 -31.333 -6 -42s-10.667 -18.334 -20 -23.001s-17.833 -7.5 -25.5 -8.5s-18.167 -1.5 -31.5 -1.5h-237v-47
c0 -44.667 15.667 -80.334 47 -107.001s72 -40 122 -40c24.667 0 45.334 3.5 62.001 10.5s29.167 13.833 37.5 20.5s14.5 10 18.5 10c4.66699 0 8.83398 -2 12.501 -6s5.5 -8 5.5 -12c0 -6.66699 -5.33301 -14.5 -16 -23.5s-27 -17 -49 -24s-46.333 -10.5 -73 -10.5
c-59.333 0 -107.833 16.833 -145.5 50.5s-56.5 77.5 -56.5 131.5zM85.998 258.001h224.999c24.667 0 40.834 2.33301 48.501 7s11.5 14.667 11.5 30c0 38 -13.333 72.167 -40 102.5s-60.667 45.5 -102 45.5c-40 0 -73.833 -14.167 -101.5 -42.5s-41.5 -61.5 -41.5 -99.5v-43
zM100.997 664.001c0 12 5.66699 18.001 17 18.001h220c4.66699 0 8.83398 -1.83301 12.501 -5.5s5.5 -7.83398 5.5 -12.501s-1.83301 -8.66699 -5.5 -12s-7.83398 -5 -12.501 -5h-220c-11.333 0 -17 5.66699 -17 17z" />
    <glyph glyph-name="Ebreve" unicode="&#x114;" horiz-adv-x="498" 
d="M83 18v695c0 12 6 18 18 18h356c11.333 0 17 -5.66699 17 -17c0 -12.667 -5.66699 -19 -17 -19h-338v-311h160c11.333 0 17 -6.33301 17 -19c0 -11.333 -5.66699 -17 -17 -17h-160v-312h338c11.333 0 17 -6.33301 17 -19c0 -11.333 -5.66699 -17 -17 -17h-356
c-12 0 -18 6 -18 18zM169 969h32c0 -22.667 7.5 -42.167 22.5 -58.5s33.167 -24.5 54.5 -24.5c20.667 0 38.5 8.16699 53.5 24.5s22.5 35.833 22.5 58.5h33c0 -29.333 -11 -54.833 -33 -76.5s-47.333 -32.5 -76 -32.5c-29.333 0 -54.833 10.833 -76.5 32.5
s-32.5 47.167 -32.5 76.5z" />
    <glyph glyph-name="ebreve" unicode="&#x115;" horiz-adv-x="445" 
d="M51 176l-0.00195312 125.001c0 48 17.5 89.5 52.5 124.5s76.833 52.5 125.5 52.5c48 0 89.5 -17.167 124.5 -51.5s52.5 -77.166 52.5 -128.499c0 -17.333 -2 -31.333 -6 -42s-10.667 -18.334 -20 -23.001s-17.833 -7.5 -25.5 -8.5s-18.167 -1.5 -31.5 -1.5h-237v-47
c0 -44.667 15.667 -80.334 47 -107.001s72 -40 122 -40c24.667 0 45.334 3.5 62.001 10.5s29.167 13.833 37.5 20.5s14.5 10 18.5 10c4.66699 0 8.83398 -2 12.501 -6s5.5 -8 5.5 -12c0 -6.66699 -5.33301 -14.5 -16 -23.5s-27 -17 -49 -24s-46.333 -10.5 -73 -10.5
c-59.333 0 -107.833 16.833 -145.5 50.5s-56.5 77.5 -56.5 131.5zM85.998 258.001h224.999c24.667 0 40.834 2.33301 48.501 7s11.5 14.667 11.5 30c0 38 -13.333 72.167 -40 102.5s-60.667 45.5 -102 45.5c-40 0 -73.833 -14.167 -101.5 -42.5s-41.5 -61.5 -41.5 -99.5v-43
zM118.997 710.001h32c0 -22.667 7.5 -42.167 22.5 -58.5s33.167 -24.5 54.5 -24.5c20.667 0 38.5 8.16699 53.5 24.5s22.5 35.833 22.5 58.5h33c0 -29.333 -11 -54.833 -33 -76.5s-47.333 -32.5 -76 -32.5c-29.333 0 -54.833 10.833 -76.5 32.5s-32.5 47.167 -32.5 76.5z
" />
    <glyph glyph-name="Edotaccent" unicode="&#x116;" horiz-adv-x="498" 
d="M83 18v695c0 12 6 18 18 18h356c11.333 0 17 -5.66699 17 -17c0 -12.667 -5.66699 -19 -17 -19h-338v-311h160c11.333 0 17 -6.33301 17 -19c0 -11.333 -5.66699 -17 -17 -17h-160v-312h338c11.333 0 17 -6.33301 17 -19c0 -11.333 -5.66699 -17 -17 -17h-356
c-12 0 -18 6 -18 18zM249 889c0 8.66699 2.83301 15.667 8.5 21s12.834 8 21.501 8s15.667 -2.66699 21 -8s8 -12.333 8 -21s-2.66699 -15.834 -8 -21.501s-12.333 -8.5 -21 -8.5s-15.834 2.83301 -21.501 8.5s-8.5 12.834 -8.5 21.501z" />
    <glyph glyph-name="edotaccent" unicode="&#x117;" horiz-adv-x="445" 
d="M51 176l-0.00195312 125.001c0 48 17.5 89.5 52.5 124.5s76.833 52.5 125.5 52.5c48 0 89.5 -17.167 124.5 -51.5s52.5 -77.166 52.5 -128.499c0 -17.333 -2 -31.333 -6 -42s-10.667 -18.334 -20 -23.001s-17.833 -7.5 -25.5 -8.5s-18.167 -1.5 -31.5 -1.5h-237v-47
c0 -44.667 15.667 -80.334 47 -107.001s72 -40 122 -40c24.667 0 45.334 3.5 62.001 10.5s29.167 13.833 37.5 20.5s14.5 10 18.5 10c4.66699 0 8.83398 -2 12.501 -6s5.5 -8 5.5 -12c0 -6.66699 -5.33301 -14.5 -16 -23.5s-27 -17 -49 -24s-46.333 -10.5 -73 -10.5
c-59.333 0 -107.833 16.833 -145.5 50.5s-56.5 77.5 -56.5 131.5zM85.998 258.001h224.999c24.667 0 40.834 2.33301 48.501 7s11.5 14.667 11.5 30c0 38 -13.333 72.167 -40 102.5s-60.667 45.5 -102 45.5c-40 0 -73.833 -14.167 -101.5 -42.5s-41.5 -61.5 -41.5 -99.5v-43
zM198.997 630.001c0 8.66699 2.83301 15.667 8.5 21s12.834 8 21.501 8s15.667 -2.66699 21 -8s8 -12.333 8 -21s-2.66699 -15.834 -8 -21.501s-12.333 -8.5 -21 -8.5s-15.834 2.83301 -21.501 8.5s-8.5 12.834 -8.5 21.501z" />
    <glyph glyph-name="Eogonek" unicode="&#x118;" horiz-adv-x="498" 
d="M83 18l0.000976562 695c0 12 6 18 18 18h356c11.333 0 17 -5.66699 17 -17c0 -12.667 -5.66699 -19 -17 -19h-338v-311h160c11.333 0 17 -6.33301 17 -19c0 -11.333 -5.66699 -17 -17 -17h-160v-312h338c11.333 0 17 -6.33301 17 -19c0 -8.66699 -3.33301 -14 -10 -16
c-47.333 -44.667 -71 -87 -71 -127c0 -28.667 21 -43 63 -43c12 0 18 -4.33301 18 -13s-7.66699 -13 -23 -13c-22.667 0 -42.834 5.16699 -60.501 15.5s-26.5 27.5 -26.5 51.5c0 45.333 19 88 57 128h-320c-12 0 -18 6 -18 18z" />
    <glyph glyph-name="eogonek" unicode="&#x119;" horiz-adv-x="445" 
d="M51 176l-0.000976562 125.001c0 48 17.5 89.5 52.5 124.5s76.833 52.5 125.5 52.5c48 0 89.5 -17.167 124.5 -51.5s52.5 -77.166 52.5 -128.499c0 -17.333 -2 -31.333 -6 -42s-10.667 -18.334 -20 -23.001s-17.833 -7.5 -25.5 -8.5s-18.167 -1.5 -31.5 -1.5h-237v-47
c0 -44.667 15.667 -80.334 47 -107.001s72 -40 122 -40c24.667 0 45.334 3.5 62.001 10.5s29.167 13.833 37.5 20.5s14.5 10 18.5 10c4.66699 0 8.83398 -2 12.501 -6s5.5 -8 5.5 -12c0 -9.33301 -9 -19.666 -27 -30.999c-44 -42.667 -66 -83.334 -66 -122.001
c0 -28.667 21 -43 63 -43c12 0 18 -4.33301 18 -13s-7.66699 -13 -23 -13c-22.667 0 -42.834 5.16699 -60.501 15.5s-26.5 27.5 -26.5 51.5c0 35.333 12 69.333 36 102c-18 -3.33301 -35.333 -5 -52 -5c-59.333 0 -107.833 16.833 -145.5 50.5s-56.5 77.5 -56.5 131.5z
M85.999 258.001h224.999c24.667 0 40.834 2.33301 48.501 7s11.5 14.667 11.5 30c0 38 -13.333 72.167 -40 102.5s-60.667 45.5 -102 45.5c-40 0 -73.833 -14.167 -101.5 -42.5s-41.5 -61.5 -41.5 -99.5v-43z" />
    <glyph glyph-name="Ecaron" unicode="&#x11a;" horiz-adv-x="498" 
d="M83 18v695c0 12 6 18 18 18h356c11.333 0 17 -5.66699 17 -17c0 -12.667 -5.66699 -19 -17 -19h-338v-311h160c11.333 0 17 -6.33301 17 -19c0 -11.333 -5.66699 -17 -17 -17h-160v-312h338c11.333 0 17 -6.33301 17 -19c0 -11.333 -5.66699 -17 -17 -17h-356
c-12 0 -18 6 -18 18zM148 975c0 4 1.5 7.5 4.5 10.5s6.5 4.5 10.5 4.5c6 0 11.333 -2.66699 16 -8l98 -103l98 103c4.66699 5.33301 10 8 16 8c4 0 7.5 -1.5 10.5 -4.5s4.5 -6.5 4.5 -10.5s-2.66699 -9.33301 -8 -16l-100 -101c-7.33301 -7.33301 -14.333 -11 -21 -11
c-8 0 -15 3.66699 -21 11l-100 101c-5.33301 6.66699 -8 12 -8 16z" />
    <glyph glyph-name="ecaron" unicode="&#x11b;" horiz-adv-x="445" 
d="M51 176l-0.00195312 125.001c0 48 17.5 89.5 52.5 124.5s76.833 52.5 125.5 52.5c48 0 89.5 -17.167 124.5 -51.5s52.5 -77.166 52.5 -128.499c0 -17.333 -2 -31.333 -6 -42s-10.667 -18.334 -20 -23.001s-17.833 -7.5 -25.5 -8.5s-18.167 -1.5 -31.5 -1.5h-237v-47
c0 -44.667 15.667 -80.334 47 -107.001s72 -40 122 -40c24.667 0 45.334 3.5 62.001 10.5s29.167 13.833 37.5 20.5s14.5 10 18.5 10c4.66699 0 8.83398 -2 12.501 -6s5.5 -8 5.5 -12c0 -6.66699 -5.33301 -14.5 -16 -23.5s-27 -17 -49 -24s-46.333 -10.5 -73 -10.5
c-59.333 0 -107.833 16.833 -145.5 50.5s-56.5 77.5 -56.5 131.5zM85.998 258.001h224.999c24.667 0 40.834 2.33301 48.501 7s11.5 14.667 11.5 30c0 38 -13.333 72.167 -40 102.5s-60.667 45.5 -102 45.5c-40 0 -73.833 -14.167 -101.5 -42.5s-41.5 -61.5 -41.5 -99.5v-43
zM97.9971 716.001c0 4 1.5 7.5 4.5 10.5s6.5 4.5 10.5 4.5c6 0 11.333 -2.66699 16 -8l98 -103l98 103c4.66699 5.33301 10 8 16 8c4 0 7.5 -1.5 10.5 -4.5s4.5 -6.5 4.5 -10.5s-2.66699 -9.33301 -8 -16l-100 -101c-7.33301 -7.33301 -14.333 -11 -21 -11
c-8 0 -15 3.66699 -21 11l-100 101c-5.33301 6.66699 -8 12 -8 16z" />
    <glyph glyph-name="Gcircumflex" unicode="&#x11c;" horiz-adv-x="531" 
d="M76 200v324.999c0 71.333 17.667 123.5 53 156.5s82.666 49.5 141.999 49.5c60 0 107.667 -15.667 143 -47s53 -70.666 53 -117.999c0 -13.333 -6 -20 -18 -20c-11.333 0 -17.333 6 -18 18c-6 44 -22.833 76.833 -50.5 98.5s-64.167 32.5 -109.5 32.5
c-51.333 0 -90.666 -14.167 -117.999 -42.5s-41 -70.833 -41 -127.5v-325c0 -56.667 13.667 -99.167 41 -127.5s66.666 -42.5 117.999 -42.5s90.833 14.167 118.5 42.5s41.5 70.833 41.5 127.5v148h-159c-11.333 0 -17 6 -17 18s5.66699 18 17 18h178
c11.333 0 17 -6.33301 17 -19v-165c0 -71.333 -17.833 -123.5 -53.5 -156.5s-83.167 -49.5 -142.5 -49.5s-106.666 16.5 -141.999 49.5s-53 85.167 -53 156.5zM141 877.999c0 6.66699 3.00098 11.333 9.00098 14l104 56c5.33301 3.33301 11 5 17 5s11.667 -1.66699 17 -5
l104 -55c6 -3.33301 9 -9 9 -17c0 -4.66699 -1.66699 -8.5 -5 -11.5s-7.33301 -4.5 -12 -4.5l-9 3l-104 55l-104 -56c-0.666992 0 -2 -0.5 -4 -1.5s-3.33301 -1.5 -4 -1.5c-4.66699 0 -8.83398 1.83301 -12.501 5.5s-5.5 8.16699 -5.5 13.5z" />
    <glyph glyph-name="gcircumflex" unicode="&#x11d;" horiz-adv-x="446" 
d="M32 -108c0 52.667 30.335 89.668 91.002 111.001c-40.667 11.333 -61 35 -61 71c0 30.667 16.333 53.667 49 69c-34.667 30.667 -52 72.667 -52 126v45c0 48.667 14.833 88.167 44.5 118.5s68.5 45.5 116.5 45.5c48.667 0 88.334 -16 119.001 -48
c9.33301 17.333 21 31.833 35 43.5s27.333 17.5 40 17.5c14 0 21 -6.66699 21 -20c0 -6 -1.83301 -10.667 -5.5 -14s-7.83398 -5 -12.501 -5c-24 0 -44 -15.333 -60 -46c16.667 -23.333 25 -54 25 -92v-45c0 -48 -15.167 -87.667 -45.5 -119s-69.5 -47 -117.5 -47
c-30.667 0 -58 7 -82 21c-26.667 -12 -40 -28 -40 -48c0 -15.333 7.83301 -27.166 23.5 -35.499s35.167 -13.5 58.5 -15.5s48.666 -4.83301 75.999 -8.5s52.666 -8.5 75.999 -14.5s42.833 -17.833 58.5 -35.5s23.5 -40.5 23.5 -68.5c0 -42.667 -16.667 -75.834 -50 -99.501
s-79 -35.5 -137 -35.5c-58.667 0 -105.667 11.667 -141 35s-53 54.666 -53 93.999zM67.002 -104.999c0 -30 14.168 -54.1641 42.501 -72.4971s67.166 -27.5 116.499 -27.5c48.667 0 86.167 9.16699 112.5 27.5s39.5 43.166 39.5 74.499c0 15.333 -3.83301 28.5 -11.5 39.5
s-16.834 19.5 -27.501 25.5s-24.167 11 -40.5 15s-31 6.66699 -44 8s-28.167 2.66602 -45.5 3.99902s-29.666 2.66602 -36.999 3.99902c-70 -20 -105 -52.667 -105 -98zM94.0029 270.004c0 -38.667 11.334 -70.333 34.001 -95s53.667 -37 93 -37c38 0 68.5 12.333 91.5 37
s34.5 56 34.5 94v45c0 37.333 -11.333 68.166 -34 92.499s-53.667 36.5 -93 36.5c-38.667 0 -69.334 -12.167 -92.001 -36.5s-34 -55.166 -34 -92.499v-44zM105.004 619.005c0 6 3.00098 10.668 9.00098 14.001l104 56c5.33301 3.33301 11 5 17 5s11.667 -1.66699 17 -5
l104 -55c6 -2.66699 9 -8.33398 9 -17.001c0 -4.66699 -1.66699 -8.5 -5 -11.5s-7.33301 -4.5 -12 -4.5l-9 3l-104 55l-104 -56c-0.666992 0 -2 -0.5 -4 -1.5s-3.33301 -1.5 -4 -1.5c-4.66699 0 -8.83398 1.83301 -12.501 5.5s-5.5 8.16699 -5.5 13.5z" />
    <glyph glyph-name="Gbreve" unicode="&#x11e;" horiz-adv-x="531" 
d="M76 200v324.999c0 71.333 17.667 123.5 53 156.5s82.666 49.5 141.999 49.5c60 0 107.667 -15.667 143 -47s53 -70.666 53 -117.999c0 -13.333 -6 -20 -18 -20c-11.333 0 -17.333 6 -18 18c-6 44 -22.833 76.833 -50.5 98.5s-64.167 32.5 -109.5 32.5
c-51.333 0 -90.666 -14.167 -117.999 -42.5s-41 -70.833 -41 -127.5v-325c0 -56.667 13.667 -99.167 41 -127.5s66.666 -42.5 117.999 -42.5s90.833 14.167 118.5 42.5s41.5 70.833 41.5 127.5v148h-159c-11.333 0 -17 6 -17 18s5.66699 18 17 18h178
c11.333 0 17 -6.33301 17 -19v-165c0 -71.333 -17.833 -123.5 -53.5 -156.5s-83.167 -49.5 -142.5 -49.5s-106.666 16.5 -141.999 49.5s-53 85.167 -53 156.5zM162 968.999h32c0 -22.667 7.5 -42.167 22.5 -58.5s33.167 -24.5 54.5 -24.5c20.667 0 38.5 8.16699 53.5 24.5
s22.5 35.833 22.5 58.5h33c0 -29.333 -11 -54.833 -33 -76.5s-47.333 -32.5 -76 -32.5c-29.333 0 -54.833 10.833 -76.5 32.5s-32.5 47.167 -32.5 76.5z" />
    <glyph glyph-name="gbreve" unicode="&#x11f;" horiz-adv-x="446" 
d="M32 -108c0 52.667 30.335 89.668 91.002 111.001c-40.667 11.333 -61 35 -61 71c0 30.667 16.333 53.667 49 69c-34.667 30.667 -52 72.667 -52 126v45c0 48.667 14.833 88.167 44.5 118.5s68.5 45.5 116.5 45.5c48.667 0 88.334 -16 119.001 -48
c9.33301 17.333 21 31.833 35 43.5s27.333 17.5 40 17.5c14 0 21 -6.66699 21 -20c0 -6 -1.83301 -10.667 -5.5 -14s-7.83398 -5 -12.501 -5c-24 0 -44 -15.333 -60 -46c16.667 -23.333 25 -54 25 -92v-45c0 -48 -15.167 -87.667 -45.5 -119s-69.5 -47 -117.5 -47
c-30.667 0 -58 7 -82 21c-26.667 -12 -40 -28 -40 -48c0 -15.333 7.83301 -27.166 23.5 -35.499s35.167 -13.5 58.5 -15.5s48.666 -4.83301 75.999 -8.5s52.666 -8.5 75.999 -14.5s42.833 -17.833 58.5 -35.5s23.5 -40.5 23.5 -68.5c0 -42.667 -16.667 -75.834 -50 -99.501
s-79 -35.5 -137 -35.5c-58.667 0 -105.667 11.667 -141 35s-53 54.666 -53 93.999zM67.002 -104.999c0 -30 14.168 -54.1641 42.501 -72.4971s67.166 -27.5 116.499 -27.5c48.667 0 86.167 9.16699 112.5 27.5s39.5 43.166 39.5 74.499c0 15.333 -3.83301 28.5 -11.5 39.5
s-16.834 19.5 -27.501 25.5s-24.167 11 -40.5 15s-31 6.66699 -44 8s-28.167 2.66602 -45.5 3.99902s-29.666 2.66602 -36.999 3.99902c-70 -20 -105 -52.667 -105 -98zM94.0029 270.004c0 -38.667 11.334 -70.333 34.001 -95s53.667 -37 93 -37c38 0 68.5 12.333 91.5 37
s34.5 56 34.5 94v45c0 37.333 -11.333 68.166 -34 92.499s-53.667 36.5 -93 36.5c-38.667 0 -69.334 -12.167 -92.001 -36.5s-34 -55.166 -34 -92.499v-44zM126.004 710.005h32c0 -22.667 7.5 -42.167 22.5 -58.5s33.167 -24.5 54.5 -24.5c20.667 0 38.5 8.16699 53.5 24.5
s22.5 35.833 22.5 58.5h33c0 -29.333 -11 -54.833 -33 -76.5s-47.333 -32.5 -76 -32.5c-29.333 0 -54.833 10.833 -76.5 32.5s-32.5 47.167 -32.5 76.5z" />
    <glyph glyph-name="Gdotaccent" unicode="&#x120;" horiz-adv-x="531" 
d="M76 200v324.999c0 71.333 17.667 123.5 53 156.5s82.666 49.5 141.999 49.5c60 0 107.667 -15.667 143 -47s53 -70.666 53 -117.999c0 -13.333 -6 -20 -18 -20c-11.333 0 -17.333 6 -18 18c-6 44 -22.833 76.833 -50.5 98.5s-64.167 32.5 -109.5 32.5
c-51.333 0 -90.666 -14.167 -117.999 -42.5s-41 -70.833 -41 -127.5v-325c0 -56.667 13.667 -99.167 41 -127.5s66.666 -42.5 117.999 -42.5s90.833 14.167 118.5 42.5s41.5 70.833 41.5 127.5v148h-159c-11.333 0 -17 6 -17 18s5.66699 18 17 18h178
c11.333 0 17 -6.33301 17 -19v-165c0 -71.333 -17.833 -123.5 -53.5 -156.5s-83.167 -49.5 -142.5 -49.5s-106.666 16.5 -141.999 49.5s-53 85.167 -53 156.5zM242 888.999c0 8.66699 2.83301 15.667 8.5 21s12.834 8 21.501 8s15.667 -2.66699 21 -8s8 -12.333 8 -21
s-2.66699 -15.834 -8 -21.501s-12.333 -8.5 -21 -8.5s-15.834 2.83301 -21.501 8.5s-8.5 12.834 -8.5 21.501z" />
    <glyph glyph-name="gdotaccent" unicode="&#x121;" horiz-adv-x="446" 
d="M32 -108c0 52.667 30.335 89.668 91.002 111.001c-40.667 11.333 -61 35 -61 71c0 30.667 16.333 53.667 49 69c-34.667 30.667 -52 72.667 -52 126v45c0 48.667 14.833 88.167 44.5 118.5s68.5 45.5 116.5 45.5c48.667 0 88.334 -16 119.001 -48
c9.33301 17.333 21 31.833 35 43.5s27.333 17.5 40 17.5c14 0 21 -6.66699 21 -20c0 -6 -1.83301 -10.667 -5.5 -14s-7.83398 -5 -12.501 -5c-24 0 -44 -15.333 -60 -46c16.667 -23.333 25 -54 25 -92v-45c0 -48 -15.167 -87.667 -45.5 -119s-69.5 -47 -117.5 -47
c-30.667 0 -58 7 -82 21c-26.667 -12 -40 -28 -40 -48c0 -15.333 7.83301 -27.166 23.5 -35.499s35.167 -13.5 58.5 -15.5s48.666 -4.83301 75.999 -8.5s52.666 -8.5 75.999 -14.5s42.833 -17.833 58.5 -35.5s23.5 -40.5 23.5 -68.5c0 -42.667 -16.667 -75.834 -50 -99.501
s-79 -35.5 -137 -35.5c-58.667 0 -105.667 11.667 -141 35s-53 54.666 -53 93.999zM67.002 -104.999c0 -30 14.168 -54.1641 42.501 -72.4971s67.166 -27.5 116.499 -27.5c48.667 0 86.167 9.16699 112.5 27.5s39.5 43.166 39.5 74.499c0 15.333 -3.83301 28.5 -11.5 39.5
s-16.834 19.5 -27.501 25.5s-24.167 11 -40.5 15s-31 6.66699 -44 8s-28.167 2.66602 -45.5 3.99902s-29.666 2.66602 -36.999 3.99902c-70 -20 -105 -52.667 -105 -98zM94.0029 270.004c0 -38.667 11.334 -70.333 34.001 -95s53.667 -37 93 -37c38 0 68.5 12.333 91.5 37
s34.5 56 34.5 94v45c0 37.333 -11.333 68.166 -34 92.499s-53.667 36.5 -93 36.5c-38.667 0 -69.334 -12.167 -92.001 -36.5s-34 -55.166 -34 -92.499v-44zM205.004 630.005c0 8.66699 2.83301 15.667 8.5 21s12.834 8 21.501 8s15.667 -2.66699 21 -8s8 -12.333 8 -21
s-2.66699 -15.834 -8 -21.501s-12.333 -8.5 -21 -8.5s-15.834 2.83301 -21.501 8.5s-8.5 12.834 -8.5 21.501z" />
    <glyph glyph-name="Gcommaaccent" unicode="&#x122;" horiz-adv-x="531" 
d="M76 200v324.999c0 71.333 17.667 123.5 53 156.5s82.666 49.5 141.999 49.5c60 0 107.667 -15.667 143 -47s53 -70.666 53 -117.999c0 -13.333 -6 -20 -18 -20c-11.333 0 -17.333 6 -18 18c-6 44 -22.833 76.833 -50.5 98.5s-64.167 32.5 -109.5 32.5
c-51.333 0 -90.666 -14.167 -117.999 -42.5s-41 -70.833 -41 -127.5v-325c0 -56.667 13.667 -99.167 41 -127.5s66.666 -42.5 117.999 -42.5s90.833 14.167 118.5 42.5s41.5 70.833 41.5 127.5v148h-159c-11.333 0 -17 6 -17 18s5.66699 18 17 18h178
c11.333 0 17 -6.33301 17 -19v-165c0 -71.333 -17.833 -123.5 -53.5 -156.5s-83.167 -49.5 -142.5 -49.5s-106.666 16.5 -141.999 49.5s-53 85.167 -53 156.5zM202 -123.001c0 6 2.66699 10.332 8 12.999l102 60c2.66699 1.33301 5 2 7 2c10.667 0 16 -6 16 -18
c0 -8 -3.33301 -14 -10 -18l-95 -54c-2.66699 -2 -5.66699 -3 -9 -3c-5.33301 0 -9.83301 1.83301 -13.5 5.5s-5.5 7.83398 -5.5 12.501z" />
    <glyph glyph-name="gcommaaccent" unicode="&#x123;" horiz-adv-x="446" 
d="M32 -108c0 52.667 30.335 89.668 91.002 111.001c-40.667 11.333 -61 35 -61 71c0 30.667 16.333 53.667 49 69c-34.667 30.667 -52 72.667 -52 126v45c0 48.667 14.833 88.167 44.5 118.5s68.5 45.5 116.5 45.5c48.667 0 88.334 -16 119.001 -48
c9.33301 17.333 21 31.833 35 43.5s27.333 17.5 40 17.5c14 0 21 -6.66699 21 -20c0 -6 -1.83301 -10.667 -5.5 -14s-7.83398 -5 -12.501 -5c-24 0 -44 -15.333 -60 -46c16.667 -23.333 25 -54 25 -92v-45c0 -48 -15.167 -87.667 -45.5 -119s-69.5 -47 -117.5 -47
c-30.667 0 -58 7 -82 21c-26.667 -12 -40 -28 -40 -48c0 -15.333 7.83301 -27.166 23.5 -35.499s35.167 -13.5 58.5 -15.5s48.666 -4.83301 75.999 -8.5s52.666 -8.5 75.999 -14.5s42.833 -17.833 58.5 -35.5s23.5 -40.5 23.5 -68.5c0 -42.667 -16.667 -75.834 -50 -99.501
s-79 -35.5 -137 -35.5c-58.667 0 -105.667 11.667 -141 35s-53 54.666 -53 93.999zM67.002 -104.999c0 -30 14.168 -54.1641 42.501 -72.4971s67.166 -27.5 116.499 -27.5c48.667 0 86.167 9.16699 112.5 27.5s39.5 43.166 39.5 74.499c0 15.333 -3.83301 28.5 -11.5 39.5
s-16.834 19.5 -27.501 25.5s-24.167 11 -40.5 15s-31 6.66699 -44 8s-28.167 2.66602 -45.5 3.99902s-29.666 2.66602 -36.999 3.99902c-70 -20 -105 -52.667 -105 -98zM94.0029 270.004c0 -38.667 11.334 -70.333 34.001 -95s53.667 -37 93 -37c38 0 68.5 12.333 91.5 37
s34.5 56 34.5 94v45c0 37.333 -11.333 68.166 -34 92.499s-53.667 36.5 -93 36.5c-38.667 0 -69.334 -12.167 -92.001 -36.5s-34 -55.166 -34 -92.499v-44zM157.004 619.005c0 6 2.66699 10.332 8 12.999l102 60c2.66699 1.33301 5 2 7 2c10.667 0 16 -6 16 -18
c0 -8 -3.33301 -14 -10 -18l-95 -54c-3.33301 -2 -6.33301 -3 -9 -3c-5.33301 0 -9.83301 1.83301 -13.5 5.5s-5.5 7.83398 -5.5 12.501zM189.004 893.004c0 20.667 11.001 53.001 33.001 97.001c3.33301 6.66699 8 10 14 10c10.667 0 16 -5 16 -15
c0 -2.66699 -0.333008 -4.66699 -1 -6l-18 -51c18 -4.66699 27 -16.334 27 -35.001c0 -10 -3.33301 -18.5 -10 -25.5s-15.334 -10.5 -26.001 -10.5c-9.33301 0 -17.5 3.5 -24.5 10.5s-10.5 15.5 -10.5 25.5z" />
    <glyph glyph-name="Hcircumflex" unicode="&#x124;" horiz-adv-x="557" 
d="M83 18v696c0 11.333 6 17 18 17s18 -5.66699 18 -17v-317h319v317c0 11.333 6 17 18 17s18 -5.66699 18 -17v-696c0 -12 -6 -18 -18 -18s-18 6 -18 18v343h-319v-343c0 -12 -6 -18 -18 -18s-18 6 -18 18zM149 878c0 6.66699 3.00098 11.333 9.00098 14l104 56
c5.33301 3.33301 11 5 17 5s11.667 -1.66699 17 -5l104 -55c6 -3.33301 9 -9 9 -17c0 -4.66699 -1.66699 -8.5 -5 -11.5s-7.33301 -4.5 -12 -4.5l-9 3l-104 55l-104 -56c-0.666992 0 -2 -0.5 -4 -1.5s-3.33301 -1.5 -4 -1.5c-4.66699 0 -8.83398 1.83301 -12.501 5.5
s-5.5 8.16699 -5.5 13.5z" />
    <glyph glyph-name="hcircumflex" unicode="&#x125;" horiz-adv-x="482" 
d="M-42 874c0 6.66699 3.00098 11.333 9.00098 14l104 56c5.33301 3.33301 11 5 17 5s11.667 -1.66699 17 -5l104 -55c6 -3.33301 9 -9 9 -17c0 -4.66699 -1.66699 -8.5 -5 -11.5s-7.33301 -4.5 -12 -4.5l-9 3l-104 55l-104 -56c-0.666992 0 -2 -0.5 -4 -1.5
s-3.33301 -1.5 -4 -1.5c-4.66699 0 -8.83398 1.83301 -12.501 5.5s-5.5 8.16699 -5.5 13.5zM69.001 17.999l0.000976562 732.999c0 11.333 5.66699 17 17 17c12 0 18 -5.66699 18 -17v-349c28.667 50.667 73.334 76 134.001 76c49.333 0 91.666 -17.667 126.999 -53
s53 -77.666 53 -126.999v-280c0 -12 -6 -18 -18 -18c-11.333 0 -17 6 -17 18v280c0 37.333 -14.167 70.833 -42.5 100.5s-61.5 44.5 -99.5 44.5c-36 0 -67.833 -13.333 -95.5 -40s-41.5 -61.667 -41.5 -105v-280c0 -4.66699 -1.83301 -8.83398 -5.5 -12.501
s-7.83398 -5.5 -12.501 -5.5s-8.66699 1.83301 -12 5.5s-5 7.83398 -5 12.501z" />
    <glyph glyph-name="Hbar" unicode="&#x126;" horiz-adv-x="557" 
d="M21 560c0 12 5.66699 18.001 17 18.001h45v136c0 11.333 6 17 18 17s18 -5.66699 18 -17v-136h319v136c0 11.333 6 17 18 17s18 -5.66699 18 -17v-136h44c4.66699 0 8.83398 -1.83301 12.501 -5.5s5.5 -7.83398 5.5 -12.501s-1.83301 -8.66699 -5.5 -12
s-7.83398 -5 -12.501 -5h-44v-525c0 -12 -6 -18 -18 -18s-18 6 -18 18v343h-319v-343c0 -12 -6 -18 -18 -18s-18 6 -18 18v525h-45c-11.333 0 -17 5.66699 -17 17zM119 397.001h319v146h-319v-146z" />
    <glyph glyph-name="hbar" unicode="&#x127;" horiz-adv-x="482" 
d="M20 609c0 12 5.66797 18 17.001 18h32v124c0 11.333 5.66699 17 17 17c12 0 18 -5.66699 18 -17v-124h153c4.66699 0 8.83398 -1.83301 12.501 -5.5s5.5 -7.83398 5.5 -12.501s-1.83301 -8.66699 -5.5 -12s-7.83398 -5 -12.501 -5h-153v-190
c28.667 50.667 73.334 76 134.001 76c49.333 0 91.666 -17.667 126.999 -53s53 -77.666 53 -126.999v-280c0 -12 -6 -18 -18 -18c-11.333 0 -17 6 -17 18v280c0 37.333 -14.167 70.833 -42.5 100.5s-61.5 44.5 -99.5 44.5c-36 0 -67.833 -13.333 -95.5 -40
s-41.5 -61.667 -41.5 -105v-280c0 -4.66699 -1.83301 -8.83398 -5.5 -12.501s-7.83398 -5.5 -12.501 -5.5s-8.66699 1.83301 -12 5.5s-5 7.83398 -5 12.501v574h-32c-11.333 0 -17 5.66699 -17 17z" />
    <glyph glyph-name="Itilde" unicode="&#x128;" horiz-adv-x="202" 
d="M-46 897c0 12.667 10.168 24.501 30.501 35.501s39.833 16.5 58.5 16.5c16 0 36.833 -6.16699 62.5 -18.5s47.167 -18.5 64.5 -18.5c13.333 0 24.166 2.66699 32.499 8s14.833 10.666 19.5 15.999s9 8 13 8c9.33301 0 14 -5 14 -15c0 -14 -9.5 -26 -28.5 -36
s-37.5 -15 -55.5 -15c-15.333 0 -35.833 6.16699 -61.5 18.5s-48.167 18.5 -67.5 18.5c-12.667 0 -23.667 -2.83301 -33 -8.5s-16.833 -11.5 -22.5 -17.5s-10.167 -9 -13.5 -9c-8.66699 0 -13 5.66699 -13 17zM83.001 18.001v696c0 11.333 6 17 18 17s18 -5.66699 18 -17
v-696c0 -12 -6 -18 -18 -18s-18 6 -18 18z" />
    <glyph glyph-name="itilde" unicode="&#x129;" horiz-adv-x="171" 
d="M-63 638c0 12.667 10.168 24.501 30.501 35.501s39.833 16.5 58.5 16.5c16 0 36.833 -6.16699 62.5 -18.5s47.167 -18.5 64.5 -18.5c13.333 0 24.166 2.66699 32.499 8s14.833 10.666 19.5 15.999s9 8 13 8c9.33301 0 14 -5 14 -15c0 -14 -9.5 -26 -28.5 -36
s-37.5 -15 -55.5 -15c-15.333 0 -35.833 6.16699 -61.5 18.5s-48.167 18.5 -67.5 18.5c-12.667 0 -23.667 -3 -33 -9s-16.833 -11.833 -22.5 -17.5s-10.167 -8.5 -13.5 -8.5c-8.66699 0 -13 5.66699 -13 17zM68.001 18.001l0.000976562 437c0 4.66699 1.66699 8.66699 5 12
s7.33301 5 12 5c12 0 18 -5.66699 18 -17v-437c0 -4.66699 -1.83301 -8.83398 -5.5 -12.501s-7.83398 -5.5 -12.501 -5.5s-8.66699 1.83301 -12 5.5s-5 7.83398 -5 12.501z" />
    <glyph glyph-name="Imacron" unicode="&#x12a;" horiz-adv-x="202" 
d="M-26 923c0 12 5.66699 18.001 17 18.001h220c4.66699 0 8.83398 -1.83301 12.501 -5.5s5.5 -7.83398 5.5 -12.501s-1.83301 -8.66699 -5.5 -12s-7.83398 -5 -12.501 -5h-220c-11.333 0 -17 5.66699 -17 17zM83 18.001v696c0 11.333 6 17 18 17s18 -5.66699 18 -17v-696
c0 -12 -6 -18 -18 -18s-18 6 -18 18z" />
    <glyph glyph-name="imacron" unicode="&#x12b;" horiz-adv-x="171" 
d="M-43 664c0 12 5.66699 18.001 17 18.001h220c4.66699 0 8.83398 -1.83301 12.501 -5.5s5.5 -7.83398 5.5 -12.501s-1.83301 -8.66699 -5.5 -12s-7.83398 -5 -12.501 -5h-220c-11.333 0 -17 5.66699 -17 17zM68 18.001l0.000976562 437c0 4.66699 1.66699 8.66699 5 12
s7.33301 5 12 5c12 0 18 -5.66699 18 -17v-437c0 -4.66699 -1.83301 -8.83398 -5.5 -12.501s-7.83398 -5.5 -12.501 -5.5s-8.66699 1.83301 -12 5.5s-5 7.83398 -5 12.501z" />
    <glyph glyph-name="Ibreve" unicode="&#x12c;" horiz-adv-x="202" 
d="M-8 969h32c0 -22.667 7.5 -42.167 22.5 -58.5s33.167 -24.5 54.5 -24.5c20.667 0 38.5 8.16699 53.5 24.5s22.5 35.833 22.5 58.5h33c0 -29.333 -11 -54.833 -33 -76.5s-47.333 -32.5 -76 -32.5c-29.333 0 -54.833 10.833 -76.5 32.5s-32.5 47.167 -32.5 76.5zM83 18v696
c0 11.333 6 17 18 17s18 -5.66699 18 -17v-696c0 -12 -6 -18 -18 -18s-18 6 -18 18z" />
    <glyph glyph-name="ibreve" unicode="&#x12d;" horiz-adv-x="171" 
d="M-23 710h32c0 -22.667 7.5 -42.167 22.5 -58.5s33.167 -24.5 54.5 -24.5c20.667 0 38.5 8.16699 53.5 24.5s22.5 35.833 22.5 58.5h33c0 -29.333 -11 -54.833 -33 -76.5s-47.333 -32.5 -76 -32.5c-29.333 0 -54.833 10.833 -76.5 32.5s-32.5 47.167 -32.5 76.5zM68 18
l0.000976562 437c0 4.66699 1.66699 8.66699 5 12s7.33301 5 12 5c12 0 18 -5.66699 18 -17v-437c0 -4.66699 -1.83301 -8.83398 -5.5 -12.501s-7.83398 -5.5 -12.501 -5.5s-8.66699 1.83301 -12 5.5s-5 7.83398 -5 12.501z" />
    <glyph glyph-name="Iogonek" unicode="&#x12e;" horiz-adv-x="203" 
d="M15 -123c0 48.667 23.001 95.332 69.001 139.999v697c0 11.333 6 17 18 17s18 -5.66699 18 -17v-696c0 -7.33301 -3 -12.666 -9 -15.999c-44.667 -43.333 -67 -84.333 -67 -123c0 -28.667 21 -43 63 -43c12 0 18 -4.33301 18 -13s-7.66699 -13 -23 -13
c-22.667 0 -42.834 5.16699 -60.501 15.5s-26.5 27.5 -26.5 51.5z" />
    <glyph glyph-name="iogonek" unicode="&#x12f;" horiz-adv-x="173" 
d="M-3 -126c0 49.333 24.334 97.333 73.001 144v437c0 4.66699 1.66699 8.66699 5 12s7.33301 5 12 5c12 0 18 -5.66699 18 -17v-437c0 -6.66699 -2.66699 -11.667 -8 -15c-47.333 -44.667 -71 -87 -71 -127c0 -28.667 21 -43 63 -43c12 0 18 -4.33301 18 -13
s-7.66699 -13 -23 -13c-22.667 0 -42.834 5.16699 -60.501 15.5s-26.5 27.5 -26.5 51.5zM55.001 660c0 8.66699 3.16699 16 9.5 22s13.833 9 22.5 9s16 -3 22 -9s9 -13.333 9 -22s-3 -16.167 -9 -22.5s-13.333 -9.5 -22 -9.5s-16.167 3.16699 -22.5 9.5
s-9.5 13.833 -9.5 22.5z" />
    <glyph glyph-name="Idotaccent" unicode="&#x130;" horiz-adv-x="202" 
d="M71 889c0 8.66699 2.83301 15.667 8.5 21s12.834 8 21.501 8s15.667 -2.66699 21 -8s8 -12.333 8 -21s-2.66699 -15.834 -8 -21.501s-12.333 -8.5 -21 -8.5s-15.834 2.83301 -21.501 8.5s-8.5 12.834 -8.5 21.501zM83 18v696c0 11.333 6 17 18 17s18 -5.66699 18 -17
v-696c0 -12 -6 -18 -18 -18s-18 6 -18 18z" />
    <glyph glyph-name="dotlessi" unicode="&#x131;" horiz-adv-x="171" 
d="M68 18l0.000976562 437c0 4.66699 1.66699 8.66699 5 12s7.33301 5 12 5c12 0 18 -5.66699 18 -17v-437c0 -4.66699 -1.83301 -8.83398 -5.5 -12.501s-7.83398 -5.5 -12.501 -5.5s-8.66699 1.83301 -12 5.5s-5 7.83398 -5 12.501z" />
    <glyph glyph-name="IJ" unicode="&#x132;" horiz-adv-x="696" 
d="M83 18v696c0 11.333 6 17 18 17s18 -5.66699 18 -17v-696c0 -12 -6 -18 -18 -18s-18 6 -18 18zM226 159c0 13.333 5.66699 20.001 17 20.001c12.667 0 19 -6 19 -18c0 -42.667 15 -75.167 45 -97.5s68.333 -33.5 115 -33.5c51.333 0 90.666 14.167 117.999 42.5
s41 70.833 41 127.5v495h-159c-11.333 0 -17 6.33301 -17 19c0 11.333 5.66699 17 17 17h177c12 0 18 -6 18 -18v-513c0 -71.333 -17.667 -123.5 -53 -156.5s-82.666 -49.5 -141.999 -49.5c-60 0 -107.667 15.667 -143 47s-53 70.666 -53 117.999z" />
    <glyph glyph-name="ij" unicode="&#x133;" horiz-adv-x="345" 
d="M53 660c0 8.66699 3.16699 16 9.5 22s13.833 9 22.5 9s16 -3 22 -9s9 -13.333 9 -22s-3 -16.167 -9 -22.5s-13.333 -9.5 -22 -9.5s-16.167 3.16699 -22.5 9.5s-9.5 13.833 -9.5 22.5zM68 18l0.000976562 437c0 4.66699 1.66699 8.66699 5 12s7.33301 5 12 5
c12 0 18 -5.66699 18 -17v-437c0 -4.66699 -1.83301 -8.83398 -5.5 -12.501s-7.83398 -5.5 -12.501 -5.5s-8.66699 1.83301 -12 5.5s-5 7.83398 -5 12.501zM136.001 -219c0 11.333 6.00195 16.999 18.002 16.999c35.333 0 58.666 12.833 69.999 38.5s17 64.167 17 115.5v503
c0 11.333 5.66699 17 17 17c12 0 18 -5.66699 18 -17v-503c0 -126 -40.667 -189 -122 -189c-4.66699 0 -8.83398 1.83301 -12.501 5.5s-5.5 7.83398 -5.5 12.501zM226.003 659.999c0 8.66699 3.16699 16 9.5 22s13.833 9 22.5 9s16 -3 22 -9s9 -13.333 9 -22
s-3 -16.167 -9 -22.5s-13.333 -9.5 -22 -9.5s-16.167 3.16699 -22.5 9.5s-9.5 13.833 -9.5 22.5z" />
    <glyph glyph-name="Jcircumflex" unicode="&#x134;" horiz-adv-x="496" 
d="M26 159c0 13.333 5.66699 20.001 17 20.001c12.667 0 19 -6 19 -18c0 -42.667 15 -75.167 45 -97.5s68.333 -33.5 115 -33.5c51.333 0 90.666 14.167 117.999 42.5s41 70.833 41 127.5v495h-159c-11.333 0 -17 6.33301 -17 19c0 11.333 5.66699 17 17 17h177
c12 0 18 -6 18 -18v-513c0 -71.333 -17.667 -123.5 -53 -156.5s-82.666 -49.5 -141.999 -49.5c-60 0 -107.667 15.667 -143 47s-53 70.666 -53 117.999zM118 878.001c0 6.66699 3.00098 11.333 9.00098 14l104 56c5.33301 3.33301 11 5 17 5s11.667 -1.66699 17 -5l104 -55
c6 -3.33301 9 -9 9 -17c0 -4.66699 -1.66699 -8.5 -5 -11.5s-7.33301 -4.5 -12 -4.5l-9 3l-104 55l-104 -56c-0.666992 0 -2 -0.5 -4 -1.5s-3.33301 -1.5 -4 -1.5c-4.66699 0 -8.83398 1.83301 -12.501 5.5s-5.5 8.16699 -5.5 13.5z" />
    <glyph glyph-name="jcircumflex" unicode="&#x135;" horiz-adv-x="173" 
d="M-43 619c0 6 3.00098 10.668 9.00098 14.001l104 56c5.33301 3.33301 11 5 17 5s11.667 -1.66699 17 -5l104 -55c6 -2.66699 9 -8.33398 9 -17.001c0 -4.66699 -1.66699 -8.5 -5 -11.5s-7.33301 -4.5 -12 -4.5l-9 3l-104 55l-104 -56c-0.666992 0 -2 -0.5 -4 -1.5
s-3.33301 -1.5 -4 -1.5c-4.66699 0 -8.83398 1.83301 -12.501 5.5s-5.5 8.16699 -5.5 13.5zM-35.999 -218.999c0 11.333 6.00195 16.999 18.002 16.999c35.333 0 58.666 12.833 69.999 38.5s17 64.167 17 115.5v503c0 11.333 5.66699 17 17 17c12 0 18 -5.66699 18 -17v-503
c0 -126 -40.667 -189 -122 -189c-4.66699 0 -8.83398 1.83301 -12.501 5.5s-5.5 7.83398 -5.5 12.501z" />
    <glyph glyph-name="Kcommaaccent" unicode="&#x136;" horiz-adv-x="508" 
d="M83 18l-0.00195312 696.001c0 11.333 6 17 18 17s18 -5.66699 18 -17v-392l323 403c2.66699 4 7.33398 6 14.001 6c4.66699 0 8.83398 -2 12.501 -6s5.5 -8.33301 5.5 -13c0 -4 -1.33301 -7.33301 -4 -10l-231 -287l258 -388c2 -3.33301 3 -6.33301 3 -9
c0 -4.66699 -1.83301 -8.83398 -5.5 -12.501s-8.16699 -5.5 -13.5 -5.5c-6 0 -11 3 -15 9l-251 376l-96 -120v-247c0 -12 -6 -18 -18 -18s-18 6 -18 18zM186.998 -122.999c0 6 2.66699 10.332 8 12.999l102 60c2.66699 1.33301 5 2 7 2c10.667 0 16 -6 16 -18
c0 -8 -3.33301 -14 -10 -18l-95 -54c-3.33301 -2 -6.33301 -3 -9 -3c-5.33301 0 -9.83301 1.83301 -13.5 5.5s-5.5 7.83398 -5.5 12.501z" />
    <glyph glyph-name="kcommaaccent" unicode="&#x137;" horiz-adv-x="437" 
d="M69 18l0.000976562 733.001c0 11.333 5.66699 17 17 17c12 0 18 -5.66699 18 -17v-518l270 235c4 2.66699 7.33301 4 10 4c12.667 0 19 -5.33301 19 -16c0 -6.66699 -2 -11.667 -6 -15l-161 -140l185 -273c2 -2.66699 3 -6 3 -10
c0 -4.66699 -1.66699 -8.83398 -5 -12.501s-7.33301 -5.5 -12 -5.5c-5.33301 0 -10 3 -14 9l-184 269l-105 -92v-168c0 -4.66699 -1.83301 -8.83398 -5.5 -12.501s-7.83398 -5.5 -12.501 -5.5s-8.66699 1.83301 -12 5.5s-5 7.83398 -5 12.501zM153.001 -122.999
c0 6 2.66699 10.332 8 12.999l102 60c2.66699 1.33301 5 2 7 2c10.667 0 16 -6 16 -18c0 -8 -3.33301 -14 -10 -18l-95 -54c-3.33301 -2 -6.33301 -3 -9 -3c-5.33301 0 -9.83301 1.83301 -13.5 5.5s-5.5 7.83398 -5.5 12.501z" />
    <glyph glyph-name="kgreenlandic" unicode="&#x138;" horiz-adv-x="436" 
d="M68 18l0.000976562 437.001c0 11.333 5.66699 17 17 17c12 0 18 -5.66699 18 -17v-222l270 235c4 2.66699 7.33301 4 10 4c12.667 0 19 -5.33301 19 -16c0 -6.66699 -2 -11.667 -6 -15l-161 -140l185 -273c2 -2.66699 3 -6 3 -10
c0 -4.66699 -1.66699 -8.83398 -5 -12.501s-7.33301 -5.5 -12 -5.5c-5.33301 0 -10 3 -14 9l-184 269l-105 -92v-168c0 -4.66699 -1.83301 -8.83398 -5.5 -12.501s-7.83398 -5.5 -12.501 -5.5s-8.66699 1.83301 -12 5.5s-5 7.83398 -5 12.501z" />
    <glyph glyph-name="Lacute" unicode="&#x139;" horiz-adv-x="452" 
d="M83 18v696c0 11.333 6 17 18 17s18 -5.66699 18 -17v-678h304c10 0 15 -6 15 -18s-5 -18 -15 -18h-322c-12 0 -18 6 -18 18zM194 878c0 6 2.66699 10.332 8 12.999l102 60c2.66699 1.33301 5 2 7 2c10.667 0 16 -6 16 -18c0 -8 -3.33301 -14 -10 -18l-95 -54
c-2.66699 -2 -5.66699 -3 -9 -3c-5.33301 0 -9.83301 1.83301 -13.5 5.5s-5.5 7.83398 -5.5 12.501z" />
    <glyph glyph-name="lacute" unicode="&#x13a;" horiz-adv-x="189" 
d="M28 829c0 6 2.66699 10.332 8 12.999l102 60c2.66699 1.33301 5 2 7 2c10.667 0 16 -6 16 -18c0 -8 -3.33301 -14 -10 -18l-95 -54c-2.66699 -2 -5.66699 -3 -9 -3c-5.33301 0 -9.83301 1.83301 -13.5 5.5s-5.5 7.83398 -5.5 12.501zM77 17.999l0.000976562 733
c0 11.333 5.66699 17 17 17c12 0 18 -5.66699 18 -17v-733c0 -4.66699 -1.83301 -8.83398 -5.5 -12.501s-7.83398 -5.5 -12.501 -5.5s-8.66699 1.83301 -12 5.5s-5 7.83398 -5 12.501z" />
    <glyph glyph-name="Lcommaaccent" unicode="&#x13b;" horiz-adv-x="452" 
d="M83 18v696c0 11.333 6 17 18 17s18 -5.66699 18 -17v-678h304c10 0 15 -6 15 -18s-5 -18 -15 -18h-322c-12 0 -18 6 -18 18zM186 -123c0 6 2.66699 10.332 8 12.999l102 60c2.66699 1.33301 5 2 7 2c10.667 0 16 -6 16 -18c0 -8 -3.33301 -14 -10 -18l-95 -54
c-2.66699 -2 -5.66699 -3 -9 -3c-5.33301 0 -9.83301 1.83301 -13.5 5.5s-5.5 7.83398 -5.5 12.501z" />
    <glyph glyph-name="lcommaaccent" unicode="&#x13c;" horiz-adv-x="189" 
d="M31 -123c0 6 2.66699 10.332 8 12.999l102 60c2.66699 1.33301 5 2 7 2c10.667 0 16 -6 16 -18c0 -8 -3.33301 -14 -10 -18l-95 -54c-3.33301 -2 -6.33301 -3 -9 -3c-5.33301 0 -9.83301 1.83301 -13.5 5.5s-5.5 7.83398 -5.5 12.501zM77 17.999l0.000976562 733
c0 11.333 5.66699 17 17 17c12 0 18 -5.66699 18 -17v-733c0 -4.66699 -1.83301 -8.83398 -5.5 -12.501s-7.83398 -5.5 -12.501 -5.5s-8.66699 1.83301 -12 5.5s-5 7.83398 -5 12.501z" />
    <glyph glyph-name="Lcaron" unicode="&#x13d;" horiz-adv-x="453" 
d="M83 18v696c0 11.333 6 17 18 17s18 -5.66699 18 -17v-678h304c10 0 15 -6 15 -18s-5 -18 -15 -18h-322c-12 0 -18 6 -18 18zM288 705c0 10 3.33203 18.499 9.99902 25.499s15.334 10.5 26.001 10.5c9.33301 0 17.5 -3.5 24.5 -10.5s10.5 -15.5 10.5 -25.5
c0 -20.667 -11 -53 -33 -97c-3.33301 -6.66699 -8 -10 -14 -10c-10.667 0 -16 5 -16 15c0 2.66699 0.333008 4.66699 1 6l18 51c-18 4.66699 -27 16.334 -27 35.001z" />
    <glyph glyph-name="lcaron" unicode="&#x13e;" horiz-adv-x="189" 
d="M77 18l0.000976562 733c0 11.333 5.66699 17 17 17c12 0 18 -5.66699 18 -17v-733c0 -4.66699 -1.83301 -8.83398 -5.5 -12.501s-7.83398 -5.5 -12.501 -5.5s-8.66699 1.83301 -12 5.5s-5 7.83398 -5 12.501zM181.001 705c0 10 3.33203 18.499 9.99902 25.499
s15.334 10.5 26.001 10.5c9.33301 0 17.5 -3.5 24.5 -10.5s10.5 -15.5 10.5 -25.5c0 -20.667 -11 -53 -33 -97c-3.33301 -6.66699 -8 -10 -14 -10c-10.667 0 -16 5 -16 15c0 2.66699 0.333008 4.66699 1 6l18 51c-18 4.66699 -27 16.334 -27 35.001z" />
    <glyph glyph-name="Ldot" unicode="&#x13f;" horiz-adv-x="453" 
d="M83 18v696c0 11.333 6 17 18 17s18 -5.66699 18 -17v-678h304c10 0 15 -6 15 -18s-5 -18 -15 -18h-322c-12 0 -18 6 -18 18zM286 421c0 10 3.33203 18.499 9.99902 25.499s15.334 10.5 26.001 10.5c9.33301 0 17.5 -3.5 24.5 -10.5s10.5 -15.5 10.5 -25.5
c0 -9.33301 -3.5 -17.666 -10.5 -24.999s-15.167 -11 -24.5 -11c-10 0 -18.5 3.5 -25.5 10.5s-10.5 15.5 -10.5 25.5z" />
    <glyph glyph-name="ldot" unicode="&#x140;" horiz-adv-x="286" 
d="M77 18l0.000976562 733c0 11.333 5.66699 17 17 17c12 0 18 -5.66699 18 -17v-733c0 -4.66699 -1.83301 -8.83398 -5.5 -12.501s-7.83398 -5.5 -12.501 -5.5s-8.66699 1.83301 -12 5.5s-5 7.83398 -5 12.501zM202.001 300c0 10 3.33203 18.499 9.99902 25.499
s15.334 10.5 26.001 10.5c9.33301 0 17.5 -3.5 24.5 -10.5s10.5 -15.5 10.5 -25.5c0 -9.33301 -3.5 -17.666 -10.5 -24.999s-15.167 -11 -24.5 -11c-10 0 -18.5 3.5 -25.5 10.5s-10.5 15.5 -10.5 25.5z" />
    <glyph glyph-name="Lslash" unicode="&#x141;" horiz-adv-x="458" 
d="M6 286c0 6.66699 3 11.332 9 13.999l74 43v371c0 11.333 6 17 18 17s18 -5.66699 18 -17v-351l115 67c2 1.33301 5 2 9 2c4.66699 0 8.66699 -1.5 12 -4.5s5 -6.83301 5 -11.5c0 -7.33301 -3 -12.666 -9 -15.999l-132 -76v-288h304c10 0 15 -6 15 -18s-5 -18 -15 -18
h-322c-12 0 -18 6 -18 18v285l-57 -33c-2.66699 -2 -5.66699 -3 -9 -3c-4 0 -7.83301 2 -11.5 6s-5.5 8.33301 -5.5 13z" />
    <glyph glyph-name="lslash" unicode="&#x142;" horiz-adv-x="297" 
d="M20 286c0 6.66699 3.00098 11.332 9.00098 13.999l96 55v396c0 11.333 5.66699 17 17 17c12 0 18 -5.66699 18 -17v-376l94 55c2 1.33301 5 2 9 2c4.66699 0 8.66699 -1.5 12 -4.5s5 -6.83301 5 -11.5c0 -7.33301 -3 -12.666 -9 -15.999l-111 -64v-318
c0 -4.66699 -1.83301 -8.83398 -5.5 -12.501s-7.83398 -5.5 -12.501 -5.5s-8.66699 1.83301 -12 5.5s-5 7.83398 -5 12.501v297l-79 -45c-2.66699 -2 -5.66699 -3 -9 -3c-4 0 -7.83301 2 -11.5 6s-5.5 8.33301 -5.5 13z" />
    <glyph glyph-name="Nacute" unicode="&#x143;" horiz-adv-x="557" 
d="M83 18l0.000976562 696c0 11.333 6 17 18 17c7.33301 0 17.666 -12 30.999 -36l306 -606v625c0 11.333 6 17 18 17s18 -5.66699 18 -17v-696c0 -12 -6 -18 -18 -18c-7.33301 0 -17 12 -29 36l-308 607v-625c0 -12 -6 -18 -18 -18s-18 6 -18 18zM212.001 878
c0 6 2.66699 10.332 8 12.999l102 60c2.66699 1.33301 5 2 7 2c10.667 0 16 -6 16 -18c0 -8 -3.33301 -14 -10 -18l-95 -54c-2.66699 -2 -5.66699 -3 -9 -3c-5.33301 0 -9.83301 1.83301 -13.5 5.5s-5.5 7.83398 -5.5 12.501z" />
    <glyph glyph-name="nacute" unicode="&#x144;" horiz-adv-x="481" 
d="M68 18l0.000976562 436.999c0 11.333 5.66699 17 17 17c12 0 18 -5.66699 18 -17v-53c28.667 50.667 73.334 76 134.001 76c49.333 0 91.666 -17.667 126.999 -53s53 -77.666 53 -126.999v-280c0 -12 -6 -18 -18 -18c-11.333 0 -17 6 -17 18v280
c0 37.333 -14.167 70.833 -42.5 100.5s-61.5 44.5 -99.5 44.5c-36 0 -67.833 -13.333 -95.5 -40s-41.5 -61.667 -41.5 -105v-280c0 -4.66699 -1.83301 -8.83398 -5.5 -12.501s-7.83398 -5.5 -12.501 -5.5s-8.66699 1.83301 -12 5.5s-5 7.83398 -5 12.501zM171.001 618.999
c0 6 2.66699 10.332 8 12.999l102 60c2.66699 1.33301 5 2 7 2c10.667 0 16 -6 16 -18c0 -8 -3.33301 -14 -10 -18l-95 -54c-3.33301 -2 -6.33301 -3 -9 -3c-5.33301 0 -9.83301 1.83301 -13.5 5.5s-5.5 7.83398 -5.5 12.501z" />
    <glyph glyph-name="Ncommaaccent" unicode="&#x145;" horiz-adv-x="557" 
d="M83 18l0.000976562 696c0 11.333 6 17 18 17c7.33301 0 17.666 -12 30.999 -36l306 -606v625c0 11.333 6 17 18 17s18 -5.66699 18 -17v-696c0 -12 -6 -18 -18 -18c-7.33301 0 -17 12 -29 36l-308 607v-625c0 -12 -6 -18 -18 -18s-18 6 -18 18zM209.001 -123
c0 6 2.66699 10.332 8 12.999l102 60c2.66699 1.33301 5 2 7 2c10.667 0 16 -6 16 -18c0 -8 -3.33301 -14 -10 -18l-95 -54c-3.33301 -2 -6.33301 -3 -9 -3c-5.33301 0 -9.83301 1.83301 -13.5 5.5s-5.5 7.83398 -5.5 12.501z" />
    <glyph glyph-name="ncommaaccent" unicode="&#x146;" horiz-adv-x="481" 
d="M68 18l0.000976562 436.999c0 11.333 5.66699 17 17 17c12 0 18 -5.66699 18 -17v-53c28.667 50.667 73.334 76 134.001 76c49.333 0 91.666 -17.667 126.999 -53s53 -77.666 53 -126.999v-280c0 -12 -6 -18 -18 -18c-11.333 0 -17 6 -17 18v280
c0 37.333 -14.167 70.833 -42.5 100.5s-61.5 44.5 -99.5 44.5c-36 0 -67.833 -13.333 -95.5 -40s-41.5 -61.667 -41.5 -105v-280c0 -4.66699 -1.83301 -8.83398 -5.5 -12.501s-7.83398 -5.5 -12.501 -5.5s-8.66699 1.83301 -12 5.5s-5 7.83398 -5 12.501zM162.001 -123.001
c0 6 2.66699 10.332 8 12.999l102 60c2.66699 1.33301 5 2 7 2c10.667 0 16 -6 16 -18c0 -8 -3.33301 -14 -10 -18l-95 -54c-2.66699 -2 -5.66699 -3 -9 -3c-5.33301 0 -9.83301 1.83301 -13.5 5.5s-5.5 7.83398 -5.5 12.501z" />
    <glyph glyph-name="Ncaron" unicode="&#x147;" horiz-adv-x="557" 
d="M83 18l0.000976562 696c0 11.333 6 17 18 17c7.33301 0 17.666 -12 30.999 -36l306 -606v625c0 11.333 6 17 18 17s18 -5.66699 18 -17v-696c0 -12 -6 -18 -18 -18c-7.33301 0 -17 12 -29 36l-308 607v-625c0 -12 -6 -18 -18 -18s-18 6 -18 18zM148.001 975
c0 4 1.5 7.5 4.5 10.5s6.5 4.5 10.5 4.5c6 0 11.333 -2.66699 16 -8l98 -103l98 103c4.66699 5.33301 10 8 16 8c4 0 7.5 -1.5 10.5 -4.5s4.5 -6.5 4.5 -10.5s-2.66699 -9.33301 -8 -16l-100 -101c-7.33301 -7.33301 -14.333 -11 -21 -11c-8 0 -15 3.66699 -21 11l-100 101
c-5.33301 6.66699 -8 12 -8 16z" />
    <glyph glyph-name="ncaron" unicode="&#x148;" horiz-adv-x="481" 
d="M68 18l0.000976562 436.999c0 11.333 5.66699 17 17 17c12 0 18 -5.66699 18 -17v-53c28.667 50.667 73.334 76 134.001 76c49.333 0 91.666 -17.667 126.999 -53s53 -77.666 53 -126.999v-280c0 -12 -6 -18 -18 -18c-11.333 0 -17 6 -17 18v280
c0 37.333 -14.167 70.833 -42.5 100.5s-61.5 44.5 -99.5 44.5c-36 0 -67.833 -13.333 -95.5 -40s-41.5 -61.667 -41.5 -105v-280c0 -4.66699 -1.83301 -8.83398 -5.5 -12.501s-7.83398 -5.5 -12.501 -5.5s-8.66699 1.83301 -12 5.5s-5 7.83398 -5 12.501zM107.001 715.999
c0 4 1.5 7.5 4.5 10.5s6.5 4.5 10.5 4.5c6 0 11.333 -2.66699 16 -8l98 -103l98 103c4.66699 5.33301 10 8 16 8c4 0 7.5 -1.5 10.5 -4.5s4.5 -6.5 4.5 -10.5s-2.66699 -9.33301 -8 -16l-100 -101c-7.33301 -7.33301 -14.333 -11 -21 -11c-8 0 -15 3.66699 -21 11l-100 101
c-5.33301 6.66699 -8 12 -8 16z" />
    <glyph glyph-name="Eng" unicode="&#x14a;" horiz-adv-x="557" 
d="M83 18l0.00292969 695.999c0 11.333 6 17 18 17c7.33301 0 17.666 -12 30.999 -36l306 -606v625c0 11.333 6 17 18 17s18 -5.66699 18 -17v-762c0 -126 -40.667 -189 -122 -189c-4.66699 0 -8.83398 1.83301 -12.501 5.5s-5.5 7.83398 -5.5 12.501c0 11.333 6 17 18 17
c35.333 0 58.666 12.833 69.999 38.5s17 64.167 17 115.5v48c0 8 -4 20 -12 36l-308 607v-625c0 -12 -6 -18 -18 -18s-18 6 -18 18z" />
    <glyph glyph-name="eng" unicode="&#x14b;" horiz-adv-x="481" 
d="M68 18l0.00292969 436.998c0 11.333 5.66699 17 17 17c12 0 18 -5.66699 18 -17v-53c28.667 50.667 73.334 76 134.001 76c49.333 0 91.666 -17.667 126.999 -53s53 -77.666 53 -126.999v-346c0 -126 -40.667 -189 -122 -189c-4.66699 0 -8.83398 1.83301 -12.501 5.5
s-5.5 7.83398 -5.5 12.501c0 11.333 6 17 18 17c35.333 0 58.666 12.833 69.999 38.5s17 64.167 17 115.5v346c0 37.333 -14.167 70.833 -42.5 100.5s-61.5 44.5 -99.5 44.5c-36 0 -67.833 -13.333 -95.5 -40s-41.5 -61.667 -41.5 -105v-280
c0 -4.66699 -1.83301 -8.83398 -5.5 -12.501s-7.83398 -5.5 -12.501 -5.5s-8.66699 1.83301 -12 5.5s-5 7.83398 -5 12.501z" />
    <glyph glyph-name="Omacron" unicode="&#x14c;" horiz-adv-x="543" 
d="M76 200v325c0 71.333 17.667 123.5 53 156.5s82.666 49.5 141.999 49.5s106.833 -16.5 142.5 -49.5s53.5 -85.167 53.5 -156.5v-325c0 -71.333 -17.833 -123.5 -53.5 -156.5s-83.167 -49.5 -142.5 -49.5s-106.666 16.5 -141.999 49.5s-53 85.167 -53 156.5zM112 200
c0 -56.667 13.667 -99.167 41 -127.5s66.666 -42.5 117.999 -42.5s90.833 14.167 118.5 42.5s41.5 70.833 41.5 127.5v325c0 56.667 -13.833 99.167 -41.5 127.5s-67.167 42.5 -118.5 42.5s-90.666 -14.167 -117.999 -42.5s-41 -70.833 -41 -127.5v-325zM144 923
c0 12 5.66699 18.001 17 18.001h220c4.66699 0 8.83398 -1.83301 12.501 -5.5s5.5 -7.83398 5.5 -12.501s-1.83301 -8.66699 -5.5 -12s-7.83398 -5 -12.501 -5h-220c-11.333 0 -17 5.66699 -17 17z" />
    <glyph glyph-name="omacron" unicode="&#x14d;" 
d="M50 176l-0.000976562 121.999c0 48 17.5 90 52.5 126s76.5 54 124.5 54s89.667 -17.667 125 -53s53 -77.666 53 -126.999v-122c0 -48 -17.833 -90.333 -53.5 -127s-77.167 -55 -124.5 -55s-88.666 18.333 -123.999 55s-53 79 -53 127zM84.999 175.999
c0 -38 14 -72 42 -102s61.333 -45 100 -45s72.167 15 100.5 45s42.5 64 42.5 102v122c0 37.333 -14 70.833 -42 100.5s-61.667 44.5 -101 44.5s-72.833 -14.833 -100.5 -44.5s-41.5 -63.167 -41.5 -100.5v-122zM99.999 663.999c0 12 5.66699 18.001 17 18.001h220
c4.66699 0 8.83398 -1.83301 12.501 -5.5s5.5 -7.83398 5.5 -12.501s-1.83301 -8.66699 -5.5 -12s-7.83398 -5 -12.501 -5h-220c-11.333 0 -17 5.66699 -17 17z" />
    <glyph glyph-name="Obreve" unicode="&#x14e;" horiz-adv-x="543" 
d="M76 200v325c0 71.333 17.667 123.5 53 156.5s82.666 49.5 141.999 49.5s106.833 -16.5 142.5 -49.5s53.5 -85.167 53.5 -156.5v-325c0 -71.333 -17.833 -123.5 -53.5 -156.5s-83.167 -49.5 -142.5 -49.5s-106.666 16.5 -141.999 49.5s-53 85.167 -53 156.5zM112 200
c0 -56.667 13.667 -99.167 41 -127.5s66.666 -42.5 117.999 -42.5s90.833 14.167 118.5 42.5s41.5 70.833 41.5 127.5v325c0 56.667 -13.833 99.167 -41.5 127.5s-67.167 42.5 -118.5 42.5s-90.666 -14.167 -117.999 -42.5s-41 -70.833 -41 -127.5v-325zM162 969h32
c0 -22.667 7.5 -42.167 22.5 -58.5s33.167 -24.5 54.5 -24.5c20.667 0 38.5 8.16699 53.5 24.5s22.5 35.833 22.5 58.5h33c0 -29.333 -11 -54.833 -33 -76.5s-47.333 -32.5 -76 -32.5c-29.333 0 -54.833 10.833 -76.5 32.5s-32.5 47.167 -32.5 76.5z" />
    <glyph glyph-name="obreve" unicode="&#x14f;" 
d="M50 176l-0.000976562 121.999c0 48 17.5 90 52.5 126s76.5 54 124.5 54s89.667 -17.667 125 -53s53 -77.666 53 -126.999v-122c0 -48 -17.833 -90.333 -53.5 -127s-77.167 -55 -124.5 -55s-88.666 18.333 -123.999 55s-53 79 -53 127zM84.999 175.999
c0 -38 14 -72 42 -102s61.333 -45 100 -45s72.167 15 100.5 45s42.5 64 42.5 102v122c0 37.333 -14 70.833 -42 100.5s-61.667 44.5 -101 44.5s-72.833 -14.833 -100.5 -44.5s-41.5 -63.167 -41.5 -100.5v-122zM117.999 709.999h32c0 -22.667 7.5 -42.167 22.5 -58.5
s33.167 -24.5 54.5 -24.5c20.667 0 38.5 8.16699 53.5 24.5s22.5 35.833 22.5 58.5h33c0 -29.333 -11 -54.833 -33 -76.5s-47.333 -32.5 -76 -32.5c-29.333 0 -54.833 10.833 -76.5 32.5s-32.5 47.167 -32.5 76.5z" />
    <glyph glyph-name="Ohungarumlaut" unicode="&#x150;" horiz-adv-x="543" 
d="M76 200v325c0 71.333 17.667 123.5 53 156.5s82.666 49.5 141.999 49.5s106.833 -16.5 142.5 -49.5s53.5 -85.167 53.5 -156.5v-325c0 -71.333 -17.833 -123.5 -53.5 -156.5s-83.167 -49.5 -142.5 -49.5s-106.666 16.5 -141.999 49.5s-53 85.167 -53 156.5zM112 200
c0 -56.667 13.667 -99.167 41 -127.5s66.666 -42.5 117.999 -42.5s90.833 14.167 118.5 42.5s41.5 70.833 41.5 127.5v325c0 56.667 -13.833 99.167 -41.5 127.5s-67.167 42.5 -118.5 42.5s-90.666 -14.167 -117.999 -42.5s-41 -70.833 -41 -127.5v-325zM171 878
c0 6 2.66699 10.332 8 12.999l102 60c2.66699 1.33301 5 2 7 2c10.667 0 16 -6 16 -18c0 -8 -3.33301 -14 -10 -18l-95 -54c-3.33301 -2 -6.33301 -3 -9 -3c-5.33301 0 -9.83301 1.83301 -13.5 5.5s-5.5 7.83398 -5.5 12.501zM318 877.999c0 6 2.66699 10.332 8 12.999
l102 60c2.66699 1.33301 5 2 7 2c10.667 0 16 -6 16 -18c0 -8 -3.33301 -14 -10 -18l-95 -54c-2.66699 -2 -5.66699 -3 -9 -3c-5.33301 0 -9.83301 1.83301 -13.5 5.5s-5.5 7.83398 -5.5 12.501z" />
    <glyph glyph-name="ohungarumlaut" unicode="&#x151;" 
d="M50 176l-0.000976562 121.999c0 48 17.5 90 52.5 126s76.5 54 124.5 54s89.667 -17.667 125 -53s53 -77.666 53 -126.999v-122c0 -48 -17.833 -90.333 -53.5 -127s-77.167 -55 -124.5 -55s-88.666 18.333 -123.999 55s-53 79 -53 127zM84.999 175.999
c0 -38 14 -72 42 -102s61.333 -45 100 -45s72.167 15 100.5 45s42.5 64 42.5 102v122c0 37.333 -14 70.833 -42 100.5s-61.667 44.5 -101 44.5s-72.833 -14.833 -100.5 -44.5s-41.5 -63.167 -41.5 -100.5v-122zM113.999 618.999c0 6 2.66699 10.332 8 12.999l102 60
c2.66699 1.33301 5 2 7 2c10.667 0 16 -6 16 -18c0 -8 -3.33301 -14 -10 -18l-95 -54c-2.66699 -2 -5.66699 -3 -9 -3c-5.33301 0 -9.83301 1.83301 -13.5 5.5s-5.5 7.83398 -5.5 12.501zM260.999 618.998c0 6 2.66699 10.332 8 12.999l102 60c2.66699 1.33301 5 2 7 2
c10.667 0 16 -6 16 -18c0 -8 -3.33301 -14 -10 -18l-95 -54c-3.33301 -2 -6.33301 -3 -9 -3c-5.33301 0 -9.83301 1.83301 -13.5 5.5s-5.5 7.83398 -5.5 12.501z" />
    <glyph glyph-name="OE" unicode="&#x152;" horiz-adv-x="845" 
d="M76 200v325c0 71.333 17.667 123.5 53 156.5s82.666 49.5 141.999 49.5c74.667 0 128.334 -24 161.001 -72v54c0 12 6 18 18 18h354c11.333 0 17 -5.66699 17 -17c0 -12.667 -5.66699 -19 -17 -19h-338v-311h160c11.333 0 17 -6.33301 17 -19
c0 -11.333 -5.66699 -17 -17 -17h-160v-312h338c11.333 0 17 -6.33301 17 -19c0 -11.333 -5.66699 -17 -17 -17h-354c-12 0 -18 6 -18 18v48c-32.667 -48 -86.334 -72 -161.001 -72c-59.333 0 -106.666 16.5 -141.999 49.5s-53 85.167 -53 156.5zM112 200
c0 -56.667 13.667 -99.167 41 -127.5s66.666 -42.5 117.999 -42.5s90.833 14.167 118.5 42.5s41.5 70.833 41.5 127.5v325c0 56.667 -13.833 99.167 -41.5 127.5s-67.167 42.5 -118.5 42.5s-90.666 -14.167 -117.999 -42.5s-41 -70.833 -41 -127.5v-325z" />
    <glyph glyph-name="oe" unicode="&#x153;" horiz-adv-x="764" 
d="M50 176l-0.00292969 121.999c0 48 17.5 90 52.5 126s76.5 54 124.5 54c33.333 0 64.5 -9.5 93.5 -28.5s51.167 -43.833 66.5 -74.5c14 30.667 35.667 55.5 65 74.5s61.333 28.5 96 28.5c48 0 89.5 -17.167 124.5 -51.5s52.5 -76.5 52.5 -126.5c0 -18 -2 -32.5 -6 -43.5
s-10.5 -18.833 -19.5 -23.5s-17.333 -7.5 -25 -8.5s-18.5 -1.5 -32.5 -1.5h-237v-47c0 -45.333 15.833 -81.166 47.5 -107.499s73.167 -39.5 124.5 -39.5c24 0 43.833 3.5 59.5 10.5s27.5 13.833 35.5 20.5s14.333 10 19 10c12.667 0 19 -6.66699 19 -20
c0 -10.667 -14 -22.667 -42 -36s-60.333 -20 -97 -20c-43.333 0 -81.166 9.33301 -113.499 28s-56.166 44 -71.499 76c-14.667 -30.667 -36.5 -55.667 -65.5 -75s-60.167 -29 -93.5 -29c-47.333 0 -88.666 18.333 -123.999 55s-53 79 -53 127zM84.9971 175.999
c0 -38 14 -72 42 -102s61.333 -45 100 -45s72.167 15 100.5 45s42.5 64 42.5 102v122c0 37.333 -14 70.833 -42 100.5s-61.667 44.5 -101 44.5s-72.833 -14.833 -100.5 -44.5s-41.5 -63.167 -41.5 -100.5v-122zM404.997 257.999l224.999 0.000976562
c24.667 0 40.834 2.33301 48.501 7s11.5 14.667 11.5 30c0 38 -13.333 72.167 -40 102.5s-60.667 45.5 -102 45.5c-39.333 0 -73 -13.833 -101 -41.5s-42 -59.834 -42 -96.501v-47z" />
    <glyph glyph-name="Racute" unicode="&#x154;" horiz-adv-x="509" 
d="M83 18l-0.000976562 695.998c0 10 6 15.667 18 17h167c61.333 0 111 -15 149 -45s57 -78.667 57 -146c0 -113.333 -56 -176.666 -168 -189.999l165 -321c2 -4 3 -7.66699 3 -11c0 -5.33301 -1.66699 -9.66602 -5 -12.999s-7.66602 -5 -12.999 -5
c-2.66699 0 -5.16699 0.666992 -7.5 2s-4.66602 3.66602 -6.99902 6.99902l-5.5 8l-4 11c-2.66699 4.66699 -4.33398 7.33398 -5.00098 8.00098l-160 312h-148v-330c0 -12 -6 -18 -18 -18s-18 6 -18 18zM118.999 383.998l149 0.000976562c52.667 0 94.167 12.667 124.5 38
s45.5 64.666 45.5 117.999s-15.167 92.5 -45.5 117.5s-71.833 37.5 -124.5 37.5h-149v-311zM211.999 877.999c0 6 2.66699 10.332 8 12.999l102 60c2.66699 1.33301 5 2 7 2c10.667 0 16 -6 16 -18c0 -8 -3.33301 -14 -10 -18l-95 -54c-2.66699 -2 -5.66699 -3 -9 -3
c-5.33301 0 -9.83301 1.83301 -13.5 5.5s-5.5 7.83398 -5.5 12.501z" />
    <glyph glyph-name="racute" unicode="&#x155;" horiz-adv-x="308" 
d="M68 18l0.000976562 437.001c0 11.333 5.66699 17 17 17c12 0 18 -5.66699 18 -17v-53c30 50.667 76.333 76 139 76h37c4.66699 0 8.66699 -1.83301 12 -5.5s5 -7.83398 5 -12.501s-1.66699 -8.66699 -5 -12s-7.33301 -5 -12 -5h-37c-37.333 0 -69.833 -13.333 -97.5 -40
s-41.5 -61.667 -41.5 -105v-280c0 -4.66699 -1.83301 -8.83398 -5.5 -12.501s-7.83398 -5.5 -12.501 -5.5s-8.66699 1.83301 -12 5.5s-5 7.83398 -5 12.501zM77.001 619.001c0 6 2.66699 10.332 8 12.999l102 60c2.66699 1.33301 5 2 7 2c10.667 0 16 -6 16 -18
c0 -8 -3.33301 -14 -10 -18l-95 -54c-3.33301 -2 -6.33301 -3 -9 -3c-5.33301 0 -9.83301 1.83301 -13.5 5.5s-5.5 7.83398 -5.5 12.501z" />
    <glyph glyph-name="Rcommaaccent" unicode="&#x156;" horiz-adv-x="509" 
d="M83 18l-0.000976562 695.998c0 10 6 15.667 18 17h167c61.333 0 111 -15 149 -45s57 -78.667 57 -146c0 -113.333 -56 -176.666 -168 -189.999l165 -321c2 -4 3 -7.66699 3 -11c0 -5.33301 -1.66699 -9.66602 -5 -12.999s-7.66602 -5 -12.999 -5
c-2.66699 0 -5.16699 0.666992 -7.5 2s-4.66602 3.66602 -6.99902 6.99902l-5.5 8l-4 11c-2.66699 4.66699 -4.33398 7.33398 -5.00098 8.00098l-160 312h-148v-330c0 -12 -6 -18 -18 -18s-18 6 -18 18zM118.999 383.998l149 0.000976562c52.667 0 94.167 12.667 124.5 38
s45.5 64.666 45.5 117.999s-15.167 92.5 -45.5 117.5s-71.833 37.5 -124.5 37.5h-149v-311zM173.999 -123.001c0 6 2.66699 10.332 8 12.999l102 60c2.66699 1.33301 5 2 7 2c10.667 0 16 -6 16 -18c0 -8 -3.33301 -14 -10 -18l-95 -54c-2.66699 -2 -5.66699 -3 -9 -3
c-5.33301 0 -9.83301 1.83301 -13.5 5.5s-5.5 7.83398 -5.5 12.501z" />
    <glyph glyph-name="rcommaaccent" unicode="&#x157;" horiz-adv-x="308" 
d="M-7 -123c0 6 2.66699 10.332 8 12.999l102 60c2.66699 1.33301 5 2 7 2c10.667 0 16 -6 16 -18c0 -8 -3.33301 -14 -10 -18l-95 -54c-3.33301 -2 -6.33301 -3 -9 -3c-5.33301 0 -9.83301 1.83301 -13.5 5.5s-5.5 7.83398 -5.5 12.501zM68 17.999l0.000976562 437.001
c0 11.333 5.66699 17 17 17c12 0 18 -5.66699 18 -17v-53c30 50.667 76.333 76 139 76h37c4.66699 0 8.66699 -1.83301 12 -5.5s5 -7.83398 5 -12.501s-1.66699 -8.66699 -5 -12s-7.33301 -5 -12 -5h-37c-37.333 0 -69.833 -13.333 -97.5 -40s-41.5 -61.667 -41.5 -105v-280
c0 -4.66699 -1.83301 -8.83398 -5.5 -12.501s-7.83398 -5.5 -12.501 -5.5s-8.66699 1.83301 -12 5.5s-5 7.83398 -5 12.501z" />
    <glyph glyph-name="Rcaron" unicode="&#x158;" horiz-adv-x="509" 
d="M83 18l-0.000976562 695.998c0 10 6 15.667 18 17h167c61.333 0 111 -15 149 -45s57 -78.667 57 -146c0 -113.333 -56 -176.666 -168 -189.999l165 -321c2 -4 3 -7.66699 3 -11c0 -5.33301 -1.66699 -9.66602 -5 -12.999s-7.66602 -5 -12.999 -5
c-2.66699 0 -5.16699 0.666992 -7.5 2s-4.66602 3.66602 -6.99902 6.99902l-5.5 8l-4 11c-2.66699 4.66699 -4.33398 7.33398 -5.00098 8.00098l-160 312h-148v-330c0 -12 -6 -18 -18 -18s-18 6 -18 18zM118.999 383.998l149 0.000976562c52.667 0 94.167 12.667 124.5 38
s45.5 64.666 45.5 117.999s-15.167 92.5 -45.5 117.5s-71.833 37.5 -124.5 37.5h-149v-311zM147.999 974.999c0 4 1.5 7.5 4.5 10.5s6.5 4.5 10.5 4.5c6 0 11.333 -2.66699 16 -8l98 -103l98 103c4.66699 5.33301 10 8 16 8c4 0 7.5 -1.5 10.5 -4.5s4.5 -6.5 4.5 -10.5
s-2.66699 -9.33301 -8 -16l-100 -101c-7.33301 -7.33301 -14.333 -11 -21 -11c-8 0 -15 3.66699 -21 11l-100 101c-5.33301 6.66699 -8 12 -8 16z" />
    </font>
</defs>
</svg>
