<?xml version="1.0" standalone="no"?>
<!DOCTYPE svg PUBLIC "-//W3C//DTD SVG 1.1//EN" "http://www.w3.org/Graphics/SVG/1.1/DTD/svg11.dtd" >
<svg>
<metadata>
Created by FontForge 20090914 at Mon Mar  6 23:10:45 2017
 By www-data
Copyright (c) 2011, Edgar Tolentino, Pablo Impallari, Igino Marini (impallari.com), with Reserved Font Name Dosis.
</metadata>
<defs>
<font id="Dosis-Medium" horiz-adv-x="505" >
  <font-face 
    font-family="Dosis"
    font-weight="500"
    font-stretch="normal"
    units-per-em="1000"
    panose-1="2 1 6 3 2 2 2 6 0 3"
    ascent="800"
    descent="-200"
    x-height="474"
    cap-height="731"
    bbox="-135 -237 1048 1019"
    underline-thickness="26"
    underline-position="-25"
    unicode-range="U+000D-U+FB02"
  />
<missing-glyph horiz-adv-x="353" 
d="M48 92c0 8 2 14.334 6 19.001l83 125l-83 125c-4 5.33301 -6 11.666 -6 18.999c0 8.66699 3.66699 16.167 11 22.5s15.666 9.5 24.999 9.5c10 0 18.667 -4.66699 26 -14l67 -107l67 107c6 9.33301 14.667 14 26 14c9.33301 0 17.5 -3 24.5 -9s10.5 -13.667 10.5 -23
c0 -6.66699 -1.66699 -13 -5 -19l-83 -125l82 -125c4 -6 6 -12.333 6 -19c0 -8.66699 -3.66699 -16 -11 -22s-15.666 -9 -24.999 -9c-12 0 -20.667 4.66699 -26 14l-66 106l-67 -106c-6.66699 -9.33301 -15.334 -14 -26.001 -14c-9.33301 0 -17.666 3 -24.999 9
s-11 13.333 -11 22z" />
    <glyph glyph-name="uniFB01" unicode="fi" horiz-adv-x="524" 
d="M60 29v532c0 54 19.833 100.667 59.5 140s92.834 59 159.501 59c40 0 76.333 -6.5 109 -19.5s49 -28.167 49 -45.5c0 -8.66699 -3 -18.667 -9 -30s-13.333 -17 -22 -17c-4.66699 0 -11.834 3.33301 -21.501 10s-23.5 13.167 -41.5 19.5s-38.667 9.5 -62 9.5
c-46 0 -80.5 -12.167 -103.5 -36.5s-34.5 -53.166 -34.5 -86.499v-90h120c8 0 14.333 -3.33301 19 -10s7 -14.334 7 -23.001s-2.33301 -16.167 -7 -22.5s-11 -9.5 -19 -9.5h-120v-380c0 -8 -4.16699 -14.833 -12.5 -20.5s-18.5 -8.5 -30.5 -8.5
c-11.333 0 -20.833 2.66699 -28.5 8s-11.5 12.333 -11.5 21zM382 30v415c0 8.66699 3.83301 15.667 11.5 21s17.167 8 28.5 8c12 0 22.167 -2.66699 30.5 -8s12.5 -12.333 12.5 -21v-415c0 -8 -4.16699 -15 -12.5 -21s-18.5 -9 -30.5 -9c-11.333 0 -20.833 3 -28.5 9
s-11.5 13 -11.5 21z" />
    <glyph glyph-name="uniFB02" unicode="fl" horiz-adv-x="533" 
d="M60 29l-0.00195312 532c0 60.667 22.667 109 68 145s99 54 161 54c33.333 0 66.333 -5.66699 99 -17s58.334 -27.666 77.001 -48.999v-664c0 -8 -4.16699 -15 -12.5 -21s-18.166 -9 -29.499 -9s-21 3 -29 9s-12 13 -12 21v628c-24.667 22.667 -56.667 34 -96 34
c-38 0 -71.333 -11.667 -100 -35s-43 -54.333 -43 -93v-90h120c8 0 14.333 -3.33301 19 -10s7 -14.334 7 -23.001s-2.33301 -16.167 -7 -22.5s-11 -9.5 -19 -9.5h-120v-380c0 -8 -4.16699 -14.833 -12.5 -20.5s-18.5 -8.5 -30.5 -8.5c-11.333 0 -20.833 2.66699 -28.5 8
s-11.5 12.333 -11.5 21z" />
    <glyph glyph-name=".notdef" horiz-adv-x="353" 
d="M48 92c0 8 2 14.334 6 19.001l83 125l-83 125c-4 5.33301 -6 11.666 -6 18.999c0 8.66699 3.66699 16.167 11 22.5s15.666 9.5 24.999 9.5c10 0 18.667 -4.66699 26 -14l67 -107l67 107c6 9.33301 14.667 14 26 14c9.33301 0 17.5 -3 24.5 -9s10.5 -13.667 10.5 -23
c0 -6.66699 -1.66699 -13 -5 -19l-83 -125l82 -125c4 -6 6 -12.333 6 -19c0 -8.66699 -3.66699 -16 -11 -22s-15.666 -9 -24.999 -9c-12 0 -20.667 4.66699 -26 14l-66 106l-67 -106c-6.66699 -9.33301 -15.334 -14 -26.001 -14c-9.33301 0 -17.666 3 -24.999 9
s-11 13.333 -11 22z" />
    <glyph glyph-name="NULL" horiz-adv-x="0" 
 />
    <glyph glyph-name="NULL" horiz-adv-x="0" 
 />
    <glyph glyph-name="uni000D" unicode="&#xd;" horiz-adv-x="0" 
 />
    <glyph glyph-name="space" unicode=" " horiz-adv-x="200" 
 />
    <glyph glyph-name="exclam" unicode="!" horiz-adv-x="209" 
d="M52 46c0 14.667 5.16699 27.167 15.5 37.5s22.833 15.5 37.5 15.5c14 0 26 -5.16699 36 -15.5s15 -22.833 15 -37.5c0 -14 -5 -26.167 -15 -36.5s-22 -15.5 -36 -15.5c-14.667 0 -27.167 5.16699 -37.5 15.5s-15.5 22.5 -15.5 36.5zM59 698
c0 13.333 4.16504 23.832 12.498 31.499s19.166 11.5 32.499 11.5c12.667 0 23.334 -3.83301 32.001 -11.5s13 -18.167 13 -31.5c0 -51.333 -2 -133.833 -6 -247.5s-6 -196.5 -6 -248.5c0 -8 -3.66699 -14.5 -11 -19.5s-14.666 -7.5 -21.999 -7.5
c-9.33301 0 -17.166 2.33301 -23.499 7s-9.5 11.334 -9.5 20.001c0 52 -2 134.833 -6 248.5s-6 196.167 -6 247.5z" />
    <glyph glyph-name="quotedbl" unicode="&#x22;" horiz-adv-x="279" 
d="M35 743c0 7.33301 3.66895 13.333 11.002 18s15.666 7 24.999 7s17.833 -2.33301 25.5 -7s11.5 -10.667 11.5 -18l-10 -145c0 -7.33301 -2.33301 -13.5 -7 -18.5s-11.334 -7.5 -20.001 -7.5c-17.333 0 -26 8.66699 -26 26zM171.002 743
c0 7.33301 3.66895 13.333 11.002 18s15.666 7 24.999 7s17.833 -2.33301 25.5 -7s11.5 -10.667 11.5 -18l-10 -145c0 -7.33301 -2.33301 -13.5 -7 -18.5s-11.334 -7.5 -20.001 -7.5c-17.333 0 -26 8.66699 -26 26z" />
    <glyph glyph-name="numbersign" unicode="#" horiz-adv-x="609" 
d="M24 275c0 9.33301 2.33301 17.166 7 23.499s10.667 9.5 18 9.5h106l24 149h-91c-18.667 0 -28 10.667 -28 32c0 9.33301 2.33301 17 7 23s10.334 9 17.001 9h107l29 173c2 12.667 13 19 33 19c11.333 0 20.666 -3 27.999 -9s11 -14.667 11 -26l-26 -157h123l28 173
c2 12.667 13 19 33 19c11.333 0 20.833 -3 28.5 -9s11.5 -14.667 11.5 -26l-26 -157h92c7.33301 0 14 -3 20 -9s9 -13.667 9 -23c0 -8.66699 -2.66699 -16.167 -8 -22.5s-11.333 -9.5 -18 -9.5h-106l-25 -149h92c7.33301 0 14 -3.16699 20 -9.5s9 -14.166 9 -23.499
c0 -8.66699 -2.66699 -16 -8 -22s-11.333 -9 -18 -9h-107l-30 -189c-1.33301 -6 -5.5 -11.167 -12.5 -15.5s-14.167 -6.5 -21.5 -6.5c-11.333 0 -21 3 -29 9s-12 14.333 -12 25l29 177h-121l-31 -188c-1.33301 -6.66699 -5.83301 -12.167 -13.5 -16.5
s-14.167 -6.5 -19.5 -6.5c-11.333 0 -20.833 3 -28.5 9s-11.5 14.333 -11.5 25l27 177h-90c-18.667 0 -28 10.333 -28 31zM231 308h121l24 149h-121z" />
    <glyph glyph-name="dollar" unicode="$" horiz-adv-x="506" 
d="M35 115c0 10.667 3.83691 20.998 11.5039 30.998s16.167 15 25.5 15c5.33301 0 12.666 -4 21.999 -12s18.833 -16.833 28.5 -26.5s24.834 -18.667 45.501 -27s44 -13.166 70 -14.499v266l-54 20c-12.667 4.66699 -28.834 12.667 -48.501 24s-34.334 22.833 -44.001 34.5
s-18.5 27.334 -26.5 47.001s-12 41.834 -12 66.501c0 30 5.33301 56.5 16 79.5s25.167 41.167 43.5 54.5s37.833 23.5 58.5 30.5s43 11.5 67 13.5v30c0 5.33301 2.5 10.166 7.5 14.499s11.167 6.5 18.5 6.5c6.66699 0 12.667 -2.16699 18 -6.5s8 -9.16602 8 -14.499v-28
c40 -2 76.333 -8.83301 109 -20.5s49 -26.834 49 -45.501c0 -9.33301 -3.33301 -19.333 -10 -30s-15.334 -16 -26.001 -16c-3.33301 0 -17.333 5.83301 -42 17.5s-51.334 18.167 -80.001 19.5v-228c26 -9.33301 47.5 -18.5 64.5 -27.5s35 -21.333 54 -37
s33.333 -35.667 43 -60s14.5 -52.833 14.5 -85.5c0 -58.667 -15.833 -105 -47.5 -139s-74.5 -54.667 -128.5 -62v-36c0 -5.33301 -2.66699 -10.166 -8 -14.499s-11.333 -6.5 -18 -6.5c-7.33301 0 -13.5 2.16699 -18.5 6.5s-7.5 9.16602 -7.5 14.499v33
c-57.333 0.666992 -105.5 13.667 -144.5 39s-58.5 50 -58.5 74zM133.004 546.998c0 -31.333 9 -54.833 27 -70.5s45.333 -30.167 82 -43.5v210c-72.667 -7.33301 -109 -39.333 -109 -96zM286.004 82.998c66.667 10.667 100 49.001 100 115.001
c0 34.667 -8.66699 61.667 -26 81s-42 35.666 -74 48.999v-245z" />
    <glyph glyph-name="percent" unicode="%" horiz-adv-x="765" 
d="M36 463v150c0 40.667 11.667 70.5 35 89.5s54.666 28.5 93.999 28.5c38.667 0 69.834 -9.5 93.501 -28.5s35.5 -48.833 35.5 -89.5v-150c0 -40.667 -11.833 -70.5 -35.5 -89.5s-54.834 -28.5 -93.501 -28.5c-39.333 0 -70.666 9.5 -93.999 28.5s-35 48.833 -35 89.5z
M96 463c0 -43.333 23 -65 69 -65s69 21.667 69 65v150c0 43.333 -23 65 -69 65s-69 -21.667 -69 -65v-150zM167 0c0 4.66699 1 9 3 13l375 742c4.66699 10 13 15 25 15c8.66699 0 16.5 -3.16699 23.5 -9.5s10.5 -14.166 10.5 -23.499c0 -4.66699 -1 -9.33398 -3 -14.001
l-374 -737c-4.66699 -10.667 -14 -16 -28 -16c-8.66699 0 -16.167 3 -22.5 9s-9.5 13 -9.5 21zM471 115v150c0 40.667 11.667 70.5 35 89.5s54.666 28.5 93.999 28.5c38.667 0 69.834 -9.5 93.501 -28.5s35.5 -48.833 35.5 -89.5v-150c0 -40.667 -11.833 -70.5 -35.5 -89.5
s-54.834 -28.5 -93.501 -28.5c-39.333 0 -70.666 9.5 -93.999 28.5s-35 48.833 -35 89.5zM531 115c0 -43.333 23 -65 69 -65s69 21.667 69 65v150c0 43.333 -23 65 -69 65s-69 -21.667 -69 -65v-150z" />
    <glyph glyph-name="ampersand" unicode="&#x26;" horiz-adv-x="618" 
d="M30 205c0 46 12.6709 86.166 38.0039 120.499s57 60.833 95 79.5c-24.667 28.667 -43.834 56 -57.501 82s-20.5 55.333 -20.5 88c0 53.333 18 95.5 54 126.5s81 46.5 135 46.5c50.667 0 92 -11.833 124 -35.5s48 -45.834 48 -66.501
c0 -10.667 -3.83301 -19.834 -11.5 -27.501s-16.834 -11.5 -27.501 -11.5c-6.66699 0 -13.834 3.83301 -21.501 11.5s-15.167 15.834 -22.5 24.501s-18.666 16.834 -33.999 24.501s-33 11.5 -53 11.5c-32.667 0 -58.834 -9.83301 -78.501 -29.5s-29.5 -46.167 -29.5 -79.5
c0 -20.667 5.66699 -42.167 17 -64.5s22 -39.5 32 -51.5s25.667 -29.667 47 -53l191 -208c19.333 42.667 29.666 99 30.999 169c0.666992 10.667 3.66699 18.334 9 23.001s14.666 7 27.999 7s22.666 -3.33301 27.999 -10s8 -17.334 8 -32.001
c0 -77.333 -17.333 -147.666 -52 -210.999l89 -95c4.66699 -5.33301 7 -11 7 -17c0 -8.66699 -4.16699 -16.667 -12.5 -24s-17.166 -11 -26.499 -11c-7.33301 0 -14.666 3.66699 -21.999 11l-76 80c-50.667 -62 -117.667 -93 -201 -93c-71.333 0 -128.333 20.833 -171 62.5
s-64 92.5 -64 152.5zM115.004 211.999c0 -41.333 14.334 -76.167 43.001 -104.5s68 -42.5 118 -42.5c61.333 0 107.666 23.667 138.999 71l-205 218c-18 -10.667 -32.833 -21.167 -44.5 -31.5s-23 -25.333 -34 -45s-16.5 -41.5 -16.5 -65.5z" />
    <glyph glyph-name="quotesingle" unicode="'" horiz-adv-x="143" 
d="M35 743c0 7.33301 3.66895 13.333 11.002 18s15.666 7 24.999 7s17.833 -2.33301 25.5 -7s11.5 -10.667 11.5 -18l-10 -145c0 -7.33301 -2.33301 -13.5 -7 -18.5s-11.334 -7.5 -20.001 -7.5c-17.333 0 -26 8.66699 -26 26z" />
    <glyph glyph-name="parenleft" unicode="(" horiz-adv-x="310" 
d="M57 155v423.999c0 52.667 19.333 97.334 58 134.001s84 55 136 55c27.333 0 41 -12.333 41 -37c0 -11.333 -2.66699 -20.5 -8 -27.5s-12.333 -10.5 -21 -10.5c-36.667 0 -66.167 -11.5 -88.5 -34.5s-33.5 -49.5 -33.5 -79.5v-424c0 -36.667 12 -62.5 36 -77.5
s52.667 -22.5 86 -22.5c19.333 0 29 -12.667 29 -38c0 -24.667 -14.333 -37 -43 -37c-54 0 -99.5 15.167 -136.5 45.5s-55.5 73.5 -55.5 129.5z" />
    <glyph glyph-name="parenright" unicode=")" horiz-adv-x="310" 
d="M18 17c0 25.333 9.66699 38.001 29 38.001c33.333 0 62 7.5 86 22.5s36 40.833 36 77.5v424c0 30 -11.167 56.5 -33.5 79.5s-51.833 34.5 -88.5 34.5c-8.66699 0 -15.667 3.5 -21 10.5s-8 16.167 -8 27.5c0 24.667 13.667 37 41 37c52 0 97.333 -18.333 136 -55
s58 -81.334 58 -134.001v-424c0 -56 -18.5 -99.167 -55.5 -129.5s-82.833 -45.5 -137.5 -45.5c-28 0 -42 12.333 -42 37z" />
    <glyph glyph-name="asterisk" unicode="*" horiz-adv-x="438" 
d="M28 586c0 8.66699 3.16699 16.501 9.5 23.501s14.166 10.5 23.499 10.5c3.33301 0 6.33301 -0.333008 9 -1l122 -42l-5 125c1.33301 19.333 12 29 32 29c20.667 0 31.667 -9.66699 33 -29l-5 -127l122 44c2 0.666992 5.33301 1 10 1c8 0 15.167 -3.83301 21.5 -11.5
s9.5 -15.834 9.5 -24.501c0 -14.667 -7 -24 -21 -28l-121 -33l79 -107c3.33301 -4.66699 5 -10.334 5 -17.001c0 -9.33301 -3.66699 -17.166 -11 -23.499s-15.666 -9.5 -24.999 -9.5c-10 0 -17.667 4 -23 12l-74 109l-74 -110c-4 -7.33301 -11 -11 -21 -11
c-8 0 -16.167 3 -24.5 9s-12.5 13.333 -12.5 22c0 8 2.33301 14.667 7 20l77 103l-122 36c-14 4 -21 14 -21 30z" />
    <glyph glyph-name="plus" unicode="+" horiz-adv-x="431" 
d="M26 240c0 10 2.66699 18.5 8 25.5s12.333 10.5 21 10.5h124v124c0 8 3.66699 15 11 21s16 9 26 9s18.333 -3 25 -9s10 -13 10 -21v-124h124c8 0 15 -3.5 21 -10.5s9 -15.5 9 -25.5s-3 -18.333 -9 -25s-13 -10 -21 -10h-124v-125c0 -8.66699 -3.16699 -15.667 -9.5 -21
s-14.833 -8 -25.5 -8s-19.5 2.66699 -26.5 8s-10.5 12.333 -10.5 21v125h-124c-8.66699 0 -15.667 3.16699 -21 9.5s-8 14.833 -8 25.5z" />
    <glyph glyph-name="comma" unicode="," horiz-adv-x="176" 
d="M36 46c0 14.667 4.83203 27.167 14.499 37.5s21.834 15.5 36.501 15.5c14 0 26.167 -5 36.5 -15s15.5 -22.667 15.5 -38c0 -12 -14.333 -52.333 -43 -121c-4 -9.33301 -11.333 -14 -22 -14c-7.33301 0 -14 2.16699 -20 6.5s-9 10.166 -9 17.499
c0 4.66699 0.666992 8.33398 2 11.001l21 52c-21.333 8.66699 -32 24.667 -32 48z" />
    <glyph glyph-name="hyphen" unicode="-" horiz-adv-x="413" 
d="M47 240c0 10 2.66699 18.5 8 25.5s12.333 10.5 21 10.5h260c8 0 15 -3.5 21 -10.5s9 -15.5 9 -25.5s-3 -18.333 -9 -25s-13 -10 -21 -10h-260c-19.333 0 -29 11.667 -29 35z" />
    <glyph glyph-name="period" unicode="." horiz-adv-x="176" 
d="M37 46c0 14.667 5 27.167 15 37.5s22.333 15.5 37 15.5c14 0 26 -5.16699 36 -15.5s15 -22.833 15 -37.5c0 -14 -5 -26.167 -15 -36.5s-22 -15.5 -36 -15.5c-14.667 0 -27 5.16699 -37 15.5s-15 22.5 -15 36.5z" />
    <glyph glyph-name="slash" unicode="/" horiz-adv-x="475" 
d="M19 0c0 6 1 10.333 3 13l375 742c4.66699 10 12.667 15 24 15c8.66699 0 16.667 -3.16699 24 -9.5s11 -14.166 11 -23.499c0 -4.66699 -1.33301 -9.33398 -4 -14.001l-373 -737c-4.66699 -10.667 -14 -16 -28 -16c-9.33301 0 -17 3 -23 9s-9 13 -9 21z" />
    <glyph glyph-name="zero" unicode="0" horiz-adv-x="541" 
d="M55 212v301c0 75.333 19.5 130.5 58.5 165.5s91.167 52.5 156.5 52.5s117.666 -17.5 156.999 -52.5s59 -90.167 59 -165.5v-301c0 -75.333 -19.667 -130.5 -59 -165.5s-91.666 -52.5 -156.999 -52.5s-117.5 17.5 -156.5 52.5s-58.5 90.167 -58.5 165.5zM139 212
c0 -94.667 43.667 -142 131 -142c42 0 74.5 11.833 97.5 35.5s34.5 59.167 34.5 106.5v301c0 47.333 -11.5 82.833 -34.5 106.5s-55.5 35.5 -97.5 35.5c-87.333 0 -131 -47.333 -131 -142v-301zM231 362c0 11.333 3.66699 20.666 11 27.999s17 11 29 11
c11.333 0 20.666 -3.66699 27.999 -11s11 -16.666 11 -27.999s-3.66699 -20.833 -11 -28.5s-16.666 -11.5 -27.999 -11.5c-12 0 -21.667 3.83301 -29 11.5s-11 17.167 -11 28.5z" />
    <glyph glyph-name="one" unicode="1" horiz-adv-x="248" 
d="M9 575c0 14 5.99707 25.666 17.9971 34.999l92 109c8.66699 8.66699 17.334 13 26.001 13c9.33301 0 17.833 -2.66699 25.5 -8s11.5 -12.666 11.5 -21.999v-672c0 -9.33301 -4.16699 -16.666 -12.5 -21.999s-18.166 -8 -29.499 -8s-21.166 2.66699 -29.499 8
s-12.5 12.666 -12.5 21.999v576l-37 -55c-6.66699 -7.33301 -13.667 -11 -21 -11c-8.66699 0 -16 3.5 -22 10.5s-9 15.167 -9 24.5z" />
    <glyph glyph-name="two" unicode="2" horiz-adv-x="484" 
d="M32 30l-0.00195312 96.999c0 30 11.5 59.5 34.5 88.5s50.833 55.167 83.5 78.5l97 72c32.667 23.333 60.5 49.5 83.5 78.5s34.5 58.5 34.5 88.5c0 32 -10.5 60 -31.5 84s-51.167 36 -90.5 36c-33.333 0 -60.5 -9.33301 -81.5 -28s-31.5 -45.667 -31.5 -81
c0 -8.66699 -4 -16.334 -12 -23.001s-18.667 -10 -32 -10c-25.333 0 -38 16.333 -38 49c0 50 18.833 91 56.5 123s83.834 48 138.501 48c58.667 0 107.667 -18.5 147 -55.5s59 -83.5 59 -139.5c0 -33.333 -8.16699 -65.333 -24.5 -96s-36.666 -56.667 -60.999 -78
s-50.833 -42.666 -79.5 -63.999l-80 -57c-24 -16.667 -44.167 -35 -60.5 -55s-24.5 -39.667 -24.5 -59v-51h307c8 0 14.833 -3.66699 20.5 -11s8.5 -16.333 8.5 -27c0 -10 -2.83301 -18.833 -8.5 -26.5s-12.5 -11.5 -20.5 -11.5h-356c-8.66699 0 -17.167 2.83301 -25.5 8.5
s-12.5 12.834 -12.5 21.501z" />
    <glyph glyph-name="three" unicode="3" horiz-adv-x="497" 
d="M26 164c0 15.333 2.83496 25.6641 8.50195 30.9971s15.834 8 30.501 8c16 0 27.167 -2.66699 33.5 -8s9.5 -13.666 9.5 -24.999c0 -25.333 10.833 -48.333 32.5 -69s54.5 -31 98.5 -31c89.333 0 134 46 134 138v19c0 81.333 -44.667 122 -134 122
c-19.333 0 -29 11.667 -29 35s9.66699 35 29 35c38.667 0 67.667 8.66699 87 26s29 48.666 29 93.999c0 78 -37.333 117 -112 117c-42.667 0 -72.834 -9.5 -90.501 -28.5s-26.5 -41.5 -26.5 -67.5c0 -24.667 -13.333 -37 -40 -37c-18 0 -29.833 3 -35.5 9
s-8.5 17.333 -8.5 34s3.16699 33.834 9.5 51.501s16.5 35.334 30.5 53.001s35.167 32.167 63.5 43.5s61.5 17 99.5 17c127.333 0 191 -59 191 -177c0 -42 -7.33301 -77.667 -22 -107s-34.334 -49.666 -59.001 -60.999c68 -27.333 102 -80.333 102 -159v-19
c0 -73.333 -20 -127.333 -60 -162s-92.667 -52 -158 -52c-68.667 0 -121.334 17.5 -158.001 52.5s-55 74.167 -55 117.5z" />
    <glyph glyph-name="four" unicode="4" horiz-adv-x="460" 
d="M5 201c0 7.33301 1.66699 13.667 5 19l247 487c8.66699 16 21.334 24 38.001 24c9.33301 0 18.5 -3.16699 27.5 -9.5s13.5 -14.166 13.5 -23.499c0 -4.66699 -1.33301 -9.33398 -4 -14.001l-219 -436h173v168c0 9.33301 4.16699 16.5 12.5 21.5s18.166 7.5 29.499 7.5
s21.166 -2.5 29.499 -7.5s12.5 -12.167 12.5 -21.5v-168h53c9.33301 0 16.666 -4 21.999 -12s8 -17.333 8 -28c0 -10 -3 -19.167 -9 -27.5s-13 -12.5 -21 -12.5h-53v-138c0 -9.33301 -4.16699 -16.666 -12.5 -21.999s-18.166 -8 -29.499 -8s-21.166 2.66699 -29.499 8
s-12.5 12.666 -12.5 21.999v138h-250c-9.33301 0 -16.833 3 -22.5 9s-8.5 14 -8.5 24z" />
    <glyph glyph-name="five" unicode="5" horiz-adv-x="485" 
d="M25 167c0 26.667 14.002 39.999 42.002 39.999s42 -11.333 42 -34c0 -32 12.333 -57.167 37 -75.5s56 -27.5 94 -27.5c42 0 74.5 11.667 97.5 35s34.5 58.333 34.5 105v19c0 45.333 -11.5 79.5 -34.5 102.5s-55.167 34.5 -96.5 34.5h-142c-26 0 -39 11 -39 33
c0 6.66699 0.666992 14 2 22l21 280c1.33301 20 8.66602 30 21.999 30h288c8.66699 0 15.334 -3.83301 20.001 -11.5s7 -16.5 7 -26.5s-2.33301 -18.833 -7 -26.5s-11.334 -11.5 -20.001 -11.5h-237l-15 -219h100c65.333 0 117.5 -16.667 156.5 -50
s58.5 -85.666 58.5 -156.999v-19c0 -74 -19.667 -128.5 -59 -163.5s-91.333 -52.5 -156 -52.5c-66.667 0 -119.334 16.833 -158.001 50.5s-58 74.5 -58 122.5z" />
    <glyph glyph-name="six" unicode="6" horiz-adv-x="526" 
d="M55 212l-0.00195312 301c0 75.333 19.833 130.5 59.5 165.5s92.834 52.5 159.501 52.5s118.667 -17.333 156 -52s56 -75.334 56 -122.001c0 -24.667 -13 -37 -39 -37c-29.333 0 -44 11 -44 33c0 30.667 -12.5 55.334 -37.5 74.001s-56.167 28 -93.5 28
c-88.667 0 -133 -47.333 -133 -142v-140c32 41.333 80.667 62 146 62c134 0 201 -67.333 201 -202v-21c0 -75.333 -19.5 -130.5 -58.5 -165.5s-91.167 -52.5 -156.5 -52.5s-117.666 17.5 -156.999 52.5s-59 90.167 -59 165.5zM138.998 208c0 -94.667 44 -142 132 -142
c87.333 0 131 47.333 131 142v21c0 90.667 -43.667 136 -131 136c-88 0 -132 -42.333 -132 -127v-30z" />
    <glyph glyph-name="seven" unicode="7" horiz-adv-x="470" 
d="M24 550l-0.00292969 150.999c0 7.33301 4 14.166 12 20.499s16.667 9.5 26 9.5h355c8.66699 0 17.167 -3.16699 25.5 -9.5s12.5 -13.166 12.5 -20.499v-93c0 -11.333 -4.66699 -25.666 -14 -42.999l-284 -553c-4.66699 -9.33301 -13.667 -14 -27 -14
s-25.166 3.83301 -35.499 11.5s-15.5 17.167 -15.5 28.5c0 6 1.33301 11.667 4 17l288 543v57h-263v-105c0 -8.66699 -4.16699 -15.834 -12.5 -21.501s-18.166 -8.5 -29.499 -8.5s-21.166 2.83301 -29.499 8.5s-12.5 12.834 -12.5 21.501z" />
    <glyph glyph-name="eight" unicode="8" horiz-adv-x="511" 
d="M40 200l-0.000976562 11.999c0 96 37.333 158.333 112 187c-60.667 24 -91 76 -91 156c0 117.333 65 176 195 176c129.333 0 194 -58.667 194 -176c0 -79.333 -30 -131.333 -90 -156c74 -29.333 111 -91.666 111 -186.999v-12c0 -70.667 -19.5 -122.667 -58.5 -156
s-91.167 -50 -156.5 -50s-117.666 16.667 -156.999 50s-59 85.333 -59 156zM123.999 207.999c0 -94.667 44 -142.001 132 -142.001c42 0 74.333 11.833 97 35.5s34 59.167 34 106.5v16c0 46.667 -11.5 81.334 -34.5 104.001s-55.167 34 -96.5 34c-88 0 -132 -46 -132 -138
v-16zM142.999 546.998c0 -75.333 37.667 -113 113 -113s113 37.667 113 113c0 74.667 -37.667 112 -113 112s-113 -37.333 -113 -112z" />
    <glyph glyph-name="nine" unicode="9" horiz-adv-x="526" 
d="M40 168c0 24.667 13.335 37 40.002 37c29.333 0 44 -11 44 -33c0 -30.667 12.5 -55.334 37.5 -74.001s55.833 -28 92.5 -28c88.667 0 133 47.333 133 142v140c-31.333 -41.333 -80 -62 -146 -62c-134 0 -201 67.333 -201 202v21c0 75.333 19.5 130.5 58.5 165.5
s91.167 52.5 156.5 52.5s117.666 -17.5 156.999 -52.5s59 -90.167 59 -165.5v-301c0 -75.333 -19.833 -130.5 -59.5 -165.5s-92.834 -52.5 -159.501 -52.5s-118.667 17.333 -156 52s-56 75.334 -56 122.001zM124.002 496c0 -90.667 44 -136 132 -136
c87.333 0 131 42.333 131 127v30c0 94.667 -44 142 -132 142c-87.333 0 -131 -47.333 -131 -142v-21z" />
    <glyph glyph-name="colon" unicode=":" horiz-adv-x="209" 
d="M53 46c0 14.667 5 27.167 15 37.5s22.333 15.5 37 15.5c14 0 26 -5.16699 36 -15.5s15 -22.833 15 -37.5c0 -14 -5 -26.167 -15 -36.5s-22 -15.5 -36 -15.5c-14.667 0 -27 5.16699 -37 15.5s-15 22.5 -15 36.5zM53 369c0 14.667 5 27.167 15 37.5s22.333 15.5 37 15.5
c14 0 26 -5.16699 36 -15.5s15 -22.833 15 -37.5c0 -14 -5 -26.167 -15 -36.5s-22 -15.5 -36 -15.5c-14.667 0 -27 5.16699 -37 15.5s-15 22.5 -15 36.5z" />
    <glyph glyph-name="semicolon" unicode=";" horiz-adv-x="215" 
d="M55 46c0 14.667 4.83203 27.167 14.499 37.5s21.834 15.5 36.501 15.5c14 0 26.167 -5 36.5 -15s15.5 -22.667 15.5 -38c0 -12 -14.333 -52.333 -43 -121c-4 -9.33301 -11.333 -14 -22 -14c-7.33301 0 -14 2.16699 -20 6.5s-9 10.166 -9 17.499
c0 4.66699 0.666992 8.33398 2 11.001l21 52c-21.333 8.66699 -32 24.667 -32 48zM57.999 369c0 14.667 5 27.167 15 37.5s22.333 15.5 37 15.5c14 0 26 -5.16699 36 -15.5s15 -22.833 15 -37.5c0 -14 -5 -26.167 -15 -36.5s-22 -15.5 -36 -15.5
c-14.667 0 -27 5.16699 -37 15.5s-15 22.5 -15 36.5z" />
    <glyph glyph-name="less" unicode="&#x3c;" horiz-adv-x="403" 
d="M22 277c0 14 6 25.334 18 34.001l267 175c3.33301 2.66699 7.66602 4 12.999 4c9.33301 0 18.166 -4 26.499 -12s12.5 -17.333 12.5 -28c0 -11.333 -4.33301 -19.333 -13 -24l-225 -149l225 -148c8.66699 -6 13 -14.333 13 -25s-4.16699 -19.834 -12.5 -27.501
s-17.166 -11.5 -26.499 -11.5c-5.33301 0 -9.66602 1.33301 -12.999 4l-267 175c-12 8 -18 19 -18 33z" />
    <glyph glyph-name="equal" unicode="=" horiz-adv-x="438" 
d="M63 160c0 10 2.66699 18.501 8 25.501s12.333 10.5 21 10.5h254c8 0 15 -3.5 21 -10.5s9 -15.5 9 -25.5c0 -10.667 -3 -19.334 -9 -26.001s-13 -10 -21 -10h-254c-19.333 0 -29 12 -29 36zM63 363.001c0 10 2.66699 18.501 8 25.501s12.333 10.5 21 10.5h254
c8 0 15 -3.5 21 -10.5s9 -15.5 9 -25.5c0 -10.667 -3 -19.334 -9 -26.001s-13 -10 -21 -10h-254c-19.333 0 -29 12 -29 36z" />
    <glyph glyph-name="greater" unicode="&#x3e;" horiz-adv-x="403" 
d="M44 104c0 10.667 4.33301 18.999 13 24.999l225 148l-225 149c-8.66699 4.66699 -13 12.667 -13 24c0 10.667 4.16699 20 12.5 28s17.166 12 26.499 12c5.33301 0 9.66602 -1.33301 12.999 -4l267 -175c12 -8.66699 18 -20 18 -34s-6 -25 -18 -33l-267 -175
c-3.33301 -2.66699 -7.66602 -4 -12.999 -4c-9.33301 0 -18.166 3.83301 -26.499 11.5s-12.5 16.834 -12.5 27.501z" />
    <glyph glyph-name="question" unicode="?" horiz-adv-x="408" 
d="M22 653c0 20 15.667 39.666 47 58.999s69.666 29 114.999 29c60.667 0 108.167 -16.5 142.5 -49.5s51.5 -74.833 51.5 -125.5c0 -27.333 -5.5 -53.833 -16.5 -79.5s-22.167 -45 -33.5 -58s-26.666 -28.667 -45.999 -47s-30.666 -29.5 -33.999 -33.5
c-16.667 -16.667 -27.167 -35 -31.5 -55s-6.5 -50.333 -6.5 -91c0 -18 -11.333 -27 -34 -27c-21.333 0 -32 12.333 -32 37c0 80.667 16 137 48 169c4.66699 4.66699 13.5 12.667 26.5 24s23.667 21.333 32 30s17.166 19.334 26.499 32.001s16.5 26.667 21.5 42
s7.5 32 7.5 50c0 36.667 -11 65.167 -33 85.5s-53 30.5 -93 30.5c-20.667 0 -38.5 -2.83301 -53.5 -8.5s-25.667 -12 -32 -19s-13 -13.333 -20 -19s-13.833 -8.5 -20.5 -8.5c-8 0 -15.333 3 -22 9s-10 14 -10 24zM124 45.999c0 14.667 5.16699 27.167 15.5 37.5
s22.5 15.5 36.5 15.5c14.667 0 27 -5.16699 37 -15.5s15 -22.833 15 -37.5c0 -14 -5 -26.167 -15 -36.5s-22.333 -15.5 -37 -15.5c-14 0 -26.167 5.16699 -36.5 15.5s-15.5 22.5 -15.5 36.5z" />
    <glyph glyph-name="at" unicode="@" horiz-adv-x="722" 
d="M49 214c0 102.667 26.8311 186.168 80.498 250.501s134.167 96.5 241.5 96.5c100.667 0 178.334 -28.333 233.001 -85s82 -136.667 82 -240c0 -60.667 -10.5 -110.834 -31.5 -150.501s-53.5 -59.5 -97.5 -59.5c-25.333 0 -47.166 6.5 -65.499 19.5
s-29.5 28.833 -33.5 47.5c-18.667 -20 -37.167 -34.833 -55.5 -44.5s-40.833 -14.5 -67.5 -14.5c-36.667 0 -66.834 9 -90.501 27s-35.5 46 -35.5 84c0 43.333 16.833 73.5 50.5 90.5s82.834 25.5 147.501 25.5h40v18c0 53.333 -31.333 80 -94 80
c-24.667 0 -46.334 -4.16699 -65.001 -12.5s-28.667 -12.5 -30 -12.5c-6.66699 0 -12.5 4 -17.5 12s-7.5 15.333 -7.5 22c0 14.667 13.833 27.167 41.5 37.5s57.5 15.5 89.5 15.5c44.667 0 80.5 -11.167 107.5 -33.5s40.5 -54.166 40.5 -95.499v-167
c2 -15.333 7.66699 -27.333 17 -36s20.333 -13 33 -13c43.333 0 65 50 65 150c0 90 -21.333 159 -64 207s-107 72 -193 72c-48 0 -89.5 -7.83301 -124.5 -23.5s-62.167 -37.334 -81.5 -65.001s-33.5 -58.167 -42.5 -91.5s-13.5 -70 -13.5 -110c0 -37.333 4 -71.5 12 -102.5
s20.5 -59.667 37.5 -86s41 -46.833 72 -61.5s67.5 -22 109.5 -22c34 0 65.333 5 94 15s43.667 15 45 15c6.66699 0 12.334 -3 17.001 -9s7 -11.667 7 -17c0 -15.333 -18.833 -28.833 -56.5 -40.5s-76.167 -17.5 -115.5 -17.5c-37.333 0 -72.5 6.66699 -105.5 20
s-62.833 32.833 -89.5 58.5s-47.667 59.667 -63 102s-23 90.5 -23 144.5zM278.998 145.001c0 -40 22.333 -60 67 -60c29.333 0 53.833 8.66699 73.5 26s29.5 36 29.5 56v49h-36c-44 0 -77.333 -5 -100 -15s-34 -28.667 -34 -56z" />
    <glyph glyph-name="A" unicode="A" horiz-adv-x="550" 
d="M17 35c0 1.33301 0.666992 3.99805 2 7.99805l204 665c6 19.333 23.333 29 52 29s46 -9.66699 52 -29l204 -665c0 -1.33301 0.166992 -2.66602 0.5 -3.99902s0.5 -2.33301 0.5 -3c0 -9.33301 -5.5 -17.666 -16.5 -24.999s-22.833 -11 -35.5 -11
c-16 -0 -26 6.33301 -30 19l-44 149h-263l-44 -149c-4 -12.667 -14.333 -19 -31 -19c-12 -0 -23.5 3.33301 -34.5 10s-16.5 15 -16.5 25zM162 236.998h224l-111 376z" />
    <glyph glyph-name="B" unicode="B" horiz-adv-x="545" 
d="M71 29v672c0 9.33301 3.83301 16.666 11.5 21.999s16.5 8 26.5 8h172c62.667 0 112.167 -12.333 148.5 -37s54.5 -69.334 54.5 -134.001c0 -41.333 -7.5 -76.166 -22.5 -104.499s-35.833 -48.166 -62.5 -59.499c34 -13.333 59.667 -33 77 -59s26 -63 26 -111v-18
c0 -72 -18 -124.667 -54 -158s-84 -50 -144 -50h-195c-11.333 -0 -20.5 2.83301 -27.5 8.5s-10.5 12.5 -10.5 20.5zM155 76h135c85.333 0 128 45.667 128 137v17c0 46 -10.833 79.333 -32.5 100s-53.5 31 -95.5 31h-135v-285zM155 431l125.001 -0.000976562
c41.333 0 71.666 9.33301 90.999 28s29 48.334 29 89.001c0 71.333 -41 107 -123 107h-122v-224z" />
    <glyph glyph-name="C" unicode="C" horiz-adv-x="531" 
d="M64 212l0.00195312 301.001c0 74.667 19.833 129.667 59.5 165s91.5 53 155.5 53c65.333 0 117.666 -16.5 156.999 -49.5s59 -74.5 59 -124.5c0 -18 -3.33301 -30.167 -10 -36.5s-17.334 -9.5 -32.001 -9.5c-26.667 0 -40.667 9.66699 -42 29
c-4 76.667 -47.333 115 -130 115c-88.667 0 -133 -47.333 -133 -142v-301c0 -94.667 45.333 -142 136 -142c26 0 47.667 3.66699 65 11s30.166 18 38.499 32s13.833 26 16.5 36s5 23.333 7 40c2 19.333 16 29 42 29c14.667 0 25.334 -3.33301 32.001 -10s10 -19 10 -37
c0 -50.667 -19.833 -92.834 -59.5 -126.501s-92.167 -50.5 -157.5 -50.5c-63.333 0 -114.833 17.667 -154.5 53s-59.5 90.333 -59.5 165z" />
    <glyph glyph-name="D" unicode="D" horiz-adv-x="566" 
d="M71 29v673c0 8 3.5 14.833 10.5 20.5s16.167 8.5 27.5 8.5h177c65.333 0 117.666 -17.5 156.999 -52.5s59 -90.167 59 -165.5v-295c0 -75.333 -19.667 -130.5 -59 -165.5s-91.666 -52.5 -156.999 -52.5h-177c-11.333 -0 -20.5 2.83301 -27.5 8.5s-10.5 12.5 -10.5 20.5z
M155 76h131c42 0 74.5 11.833 97.5 35.5s34.5 59.167 34.5 106.5v295c0 47.333 -11.5 82.833 -34.5 106.5s-55.5 35.5 -97.5 35.5h-131v-579z" />
    <glyph glyph-name="E" unicode="E" horiz-adv-x="514" 
d="M71 30v671.004c0 9.33301 3.83301 16.666 11.5 21.999s16.5 8 26.5 8h356c9.33301 0 16.5 -3.66699 21.5 -11s7.5 -16 7.5 -26c0 -10.667 -2.66699 -19.834 -8 -27.501s-12.333 -11.5 -21 -11.5h-310v-254h156c8.66699 0 15.667 -3.5 21 -10.5s8 -15.5 8 -25.5
c0 -8.66699 -2.5 -16.5 -7.5 -23.5s-12.167 -10.5 -21.5 -10.5h-156v-255h310c8.66699 0 15.667 -3.83301 21 -11.5s8 -16.834 8 -27.501c0 -10 -2.5 -18.667 -7.5 -26s-12.167 -11 -21.5 -11h-356c-10 0 -18.833 2.66699 -26.5 8s-11.5 12.666 -11.5 21.999z" />
    <glyph glyph-name="F" unicode="F" horiz-adv-x="497" 
d="M71 29l-0.00195312 672c0 9.33301 3.83301 16.666 11.5 21.999s16.5 8 26.5 8h352c9.33301 0 16.5 -3.66699 21.5 -11s7.5 -16 7.5 -26c0 -11.333 -2.5 -20.666 -7.5 -27.999s-12.167 -11 -21.5 -11h-306v-254h156c9.33301 0 16.5 -3.5 21.5 -10.5s7.5 -15.5 7.5 -25.5
c0 -8.66699 -2.5 -16.5 -7.5 -23.5s-12.167 -10.5 -21.5 -10.5h-156v-302c0 -9.33301 -4.16699 -16.5 -12.5 -21.5s-18.166 -7.5 -29.499 -7.5s-21.166 2.5 -29.499 7.5s-12.5 12.167 -12.5 21.5z" />
    <glyph glyph-name="G" unicode="G" horiz-adv-x="548" 
d="M64 212l-0.000976562 301c0 75.333 19.5 130.5 58.5 165.5s90.5 52.5 154.5 52.5c65.333 0 118 -16.5 158 -49.5s60 -76.167 60 -129.5c0 -15.333 -3.5 -26 -10.5 -32s-17.5 -9 -31.5 -9c-27.333 0 -41.333 9.66699 -42 29c-8.66699 76.667 -52.667 115 -132 115
c-87.333 0 -131 -47.333 -131 -142v-301c0 -94.667 43.667 -142 131 -142c42 0 74.5 11.833 97.5 35.5s34.5 59.167 34.5 106.5v102h-119c-9.33301 0 -16.5 3.5 -21.5 10.5s-7.5 15.167 -7.5 24.5s2.66699 17.5 8 24.5s12.333 10.5 21 10.5h174c9.33301 0 16.5 -3 21.5 -9
s7.5 -13.333 7.5 -22v-141c0 -75.333 -19.667 -130.5 -59 -165.5s-91.666 -52.5 -156.999 -52.5s-117.5 17.5 -156.5 52.5s-58.5 90.167 -58.5 165.5z" />
    <glyph glyph-name="H" unicode="H" horiz-adv-x="581" 
d="M71 30v672c0 9.33301 4.16699 16.5 12.5 21.5s18.166 7.5 29.499 7.5s21.166 -2.5 29.499 -7.5s12.5 -12.167 12.5 -21.5v-288h271v288c0 9.33301 4.16699 16.5 12.5 21.5s18.166 7.5 29.499 7.5s21.166 -2.5 29.499 -7.5s12.5 -12.167 12.5 -21.5v-672
c0 -9.33301 -4.16699 -16.666 -12.5 -21.999s-18.166 -8 -29.499 -8s-21.166 2.66699 -29.499 8s-12.5 12.666 -12.5 21.999v314h-271v-314c0 -9.33301 -4.16699 -16.666 -12.5 -21.999s-18.166 -8 -29.499 -8s-21.166 2.66699 -29.499 8s-12.5 12.666 -12.5 21.999z" />
    <glyph glyph-name="I" unicode="I" horiz-adv-x="226" 
d="M71 30v672c0 9.33301 4.16699 16.5 12.5 21.5s18.166 7.5 29.499 7.5s21.166 -2.5 29.499 -7.5s12.5 -12.167 12.5 -21.5v-672c0 -9.33301 -4.16699 -16.666 -12.5 -21.999s-18.166 -8 -29.499 -8s-21.166 2.66699 -29.499 8s-12.5 12.666 -12.5 21.999z" />
    <glyph glyph-name="J" unicode="J" horiz-adv-x="519" 
d="M20 177c0 15.333 3.5 25.999 10.5 31.999s17.5 9 31.5 9c28 0 42 -9.66699 42 -29c0 -35.333 11.5 -64 34.5 -86s55.167 -33 96.5 -33c88 0 132 47.333 132 142v443h-130c-9.33301 0 -16.5 3.66699 -21.5 11s-7.5 16.666 -7.5 27.999c0 24.667 9.66699 37 29 37h176
c10 0 18.833 -2.66699 26.5 -8s11.5 -12.666 11.5 -21.999v-489c0 -75.333 -19.5 -130.5 -58.5 -165.5s-90.5 -52.5 -154.5 -52.5c-65.333 0 -118 16.833 -158 50.5s-60 77.834 -60 132.501z" />
    <glyph glyph-name="K" unicode="K" horiz-adv-x="529" 
d="M71 30l-0.00195312 672.001c0 9.33301 4.16699 16.5 12.5 21.5s18.166 7.5 29.499 7.5s21.166 -2.5 29.499 -7.5s12.5 -12.167 12.5 -21.5v-331l268 348c6 8 14.333 12 25 12s21.334 -4.66699 32.001 -14s16 -19 16 -29c0 -6.66699 -2.33301 -12.667 -7 -18l-204 -255
l238 -360c3.33301 -5.33301 5 -10.333 5 -15c0 -10.667 -5.16699 -20.334 -15.5 -29.001s-21.5 -13 -33.5 -13c-13.333 0 -23.666 5.66699 -30.999 17l-219 329l-74 -93v-221c0 -9.33301 -4.16699 -16.666 -12.5 -21.999s-18.166 -8 -29.499 -8s-21.166 2.66699 -29.499 8
s-12.5 12.666 -12.5 21.999z" />
    <glyph glyph-name="L" unicode="L" horiz-adv-x="468" 
d="M71 30l0.00195312 672.001c0 9.33301 4.16699 16.5 12.5 21.5s18.166 7.5 29.499 7.5s21.166 -2.5 29.499 -7.5s12.5 -12.167 12.5 -21.5v-626h273c8.66699 0 15.334 -3.83301 20.001 -11.5s7 -16.5 7 -26.5s-2.33301 -18.833 -7 -26.5s-11.334 -11.5 -20.001 -11.5h-319
c-10 0 -18.833 2.66699 -26.5 8s-11.5 12.666 -11.5 21.999z" />
    <glyph glyph-name="M" unicode="M" horiz-adv-x="675" 
d="M71 30l-0.00292969 660c0 27.333 14 41 42 41c26.667 0 49 -17.667 67 -53l157 -301l158 301c19.333 35.333 41.666 53 66.999 53c28 0 42 -13.667 42 -41v-660c0 -9.33301 -4.16699 -16.666 -12.5 -21.999s-18.166 -8 -29.499 -8s-21.166 2.66699 -29.499 8
s-12.5 12.666 -12.5 21.999v525l-151 -284c-8 -15.333 -19 -23 -33 -23c-12.667 0 -23 7.66699 -31 23l-150 288v-529c0 -9.33301 -4.16699 -16.666 -12.5 -21.999s-18.166 -8 -29.499 -8s-21.166 2.66699 -29.499 8s-12.5 12.666 -12.5 21.999z" />
    <glyph glyph-name="N" unicode="N" horiz-adv-x="581" 
d="M71 30l-0.000976562 671.999c0 19.333 14 29 42 29c14 0 25.833 -4.16699 35.5 -12.5s19.167 -21.833 28.5 -40.5l249 -487v511c0 9.33301 4.16699 16.5 12.5 21.5s18.166 7.5 29.499 7.5s21.166 -2.5 29.499 -7.5s12.5 -12.167 12.5 -21.5v-672
c0 -9.33301 -4.16699 -16.666 -12.5 -21.999s-18.166 -8 -29.499 -8c-21.333 0 -39 12.667 -53 38l-260 503v-511c0 -9.33301 -4.16699 -16.666 -12.5 -21.999s-18.166 -8 -29.499 -8s-21.166 2.66699 -29.499 8s-12.5 12.666 -12.5 21.999z" />
    <glyph glyph-name="O" unicode="O" horiz-adv-x="559" 
d="M64 212v301c0 75.333 19.5 130.5 58.5 165.5s91.167 52.5 156.5 52.5s117.666 -17.5 156.999 -52.5s59 -90.167 59 -165.5v-301c0 -75.333 -19.667 -130.5 -59 -165.5s-91.666 -52.5 -156.999 -52.5s-117.5 17.5 -156.5 52.5s-58.5 90.167 -58.5 165.5zM148 212
c0 -94.667 43.667 -142 131 -142c42 0 74.5 11.833 97.5 35.5s34.5 59.167 34.5 106.5v301c0 47.333 -11.5 82.833 -34.5 106.5s-55.5 35.5 -97.5 35.5c-87.333 0 -131 -47.333 -131 -142v-301z" />
    <glyph glyph-name="P" unicode="P" horiz-adv-x="535" 
d="M71 30l-0.00292969 672.001c0 8 3.16699 14.833 9.5 20.5s14.5 8.5 24.5 8.5h189c64 0 115.333 -17.333 154 -52s58 -89.334 58 -164.001v-9c0 -74.667 -19.667 -129.5 -59 -164.5s-91.666 -52.5 -156.999 -52.5h-135v-259c0 -9.33301 -4.16699 -16.666 -12.5 -21.999
s-18.166 -8 -29.499 -8s-21.166 2.66699 -29.499 8s-12.5 12.666 -12.5 21.999zM154.997 359.001h135c42 0 74.5 11.833 97.5 35.5s34.5 59.167 34.5 106.5v12c0 47.333 -11.5 82.833 -34.5 106.5s-55.5 35.5 -97.5 35.5h-135v-296z" />
    <glyph glyph-name="Q" unicode="Q" horiz-adv-x="559" 
d="M64 212v300.999c0 75.333 19.5 130.5 58.5 165.5s91.167 52.5 156.5 52.5s117.666 -17.5 156.999 -52.5s59 -90.167 59 -165.5v-301c0 -69.333 -16.667 -121.666 -50 -156.999s-78.333 -55 -135 -59v-75c0 -9.33301 -3 -16.666 -9 -21.999s-13 -8 -21 -8
s-15 2.66699 -21 8s-9 12.666 -9 21.999v75c-57.333 4 -102.666 23.5 -135.999 58.5s-50 87.5 -50 157.5zM148 211.999c0 -81.333 34 -127.333 102 -138v68c0 9.33301 3 16.5 9 21.5s13 7.5 21 7.5s15 -2.5 21 -7.5s9 -12.167 9 -21.5v-67c67.333 9.33301 101 55 101 137
v301c0 47.333 -11.5 82.833 -34.5 106.5s-55.5 35.5 -97.5 35.5c-87.333 0 -131 -47.333 -131 -142v-301z" />
    <glyph glyph-name="R" unicode="R" horiz-adv-x="543" 
d="M71 30l-0.00390625 672.001c0 8 2.83301 14.667 8.5 20s12.834 8.33301 21.501 9h183c66.667 0 120.334 -15.5 161.001 -46.5s61 -82.167 61 -153.5c0 -110 -49.667 -175 -149 -195l148 -281c2.66699 -4.66699 4 -9.33398 4 -14.001c0 -10.667 -5.33301 -20.5 -16 -29.5
s-22 -13.5 -34 -13.5c-14 0 -26.667 11 -38 33l-151 293h-115v-294c0 -9.33301 -4.16699 -16.666 -12.5 -21.999s-18.166 -8 -29.499 -8s-21.166 2.66699 -29.499 8s-12.5 12.666 -12.5 21.999zM154.996 394.001h129c92 0 138 43.667 138 131c0 86.667 -46 130 -138 130
h-129v-261z" />
    <glyph glyph-name="S" unicode="S" horiz-adv-x="502" 
d="M33 105c0 10.667 3.83496 20.9971 11.502 30.9971s16.167 15 25.5 15c6 0 13.667 -4.16699 23 -12.5s19 -17.666 29 -27.999s25.667 -19.666 47 -27.999s45.333 -12.5 72 -12.5c43.333 0 77.333 10.5 102 31.5s37 51.833 37 92.5c0 36.667 -11.333 66.5 -34 89.5
s-50 40.5 -82 52.5s-64.167 24.833 -96.5 38.5s-59.833 34.667 -82.5 63s-34 64.833 -34 109.5c0 34.667 6.66699 64.834 20 90.501s31.166 45 53.499 58s45.5 22.5 69.5 28.5s49.667 9 77 9c41.333 0 80.833 -5.83301 118.5 -17.5s56.5 -27.834 56.5 -48.501
c0 -9.33301 -3.33301 -19.333 -10 -30s-15.334 -16 -26.001 -16c-2.66699 0 -18 6.33301 -46 19s-59 19 -93 19c-40.667 0 -73.5 -8.33301 -98.5 -25s-37.5 -43 -37.5 -79c0 -30.667 11.333 -55.5 34 -74.5s50.167 -34.167 82.5 -45.5s64.5 -24.333 96.5 -39
s59.333 -38.167 82 -70.5s34 -73.5 34 -123.5c0 -69.333 -20 -121.666 -60 -156.999s-93 -53 -159 -53c-59.333 0 -109.5 12.667 -150.5 38s-61.5 50.333 -61.5 75z" />
    <glyph glyph-name="T" unicode="T" horiz-adv-x="494" 
d="M13 693c0 10 2.66504 18.833 7.99805 26.5s12.666 11.5 21.999 11.5h407c9.33301 0 16.666 -3.83301 21.999 -11.5s8 -16.5 8 -26.5c0 -10.667 -2.66699 -20 -8 -28s-12.666 -12 -21.999 -12h-161v-623c0 -9.33301 -4.16699 -16.666 -12.5 -21.999s-18.166 -8 -29.499 -8
s-21.166 2.66699 -29.499 8s-12.5 12.666 -12.5 21.999v623h-162c-9.33301 0 -16.666 3.83301 -21.999 11.5s-8 17.167 -8 28.5z" />
    <glyph glyph-name="U" unicode="U" horiz-adv-x="573" 
d="M68 212l0.00390625 490c0 9.33301 4.16699 16.5 12.5 21.5s18.166 7.5 29.499 7.5s21.166 -2.5 29.499 -7.5s12.5 -12.167 12.5 -21.5v-490c0 -94.667 44.667 -142 134 -142c43.333 0 76.666 11.833 99.999 35.5s35 59.167 35 106.5v490c0 19.333 14 29 42 29
c11.333 0 21.166 -2.5 29.499 -7.5s12.5 -12.167 12.5 -21.5v-490c0 -75.333 -20 -130.5 -60 -165.5s-93 -52.5 -159 -52.5s-118.833 17.5 -158.5 52.5s-59.5 90.167 -59.5 165.5z" />
    <glyph glyph-name="V" unicode="V" horiz-adv-x="549" 
d="M17 696c0 10 5.5 18.3311 16.5 24.998s22.5 10 34.5 10c16.667 0 27 -6.33301 31 -19l176 -594l175 594c4.66699 12.667 14.667 19 30 19c12.667 0 24.5 -3.66699 35.5 -11s16.5 -15.666 16.5 -24.999c0 -0.666992 -0.166992 -1.66699 -0.5 -3
s-0.5 -2.66602 -0.5 -3.99902l-203 -665c-7.33301 -19.333 -25 -29 -53 -29s-45 9.66699 -51 29l-205 665c-1.33301 4 -2 6.66699 -2 8z" />
    <glyph glyph-name="W" unicode="W" horiz-adv-x="813" 
d="M17 697c0 9.33301 5.49902 17.333 16.499 24s22.5 10 34.5 10c16.667 0 27 -6.33301 31 -19l169 -594l95 366c4.66699 17.333 19.334 26 44.001 26c23.333 0 37.333 -8.66699 42 -26l96 -366l168 594c4 12.667 14.667 19 32 19c12 0 23.333 -3.33301 34 -10
s16 -14.667 16 -24c0 -4 -0.333008 -7 -1 -9l-197 -665c-6 -19.333 -23.333 -29 -52 -29c-30 0 -47.333 9.66699 -52 29l-86 330l-87 -330c-5.33301 -19.333 -22.333 -29 -51 -29s-46 9.66699 -52 29l-198 665c-1.33301 4 -2 7 -2 9z" />
    <glyph glyph-name="X" unicode="X" 
d="M20 39c0 6 2.00195 12 6.00195 18l172 309l-168 307c-4.66699 7.33301 -7 14.666 -7 21.999c0 11.333 5.16699 20.5 15.5 27.5s22.166 10.5 35.499 10.5c14 0 26.333 -10.667 37 -32l141 -266l142 266c10.667 21.333 23 32 37 32c13.333 0 25.166 -3.5 35.499 -10.5
s15.5 -16.167 15.5 -27.5c0 -7.33301 -2.33301 -14.666 -7 -21.999l-169 -307l173 -309c4 -6 6 -12 6 -18c0 -10.667 -5.83301 -20.167 -17.5 -28.5s-23.5 -12.5 -35.5 -12.5c-11.333 0 -22 9.33301 -32 28l-148 273l-147 -273c-10 -18.667 -20.667 -28 -32 -28
c-12 0 -23.833 4.16699 -35.5 12.5s-17.5 17.833 -17.5 28.5z" />
    <glyph glyph-name="Y" unicode="Y" horiz-adv-x="545" 
d="M17 696c0 10 5.49805 18.334 16.498 25.001s22.167 10 33.5 10c12 0 22 -7.33301 30 -22l176 -343l175 343c8 14.667 18 22 30 22s23.333 -3.33301 34 -10s16 -15 16 -25c0 -5.33301 -1.33301 -11 -4 -17l-207 -386c-1.33301 -2 -2 -5.33301 -2 -10v-253
c0 -9.33301 -4.16699 -16.666 -12.5 -21.999s-18.166 -8 -29.499 -8s-21.166 2.66699 -29.499 8s-12.5 12.666 -12.5 21.999v253c0 3.33301 -1 6.66602 -3 9.99902l-207 386c-2.66699 6 -4 11.667 -4 17z" />
    <glyph glyph-name="Z" unicode="Z" horiz-adv-x="495" 
d="M21 27c0 8.66699 2.66699 18.333 8 29l323 599h-288c-9.33301 0 -16.5 3.66699 -21.5 11s-7.5 16.333 -7.5 27s2.5 19.667 7.5 27s12.167 11 21.5 11h368c19.333 0 29 -8.33301 29 -25c0 -9.33301 -3.33301 -20 -10 -32l-322 -598h316
c8.66699 0 15.834 -3.83301 21.501 -11.5s8.5 -16.5 8.5 -26.5s-2.83301 -18.833 -8.5 -26.5s-12.834 -11.5 -21.501 -11.5h-395c-19.333 0 -29 9 -29 27z" />
    <glyph glyph-name="bracketleft" unicode="[" horiz-adv-x="314" 
d="M65 8v731c0 8.66699 3.83301 15.667 11.5 21s16.5 8 26.5 8h164c8.66699 0 15.667 -3.66699 21 -11s8 -16 8 -26c0 -10.667 -2.66699 -19.667 -8 -27s-12.333 -11 -21 -11h-118v-639h118c8.66699 0 15.667 -3.66699 21 -11s8 -16.333 8 -27
c0 -10 -2.66699 -18.667 -8 -26s-12.333 -11 -21 -11h-164c-10 0 -18.833 2.66699 -26.5 8s-11.5 12.333 -11.5 21z" />
    <glyph glyph-name="backslash" unicode="\" horiz-adv-x="351" 
d="M21 723c0 8.66699 3.33398 15.999 10.001 21.999s14.667 9 24 9c13.333 0 22 -5.66699 26 -17l247 -698c1.33301 -2 2 -5 2 -9c0 -8 -3.33301 -15 -10 -21s-14.334 -9 -23.001 -9c-14.667 0 -24 6.66699 -28 20l-246 692c-1.33301 2.66699 -2 6.33398 -2 11.001z" />
    <glyph glyph-name="bracketright" unicode="]" horiz-adv-x="314" 
d="M18 16c0 10.667 2.66699 19.667 8 27s12.333 11 21 11h118v639h-118c-8.66699 0 -15.667 3.66699 -21 11s-8 16.333 -8 27c0 10 2.66699 18.667 8 26s12.333 11 21 11h164c10 0 18.833 -2.66699 26.5 -8s11.5 -12.333 11.5 -21v-731
c0 -8.66699 -3.83301 -15.667 -11.5 -21s-16.5 -8 -26.5 -8h-164c-8.66699 0 -15.667 3.66699 -21 11s-8 16 -8 26z" />
    <glyph glyph-name="asciicircum" unicode="^" horiz-adv-x="273" 
d="M0 617c0 12.667 4.99805 21.333 14.998 26l104 56c6.66699 3.33301 12.334 5 17.001 5c6 0 11.667 -1.66699 17 -5l104 -55c10.667 -6 16 -15.333 16 -28c0 -7.33301 -2.16699 -13.833 -6.5 -19.5s-9.83301 -8.5 -16.5 -8.5c-1.33301 0 -3.33301 0.333008 -6 1
c-1.33301 1.33301 -2.66602 2 -3.99902 2l-104 56l-104 -56c-2.66699 -2 -5.66699 -3 -9 -3c-6 0 -11.333 3 -16 9s-7 12.667 -7 20z" />
    <glyph glyph-name="underscore" unicode="_" horiz-adv-x="330" 
d="M-24 -36c0 10 2.66699 18.5 8 25.5s12.333 10.5 21 10.5h320c8 0 15 -3.5 21 -10.5s9 -15.5 9 -25.5s-3 -18.333 -9 -25s-13 -10 -21 -10h-320c-19.333 0 -29 11.667 -29 35z" />
    <glyph glyph-name="grave" unicode="`" horiz-adv-x="168" 
d="M0 670c0 8.66699 2.66699 16.5 8 23.5s12 10.5 20 10.5c2.66699 0 6 -0.666992 10 -2l117 -62c8.66699 -4 13 -11.333 13 -22c0 -8.66699 -3 -16.5 -9 -23.5s-13 -10.5 -21 -10.5c-2 0 -5.66699 1.33301 -11 4l-113 58c-9.33301 4.66699 -14 12.667 -14 24z" />
    <glyph glyph-name="a" unicode="a" horiz-adv-x="448" 
d="M28 125c0 52 19.999 88.167 59.999 108.5s98 30.5 174 30.5h48v21c0 33.333 -9.16699 62.333 -27.5 87s-45.833 37 -82.5 37c-28 0 -52.667 -4.83301 -74 -14.5s-33 -14.5 -35 -14.5c-9.33301 0 -16.833 4.5 -22.5 13.5s-8.5 18.5 -8.5 28.5
c0 15.333 15.167 28.833 45.5 40.5s62.5 17.5 96.5 17.5c65.333 0 113.5 -18.5 144.5 -55.5s46.5 -83.167 46.5 -138.5v-256c0 -8.66699 -3.83301 -15.834 -11.5 -21.501s-17.5 -8.5 -29.5 -8.5c-10.667 0 -19.667 2.83301 -27 8.5s-11 12.834 -11 21.501v40
c-45.333 -52 -95.666 -78 -150.999 -78c-40 0 -72.5 11.333 -97.5 34s-37.5 55.667 -37.5 99zM111.999 134c0 -24.667 7 -43.3311 21 -55.998s32.667 -19 56 -19c28 0 55.167 11.167 81.5 33.5s39.5 45.166 39.5 68.499v52h-35c-19.333 0 -36 -0.5 -50 -1.5
s-28.5 -3 -43.5 -6s-27.333 -7.33301 -37 -13s-17.5 -13.334 -23.5 -23.001s-9 -21.5 -9 -35.5z" />
    <glyph glyph-name="b" unicode="b" horiz-adv-x="494" 
d="M60 30l-0.000976562 701.002c0 8.66699 3.83301 15.667 11.5 21s17.5 8 29.5 8s22 -2.66699 30 -8s12 -12.333 12 -21v-327c12 21.333 29.333 39.333 52 54s49 22 79 22c48.667 0 90.667 -18.833 126 -56.5s53 -82.834 53 -135.501v-102
c0 -50.667 -17.667 -95.667 -53 -135s-76.333 -59 -123 -59c-30 0 -57.667 7.66699 -83 23s-43.666 33.666 -54.999 54.999v-40c0 -8 -3.83301 -15 -11.5 -21s-16.5 -9 -26.5 -9c-11.333 0 -21 3 -29 9s-12 13 -12 21zM142.999 159.002
c0 -16.667 11.6689 -36.166 35.002 -58.499s49.666 -33.5 78.999 -33.5c30 0 56.333 12.167 79 36.5s34 51.833 34 82.5v102c0 30 -11.333 57 -34 81s-49.334 36 -80.001 36c-30 0 -56.333 -10.833 -79 -32.5s-34 -49.834 -34 -84.501v-129z" />
    <glyph glyph-name="c" unicode="c" horiz-adv-x="417" 
d="M42 186v100.001c0 57.333 16.833 104 50.5 140s83.167 54 148.5 54c41.333 0 76.166 -7.33301 104.499 -22s42.5 -30.334 42.5 -47.001c0 -9.33301 -3.5 -18.5 -10.5 -27.5s-15.167 -13.5 -24.5 -13.5c-2.66699 0 -14.167 5.83301 -34.5 17.5s-44.166 17.5 -71.499 17.5
c-40 0 -70.333 -10.333 -91 -31s-31 -50 -31 -88v-100c0 -79.333 41 -119 123 -119c28 0 52.333 6 73 18s32.667 18 36 18c10.667 0 19.5 -4.33301 26.5 -13s10.5 -17.667 10.5 -27c0 -16.667 -14.667 -32.667 -44 -48s-65.333 -23 -108 -23
c-66 0 -115.833 17.833 -149.5 53.5s-50.5 82.5 -50.5 140.5z" />
    <glyph glyph-name="d" unicode="d" horiz-adv-x="494" 
d="M41 186l-0.000976562 101.998c0 52.667 17.667 97.834 53 135.501s77.333 56.5 126 56.5c30 0 56.333 -7.33301 79 -22s40 -32.667 52 -54v327c0 8.66699 4 15.667 12 21s18 8 30 8s21.833 -2.66699 29.5 -8s11.5 -12.333 11.5 -21v-701c0 -8 -4 -15 -12 -21
s-17.667 -9 -29 -9c-10 0 -18.833 3 -26.5 9s-11.5 13 -11.5 21v40c-11.333 -21.333 -29.666 -39.666 -54.999 -54.999s-53 -23 -83 -23c-46.667 0 -87.667 19.667 -123 59s-53 84.333 -53 135zM123.999 185.998c0 -30.667 11.335 -58.168 34.002 -82.501s49 -36.5 79 -36.5
c29.333 0 55.666 11.167 78.999 33.5s35 41.833 35 58.5v129c0 34.667 -11.333 62.834 -34 84.501s-49 32.5 -79 32.5c-30.667 0 -57.334 -12 -80.001 -36s-34 -51 -34 -81v-102z" />
    <glyph glyph-name="e" unicode="e" horiz-adv-x="465" 
d="M41 186v105.001c0 51.333 19.5 95.666 58.5 132.999s85.833 56 140.5 56c52 0 97 -17.5 135 -52.5s57 -78.833 57 -131.5c0 -19.333 -2.33301 -34.833 -7 -46.5s-11.834 -20 -21.501 -25s-18.667 -8.16699 -27 -9.5s-19.5 -2 -33.5 -2h-219v-30
c0 -36.667 13.167 -66 39.5 -88s60.5 -33 102.5 -33c22 0 41.167 3.33301 57.5 10s29.5 13.167 39.5 19.5s18 9.5 24 9.5c9.33301 0 17.333 -4.16699 24 -12.5s10 -16.833 10 -25.5c0 -15.333 -15.167 -31 -45.5 -47s-67.833 -24 -112.5 -24
c-65.333 0 -118.666 17.833 -159.999 53.5s-62 82.5 -62 140.5zM124 269.001h185c17.333 0 29 2.16699 35 6.5s9 12.833 9 25.5c0 30 -11 56.333 -33 79s-49 34 -81 34c-31.333 0 -58.333 -10.5 -81 -31.5s-34 -46.833 -34 -77.5v-36z" />
    <glyph glyph-name="f" unicode="f" horiz-adv-x="315" 
d="M60 29v544.001c0 52 17.5 96.167 52.5 132.5s76.5 54.5 124.5 54.5h35c10.667 0 19 -3.66699 25 -11s9 -16 9 -26s-3 -18.5 -9 -25.5s-14.333 -10.5 -25 -10.5h-21c-30.667 0 -56.167 -10.333 -76.5 -31s-30.833 -46 -31.5 -76v-106h137c8 0 14.333 -3.33301 19 -10
s7 -14.334 7 -23.001s-2.33301 -16.167 -7 -22.5s-11 -9.5 -19 -9.5h-137v-380c0 -8 -4.16699 -14.833 -12.5 -20.5s-18.5 -8.5 -30.5 -8.5c-11.333 0 -20.833 2.66699 -28.5 8s-11.5 12.333 -11.5 21z" />
    <glyph glyph-name="g" unicode="g" horiz-adv-x="457" 
d="M22 -94c0 48.667 26.9971 85.002 80.9971 109.002c-34 12.667 -51 35 -51 67c0 30.667 16.667 55.334 50 74.001c-38 30.667 -57 72.667 -57 126v33c0 48.667 16.333 88.334 49 119.001s75.667 46 129 46c45.333 0 84.333 -13 117 -39c20 43.333 42.667 65 68 65
c10.667 0 19.334 -3.16699 26.001 -9.5s10 -13.5 10 -21.5c0 -10 -5.66699 -17.667 -17 -23c-22.667 -6 -40.667 -20 -54 -42c20.667 -24.667 31 -56.334 31 -95.001v-33c0 -48 -17 -87.667 -51 -119s-77.333 -47 -130 -47c-27.333 0 -52 5 -74 15
c-16.667 -10 -25 -21.333 -25 -34s7.66699 -22.5 23 -29.5s34.333 -11.333 57 -13s47.334 -4.83398 74.001 -9.50098s51.334 -10.667 74.001 -18s41.667 -20.333 57 -39s23 -42.334 23 -71.001c0 -47.333 -18.833 -83.5 -56.5 -108.5s-86.5 -37.5 -146.5 -37.5
s-109.5 12.167 -148.5 36.5s-58.5 57.166 -58.5 98.499zM100.997 -84.998c0 -26 11.501 -46.834 34.501 -62.501s53.833 -23.5 92.5 -23.5c37.333 0 67.166 7.83301 89.499 23.5s33.5 36.5 33.5 62.5c0 10.667 -1.83301 20 -5.5 28s-9.5 14.667 -17.5 20
s-16 9.83301 -24 13.5s-18.333 6.66699 -31 9s-23.167 4 -31.5 5s-19.333 2.16699 -33 3.5s-23.167 2.33301 -28.5 3c-52.667 -17.333 -79 -44.666 -79 -81.999zM125.998 283.001c0 -32 8.83203 -58.335 26.499 -79.002s41.834 -31 72.501 -31c29.333 0 53 10.167 71 30.5
s27 46.5 27 78.5v33c0 30.667 -9 56.334 -27 77.001s-42 31 -72 31c-30.667 0 -54.667 -10.167 -72 -30.5s-26 -46.166 -26 -77.499v-32z" />
    <glyph glyph-name="h" unicode="h" horiz-adv-x="504" 
d="M60 30v701.001c0 8.66699 3.83301 15.667 11.5 21s17.5 8 29.5 8s22 -2.66699 30 -8s12 -12.333 12 -21v-327c11.333 21.333 28.166 39.333 50.499 54s48.833 22 79.5 22c47.333 0 88.5 -18.833 123.5 -56.5s52.5 -82.834 52.5 -135.501v-258
c0 -9.33301 -4.16699 -16.666 -12.5 -21.999s-18.166 -8 -29.499 -8c-10.667 0 -20.167 2.66699 -28.5 8s-12.5 12.666 -12.5 21.999v258c0 30 -11.333 57 -34 81s-49.334 36 -80.001 36c-28.667 0 -54 -10.833 -76 -32.5s-33 -49.834 -33 -84.501v-258
c0 -7.33301 -4.16699 -14.166 -12.5 -20.499s-18.166 -9.5 -29.499 -9.5s-21 3 -29 9s-12 13 -12 21z" />
    <glyph glyph-name="i" unicode="i" horiz-adv-x="201" 
d="M48 652c0 12.667 5 23.667 15 33s22.333 14 37 14c14 0 26 -4.66699 36 -14s15 -20.333 15 -33s-5 -23.834 -15 -33.501s-22 -14.5 -36 -14.5s-26.167 4.83301 -36.5 14.5s-15.5 20.834 -15.5 33.501zM59 30l-0.000976562 414.999c0 8.66699 4 15.667 12 21
s17.667 8 29 8c12 0 22 -2.66699 30 -8s12 -12.333 12 -21v-415c0 -7.33301 -4.16699 -14.166 -12.5 -20.499s-18.166 -9.5 -29.499 -9.5s-21 3 -29 9s-12 13 -12 21z" />
    <glyph glyph-name="j" unicode="j" horiz-adv-x="203" 
d="M-37 -193c0 10.667 3.33301 19.5 10 26.5s14.667 10.5 24 10.5c26 0 43 9.66699 51 29s12 48.333 12 87v485c0 8.66699 3.83301 15.667 11.5 21s17.5 8 29.5 8s22 -2.66699 30 -8s12 -12.333 12 -21v-485c0 -58 -11.333 -104 -34 -138s-57 -51 -103 -51
c-28.667 0 -43 12 -43 36zM49 652c0 12.667 5 23.667 15 33s22.333 14 37 14c14 0 26 -4.66699 36 -14s15 -20.333 15 -33s-5 -23.834 -15 -33.501s-22 -14.5 -36 -14.5s-26.167 4.83301 -36.5 14.5s-15.5 20.834 -15.5 33.501z" />
    <glyph glyph-name="k" unicode="k" horiz-adv-x="467" 
d="M60 30l-0.000976562 700.999c0 8.66699 3.83301 15.667 11.5 21s17.5 8 29.5 8s22 -2.66699 30 -8s12 -12.333 12 -21v-468l228 206c6 4.66699 12 7 18 7c10 0 19.5 -4 28.5 -12s13.5 -17 13.5 -27c0 -8 -3 -14.667 -9 -20l-139 -123l166 -241
c3.33301 -5.33301 5 -10.333 5 -15c0 -10 -5 -19.5 -15 -28.5s-20.333 -13.5 -31 -13.5c-9.33301 0 -17 4.33301 -23 13l-159 233l-83 -74v-138c0 -7.33301 -4.16699 -14.166 -12.5 -20.499s-18.166 -9.5 -29.499 -9.5s-21 3 -29 9s-12 13 -12 21z" />
    <glyph glyph-name="l" unicode="l" horiz-adv-x="219" 
d="M68 30l-0.000976562 700.999c0 8.66699 3.83301 15.667 11.5 21s17.5 8 29.5 8s22 -2.66699 30 -8s12 -12.333 12 -21v-701c0 -7.33301 -4.16699 -14.166 -12.5 -20.499s-18.166 -9.5 -29.499 -9.5s-21 3 -29 9s-12 13 -12 21z" />
    <glyph glyph-name="m" unicode="m" horiz-adv-x="786" 
d="M59 30l-0.00390625 414.998c0 8.66699 3.83301 15.667 11.5 21s17.5 8 29.5 8c10.667 0 19.667 -2.66699 27 -8s11 -12.333 11 -21v-41c12 22 29.5 40.167 52.5 54.5s49.833 21.5 80.5 21.5s58.167 -9.16699 82.5 -27.5s42.5 -42.5 54.5 -72.5
c16.667 32.667 38.667 57.5 66 74.5s56 25.5 86 25.5c46.667 0 86.834 -17.333 120.501 -52s50.5 -81.334 50.5 -140.001v-258c0 -7.33301 -4.16699 -14.166 -12.5 -20.499s-18.166 -9.5 -29.499 -9.5c-10.667 0 -20.167 3.16699 -28.5 9.5s-12.5 13.166 -12.5 20.499v258
c0 36 -10.5 64.5 -31.5 85.5s-45.5 31.5 -73.5 31.5s-52.833 -10.667 -74.5 -32s-32.5 -48.666 -32.5 -81.999v-262c0 -9.33301 -4.16699 -16.5 -12.5 -21.5s-18.166 -7.5 -29.499 -7.5c-10.667 0 -20.167 2.5 -28.5 7.5s-12.5 12.167 -12.5 21.5v261
c0 33.333 -10.167 60.833 -30.5 82.5s-44.833 32.5 -73.5 32.5s-53.667 -10.667 -75 -32s-32 -49.666 -32 -84.999v-258c0 -7.33301 -4.16699 -14.166 -12.5 -20.499s-18.166 -9.5 -29.499 -9.5s-21 3 -29 9s-12 13 -12 21z" />
    <glyph glyph-name="n" unicode="n" horiz-adv-x="503" 
d="M59 30v415.001c0 8.66699 3.83301 15.667 11.5 21s17.5 8 29.5 8c10 0 18.833 -2.83301 26.5 -8.5s11.5 -12.5 11.5 -20.5v-41c10.667 21.333 27.834 39.333 51.501 54s51.167 22 82.5 22c47.333 0 88.5 -18.833 123.5 -56.5s52.5 -82.834 52.5 -135.501v-258
c0 -9.33301 -4.16699 -16.666 -12.5 -21.999s-18.166 -8 -29.499 -8c-10.667 0 -20.167 2.66699 -28.5 8s-12.5 12.666 -12.5 21.999v258c0 30 -11.333 57 -34 81s-49.334 36 -80.001 36c-28.667 0 -54 -10.833 -76 -32.5s-33 -49.834 -33 -84.501v-258
c0 -7.33301 -4.33301 -14.166 -13 -20.499s-18.334 -9.5 -29.001 -9.5c-11.333 0 -21 3 -29 9s-12 13 -12 21z" />
    <glyph glyph-name="o" unicode="o" horiz-adv-x="477" 
d="M41 186l0.00195312 102.001c0 51.333 19.5 96.166 58.5 134.499s85.167 57.5 138.5 57.5s99.666 -19 138.999 -57s59 -83 59 -135v-102c0 -50.667 -19.833 -95.667 -59.5 -135s-85.834 -59 -138.501 -59s-98.667 19.5 -138 58.5s-59 84.167 -59 135.5zM124.002 186.001
c0 -31.333 11.3311 -59 33.998 -83s49.334 -36 80.001 -36c31.333 0 58.333 12.167 81 36.5s34 51.833 34 82.5v102c0 30 -11.333 57 -34 81s-49.667 36 -81 36s-58.166 -12 -80.499 -36s-33.5 -51 -33.5 -81v-102z" />
    <glyph glyph-name="p" unicode="p" horiz-adv-x="494" 
d="M60 -199l-0.00195312 644c0 8.66699 3.83301 15.667 11.5 21s17.167 8 28.5 8s20.666 -2.66699 27.999 -8s11 -12.333 11 -21v-41c12 21.333 29.667 39.333 53 54s50.333 22 81 22c50 0 92.5 -18.833 127.5 -56.5s52.5 -82.834 52.5 -135.501v-102
c0 -50.667 -17.667 -95.667 -53 -135s-76.333 -59 -123 -59c-29.333 0 -56.166 7.5 -80.499 22.5s-42.166 33.5 -53.499 55.5v-269c0 -7.33301 -4.16699 -14.166 -12.5 -20.499s-18.166 -9.5 -29.499 -9.5s-21 3 -29 9s-12 13 -12 21zM142.998 159
c0 -16.667 11.499 -36.166 34.499 -58.499s49.167 -33.5 78.5 -33.5c30 0 56.5 12.167 79.5 36.5s34.5 51.833 34.5 82.5v102c0 30 -11.5 57 -34.5 81s-50.167 36 -81.5 36c-29.333 0 -55.166 -10.833 -77.499 -32.5s-33.5 -49.834 -33.5 -84.501v-129z" />
    <glyph glyph-name="q" unicode="q" horiz-adv-x="494" 
d="M41 186l-0.00195312 102c0 52.667 17.5 97.834 52.5 135.501s77.5 56.5 127.5 56.5c30.667 0 57.667 -7.33301 81 -22s41 -32.667 53 -54v41c0 8.66699 3.66699 15.667 11 21s16.666 8 27.999 8s20.833 -2.66699 28.5 -8s11.5 -12.333 11.5 -21v-644c0 -8 -4 -15 -12 -21
s-17.667 -9 -29 -9s-21.166 3.16699 -29.499 9.5s-12.5 13.166 -12.5 20.499v269c-11.333 -22 -29.166 -40.5 -53.499 -55.5s-51.166 -22.5 -80.499 -22.5c-46.667 0 -87.667 19.667 -123 59s-53 84.333 -53 135zM123.998 186c0 -30.667 11.499 -58.168 34.499 -82.501
s49.5 -36.5 79.5 -36.5c29.333 0 55.5 11.167 78.5 33.5s34.5 41.833 34.5 58.5v129c0 34.667 -11.167 62.834 -33.5 84.501s-48.166 32.5 -77.499 32.5c-31.333 0 -58.5 -12 -81.5 -36s-34.5 -51 -34.5 -81v-102z" />
    <glyph glyph-name="r" unicode="r" horiz-adv-x="344" 
d="M59 30l-0.000976562 414.998c0 8.66699 3.83301 15.667 11.5 21s17.5 8 29.5 8c10.667 0 19.667 -2.66699 27 -8s11 -12.333 11 -21v-47c12 22.667 29.667 42 53 58s49.333 24 78 24h34c8.66699 0 16.167 -3.83301 22.5 -11.5s9.5 -16.5 9.5 -26.5
s-3.16699 -18.667 -9.5 -26s-13.833 -11 -22.5 -11h-34c-34 0 -63.667 -13.667 -89 -41s-38 -62.666 -38 -105.999v-228c0 -7.33301 -4.16699 -14.166 -12.5 -20.499s-18.166 -9.5 -29.499 -9.5s-21 3 -29 9s-12 13 -12 21z" />
    <glyph glyph-name="s" unicode="s" horiz-adv-x="392" 
d="M30 68c0 8.66699 2.83301 17.167 8.5 25.5s12.5 12.5 20.5 12.5c5.33301 0 13 -4 23 -12s24.333 -15.833 43 -23.5s40.667 -11.5 66 -11.5c33.333 0 57.5 6 72.5 18s22.5 27 22.5 45c0 22 -8.33301 39.5 -25 52.5s-37 22.833 -61 29.5s-48 14 -72 22
s-44.333 21.333 -61 40s-25 43.334 -25 74.001c0 38 13.5 70.833 40.5 98.5s68.167 41.5 123.5 41.5c35.333 0 67.666 -5.5 96.999 -16.5s44 -23.5 44 -37.5c0 -8 -3.16699 -17 -9.5 -27s-14.166 -15 -23.499 -15c-2.66699 0 -15.5 4.83301 -38.5 14.5
s-45.833 14.5 -68.5 14.5c-30.667 0 -53.5 -7.16699 -68.5 -21.5s-22.5 -30.5 -22.5 -48.5c0 -18.667 8.33301 -33.334 25 -44.001s37.167 -19 61.5 -25s48.5 -13.333 72.5 -22s44.333 -23.5 61 -44.5s25 -48.167 25 -81.5c0 -41.333 -14.667 -74 -44 -98
s-70.333 -36 -123 -36c-45.333 0 -84 8.16699 -116 24.5s-48 33.5 -48 51.5z" />
    <glyph glyph-name="t" unicode="t" horiz-adv-x="310" 
d="M57 151l0.000976562 515.002c0 8 4.33301 14.833 13 20.5s18 8.5 28 8.5c10.667 0 20.334 -2.83301 29.001 -8.5s13 -12.5 13 -20.5v-192h126c7.33301 0 13.333 -3.33301 18 -10s7 -14.334 7 -23.001s-2.33301 -16.167 -7 -22.5s-10.667 -9.5 -18 -9.5h-126v-258
c0 -28.667 6.16699 -48.834 18.5 -60.501s33.833 -17.5 64.5 -17.5h31c11.333 0 20.166 -3.5 26.499 -10.5s9.5 -15.5 9.5 -25.5s-3.33301 -18.667 -10 -26s-15.334 -11 -26.001 -11h-31c-110.667 -0 -166 50.333 -166 151z" />
    <glyph glyph-name="u" unicode="u" 
d="M55 184l0.000976562 259.998c0 8 4.16699 15 12.5 21s18.166 9 29.499 9c10.667 0 20.167 -3.16699 28.5 -9.5s12.5 -13.166 12.5 -20.499v-260c0 -30 11.333 -57 34 -81s49.667 -36 81 -36c30.667 0 57.334 11.833 80.001 35.5s34 50.834 34 81.501v261
c0 7.33301 4.16699 14 12.5 20s18.166 9 29.499 9c12 0 21.833 -2.83301 29.5 -8.5s11.5 -12.5 11.5 -20.5v-261c0 -51.333 -19.5 -96.166 -58.5 -134.499s-85.167 -57.5 -138.5 -57.5c-54 0 -100.5 19.167 -139.5 57.5s-58.5 83.166 -58.5 134.499z" />
    <glyph glyph-name="v" unicode="v" horiz-adv-x="437" 
d="M12 440c0 9.33301 5.83203 17.665 17.499 24.998s23.5 11 35.5 11c14 0 23 -5.33301 27 -16l127 -340l125 336c5.33301 13.333 14.333 20 27 20c10.667 0 22.334 -3.66699 35.001 -11s19 -15.666 19 -24.999c0 -5.33301 -1.33301 -10.666 -4 -15.999l-164 -415
c-5.33301 -12 -18 -18 -38 -18c-20.667 0 -33.667 6 -39 18l-164 415c-2.66699 8 -4 13.333 -4 16z" />
    <glyph glyph-name="w" unicode="w" horiz-adv-x="675" 
d="M14 440c0 10 5.49805 18.499 16.498 25.499s22.5 10.5 34.5 10.5c14 0 23 -5.33301 27 -16l121 -336l94 303c4.66699 13.333 15 20 31 20c16.667 0 27.334 -6.66699 32.001 -20l92 -306l122 339c3.33301 10.667 12 16 26 16c12 0 23.667 -3.5 35 -10.5s17 -15.5 17 -25.5
c0 -5.33301 -1.33301 -10.666 -4 -15.999l-156 -415c-4.66699 -12 -15.667 -18 -33 -18c-18 0 -29.333 6 -34 18l-97 294l-95 -291c-4.66699 -14 -16.667 -21 -36 -21c-17.333 0 -28.666 7 -33.999 21l-155 412c-2.66699 8 -4 13.333 -4 16z" />
    <glyph glyph-name="x" unicode="x" horiz-adv-x="426" 
d="M24 33c0 6 1.66797 11.667 5.00098 17l129 190l-124 182c-4 5.33301 -6 10.666 -6 15.999c0 10 6 19.5 18 28.5s23.667 13.5 35 13.5c9.33301 0 16.666 -4 21.999 -12l110 -172l112 172c4.66699 8 12 12 22 12c10.667 0 22 -4.66699 34 -14s18 -18.666 18 -27.999
c0 -5.33301 -1.66699 -10.666 -5 -15.999l-126 -182l130 -190c3.33301 -4.66699 5 -10.334 5 -17.001c0 -8.66699 -5.66699 -17.667 -17 -27s-22.666 -14 -33.999 -14c-10.667 0 -18.334 4 -23.001 12l-116 177l-115 -177c-5.33301 -8 -13 -12 -23 -12s-21 4.5 -33 13.5
s-18 18.167 -18 27.5z" />
    <glyph glyph-name="y" unicode="y" horiz-adv-x="437" 
d="M12 440c0 10.667 6 19.9971 18 27.9971s24 12 36 12c14 0 23 -5.66699 27 -17l132 -348l119 348c4.66699 11.333 13.334 17 26.001 17c11.333 0 23.166 -4 35.499 -12s18.5 -17.667 18.5 -29c0 -3.33301 -1 -6.66602 -3 -9.99902l-152 -407l-19 -50
c-3.33301 -9.33301 -10 -25.333 -20 -48s-18.333 -39 -25 -49s-16 -23.167 -28 -39.5s-23.667 -28.166 -35 -35.499s-24.833 -14 -40.5 -20s-32.167 -9 -49.5 -9c-26 0 -39 12.333 -39 37c0 24 8 36 24 36c30 0 59.167 16.833 87.5 50.5s47.5 76.834 57.5 129.501l-166 405
c-2.66699 4 -4 7.66699 -4 11z" />
    <glyph glyph-name="z" unicode="z" horiz-adv-x="411" 
d="M23 31c0 10.667 4.33301 21.667 13 33l231 339h-207c-7.33301 0 -13.833 3.5 -19.5 10.5s-8.5 15.167 -8.5 24.5c0 10 2.66699 18.5 8 25.5s12 10.5 20 10.5h286c8 0 15 -3 21 -9s9 -13.667 9 -23c0 -11.333 -4 -22 -12 -32l-232 -339h229
c7.33301 0 13.833 -3.5 19.5 -10.5s8.5 -15.5 8.5 -25.5s-2.66699 -18.333 -8 -25s-12 -10 -20 -10h-307c-10 0 -17.667 3.16699 -23 9.5s-8 13.5 -8 21.5z" />
    <glyph glyph-name="braceleft" unicode="{" horiz-adv-x="325" 
d="M28 385c0 10.667 3.16797 18.501 9.50098 23.501s13.166 8 20.499 9s14.166 3.16699 20.499 6.5s9.5 9 9.5 17c0 5.33301 -3.16699 30.5 -9.5 75.5s-9.5 73.167 -9.5 84.5c0 44 19.5 82.833 58.5 116.5s83.833 50.5 134.5 50.5c15.333 0 26.666 -3.66699 33.999 -11
s11 -16 11 -26c0 -9.33301 -2.66699 -17.666 -8 -24.999s-12.333 -11 -21 -11c-32.667 0 -61.667 -10 -87 -30s-38 -44.667 -38 -74c0 -10 3.16699 -37.167 9.5 -81.5s9.5 -69.833 9.5 -76.5c0 -11.333 -4.16699 -21.833 -12.5 -31.5s-16.166 -15.5 -23.499 -17.5
c7.33301 -2 15.166 -7.5 23.499 -16.5s12.5 -19.5 12.5 -31.5c0 -7.33301 -3.16699 -38.833 -9.5 -94.5s-9.5 -88.834 -9.5 -99.501c0 -30.667 13.667 -53.167 41 -67.5s55.333 -21.5 84 -21.5c10 0 17.333 -3.83301 22 -11.5s7 -15.834 7 -24.501
c0 -24.667 -15.333 -37 -46 -37c-52 0 -97 14.667 -135 44s-57 66.333 -57 111c0 12.667 3.16699 46.667 9.5 102s9.5 86 9.5 92c0 8 -3.16699 13.667 -9.5 17s-13.166 5.33301 -20.499 6s-14.166 3.66699 -20.499 9s-9.5 13.333 -9.5 24z" />
    <glyph glyph-name="bar" unicode="|" horiz-adv-x="213" 
d="M65 8l0.00195312 731c0 8.66699 4 15.667 12 21s18 8 30 8c11.333 0 21.166 -2.83301 29.499 -8.5s12.5 -12.5 12.5 -20.5v-731c0 -7.33301 -4.33301 -14 -13 -20s-18.334 -9 -29.001 -9c-12 0 -22 2.83301 -30 8.5s-12 12.5 -12 20.5z" />
    <glyph glyph-name="braceright" unicode="}" horiz-adv-x="325" 
d="M18 17c0 24 9.66699 36 29 36c28.667 0 56.667 7.16699 84 21.5s41 36.833 41 67.5c0 10.667 -3.16699 43.834 -9.5 99.501s-9.5 87.167 -9.5 94.5c0 12 4 22.5 12 31.5s16 14.5 24 16.5c-7.33301 2 -15.166 7.83301 -23.499 17.5s-12.5 20.167 -12.5 31.5
c0 6.66699 3.16699 32.167 9.5 76.5s9.5 71.5 9.5 81.5c0 29.333 -12.833 54 -38.5 74s-54.5 30 -86.5 30c-8.66699 0 -15.667 3.66699 -21 11s-8 15.666 -8 24.999c0 10 3.66699 18.667 11 26s18.666 11 33.999 11c50.667 0 95.5 -16.833 134.5 -50.5
s58.5 -72.5 58.5 -116.5c0 -11.333 -3.16699 -39.5 -9.5 -84.5s-9.5 -70.167 -9.5 -75.5c0 -8 3.16699 -13.667 9.5 -17s13.166 -5.5 20.499 -6.5s14.166 -4 20.499 -9s9.5 -12.833 9.5 -23.5s-3.16699 -18.667 -9.5 -24s-13.166 -8.33301 -20.499 -9
s-14.166 -2.66699 -20.499 -6s-9.5 -9 -9.5 -17c0 -6 3.16699 -36.667 9.5 -92s9.5 -89.333 9.5 -102c0 -44.667 -19 -81.667 -57 -111s-83 -44 -135 -44c-30.667 0 -46 12.333 -46 37z" />
    <glyph glyph-name="asciitilde" unicode="~" horiz-adv-x="402" 
d="M41 244c0 19.333 9.83496 34.334 29.502 45.001s38.834 16 57.501 16c18 0 40.667 -5.5 68 -16.5s49.666 -16.5 66.999 -16.5c16.667 0 32 4.5 46 13.5s23 13.5 27 13.5c7.33301 0 13.166 -3.16699 17.499 -9.5s6.5 -12.5 6.5 -18.5
c0 -20.667 -9.33301 -35.834 -28 -45.501s-37.334 -14.5 -56.001 -14.5c-20 0 -43.333 5.5 -70 16.5s-48.667 16.5 -66 16.5c-16.667 0 -32.5 -4.83301 -47.5 -14.5s-24.5 -14.5 -28.5 -14.5c-7.33301 0 -13 3.16699 -17 9.5s-6 12.833 -6 19.5z" />
    <glyph glyph-name="uni00A0" unicode="&#xa0;" horiz-adv-x="200" 
 />
    <glyph glyph-name="exclamdown" unicode="&#xa1;" horiz-adv-x="206" 
d="M50 689c0 14 5 26.167 15 36.5s22.333 15.5 37 15.5s27 -5.16699 37 -15.5s15 -22.5 15 -36.5c0 -14.667 -5 -27.167 -15 -37.5s-22.333 -15.5 -37 -15.5s-27 5.16699 -37 15.5s-15 22.833 -15 37.5zM58 37c0 52 2.00098 134.667 6.00098 248s6 196 6 248
c0 8.66699 3.33301 15.334 10 20.001s14 7 22 7c9.33301 0 17.166 -2.33301 23.499 -7s9.5 -11.334 9.5 -20.001c0 -52 2.16699 -134.667 6.5 -248s6.5 -196 6.5 -248c0 -13.333 -4.33301 -23.833 -13 -31.5s-19.667 -11.5 -33 -11.5c-12.667 0 -23.167 3.83301 -31.5 11.5
s-12.5 18.167 -12.5 31.5z" />
    <glyph glyph-name="cent" unicode="&#xa2;" horiz-adv-x="418" 
d="M32 358l-0.000976562 20.001c0 51.333 13.5 94.333 40.5 129s67.5 55.334 121.5 62.001v99c0 7.33301 2.83301 13.5 8.5 18.5s12.167 7.5 19.5 7.5c8 0 14.833 -2.5 20.5 -7.5s8.5 -11.167 8.5 -18.5v-98c36 -2.66699 66.667 -10.5 92 -23.5s38 -27.167 38 -42.5
c0 -10 -3.5 -19.167 -10.5 -27.5s-15.167 -12.5 -24.5 -12.5c-2.66699 0 -13.167 5.33301 -31.5 16s-39.5 16.667 -63.5 18v-259c24 1.33301 45 7.33301 63 18s28.667 16 32 16c10.667 0 19.667 -4 27 -12s11 -17 11 -27c0 -16 -13.333 -30.667 -40 -44
s-57.667 -21.333 -93 -24v-99c0 -6.66699 -3 -12.834 -9 -18.501s-12.667 -8.5 -20 -8.5s-13.833 2.66699 -19.5 8s-8.5 11.666 -8.5 18.999v100c-53.333 6 -93.666 26.333 -120.999 61s-41 78 -41 130zM106.999 358.001c0 -66 29 -105.333 87 -118v256
c-58 -12.667 -87 -52 -87 -118v-20z" />
    <glyph glyph-name="sterling" unicode="&#xa3;" horiz-adv-x="502" 
d="M23 38c0 10.667 2.5 19.6689 7.5 27.002s12.167 11 21.5 11h57l41 291h-71c-8 0 -14.167 3.16699 -18.5 9.5s-6.5 13.833 -6.5 22.5c0 9.33301 2.33301 17.166 7 23.499s10.667 9.5 18 9.5h80l20 140c8 54.667 34.333 101 79 139s95 57 151 57h24
c9.33301 0 17 -3.83301 23 -11.5s9 -16.5 9 -26.5c0 -9.33301 -3 -17.833 -9 -25.5s-13.667 -11.5 -23 -11.5h-29c-37.333 0 -69 -11.667 -95 -35s-41.667 -52 -47 -86l-20 -140h141c7.33301 0 13.333 -3.33301 18 -10s7 -14.334 7 -23.001s-2.33301 -16.167 -7 -22.5
s-10.667 -9.5 -18 -9.5h-150l-42 -291h246c8.66699 0 15.5 -3.83301 20.5 -11.5s7.5 -16.5 7.5 -26.5s-2.5 -18.833 -7.5 -26.5s-11.833 -11.5 -20.5 -11.5h-385c-9.33301 0 -16.5 3.66699 -21.5 11s-7.5 16.333 -7.5 27z" />
    <glyph glyph-name="currency" unicode="&#xa4;" horiz-adv-x="470" 
d="M58 324c0 4.66699 1.66699 8.66504 5 11.998l31 30c-23.333 32 -35 67.333 -35 106c0 39.333 11.667 74.333 35 105l-26 26c-4 4 -6 8.33301 -6 13c0 6 2.5 11.333 7.5 16s10.167 7 15.5 7c4 0 8.33301 -1.66699 13 -5l25 -25c32 28.667 69.667 43 113 43
c40 0 76.667 -13.333 110 -40l26 26c4.66699 3.33301 9 5 13 5c6 0 11.333 -2.33301 16 -7s7 -10 7 -16c0 -4 -1.66699 -8.33301 -5 -13l-28 -26c26 -31.333 39 -67.666 39 -108.999c0 -39.333 -13 -75.666 -39 -108.999l28 -27c3.33301 -4.66699 5 -8.66699 5 -12
c0 -5.33301 -2.33301 -10.5 -7 -15.5s-10 -7.5 -16 -7.5c-5.33301 0 -9.33301 1.66699 -12 5l-27 26c-33.333 -28 -70 -42 -110 -42c-41.333 0 -79 14.667 -113 44l-30 -28c-3.33301 -3.33301 -7.33301 -5 -12 -5c-6 0 -11.333 2.33301 -16 7s-7 10 -7 16zM114 471.998
c0 -33.333 12.001 -62.833 36.001 -88.5s52.667 -38.5 86 -38.5s62.166 12.833 86.499 38.5s36.5 55.167 36.5 88.5c0 32 -12 60.833 -36 86.5s-53 38.5 -87 38.5c-33.333 0 -62 -12.667 -86 -38s-36 -54.333 -36 -87z" />
    <glyph glyph-name="yen" unicode="&#xa5;" horiz-adv-x="520" 
d="M23 698c0 8.66699 5.16797 16.8369 15.501 24.5039s21.166 11.5 32.499 11.5s20.333 -7 27 -21l160 -308l165 308c7.33301 14 16.333 21 27 21c11.333 0 22 -3.83301 32 -11.5s15 -15.834 15 -24.501c0 -5.33301 -0.666992 -9 -2 -11l-177 -313h93
c7.33301 0 14.166 -3.33301 20.499 -10s9.5 -14.334 9.5 -23.001s-3 -16 -9 -22s-13 -9 -21 -9h-112v-71h112c8 0 15 -3.16699 21 -9.5s9 -13.833 9 -22.5c0 -9.33301 -3 -17 -9 -23s-13 -9 -21 -9h-112v-146c0 -8.66699 -4 -15.667 -12 -21s-17.667 -8 -29 -8
s-21.166 2.66699 -29.499 8s-12.5 12.333 -12.5 21v146h-107c-8.66699 0 -15.667 2.83301 -21 8.5s-8 13.167 -8 22.5s2.66699 17.166 8 23.499s12.333 9.5 21 9.5h107v71h-107c-8.66699 0 -15.667 2.83301 -21 8.5s-8 13.167 -8 22.5s2.66699 17.166 8 23.499
s12.333 9.5 21 9.5h88l-171 313c-2 3.33301 -3 7 -3 11z" />
    <glyph glyph-name="brokenbar" unicode="&#xa6;" horiz-adv-x="213" 
d="M65 8l-0.000976562 266c0 8.66699 3.83301 15.667 11.5 21s17.5 8 29.5 8s22 -2.66699 30 -8s12 -12.333 12 -21v-266c0 -7.33301 -4.16699 -14 -12.5 -20s-18.166 -9 -29.499 -9c-12 0 -21.833 2.83301 -29.5 8.5s-11.5 12.5 -11.5 20.5zM64.999 473l-0.000976562 266
c0 8.66699 3.83301 15.667 11.5 21s17.5 8 29.5 8s22 -2.66699 30 -8s12 -12.333 12 -21v-266c0 -7.33301 -4.16699 -14 -12.5 -20s-18.166 -9 -29.499 -9c-12 0 -21.833 2.83301 -29.5 8.5s-11.5 12.5 -11.5 20.5z" />
    <glyph glyph-name="section" unicode="&#xa7;" horiz-adv-x="469" 
d="M46 99c0 24 12.332 35.999 36.999 35.999s37 -9 37 -27c0 -25.333 7.83301 -48.833 23.5 -70.5s42.834 -32.5 81.501 -32.5c36.667 0 64.667 9.5 84 28.5s29 45.167 29 78.5c0 28 -9.66699 50.333 -29 67s-42.666 29.834 -69.999 39.501s-54.833 20.667 -82.5 33
s-51.167 32.166 -70.5 59.499s-29 62.333 -29 105v119c0 38 5.5 70.5 16.5 97.5s26 47.167 45 60.5s38 23 57 29s39.167 9 60.5 9c53.333 0 94.5 -15.333 123.5 -46s43.5 -69.334 43.5 -116.001c0 -24.667 -11.333 -37 -34 -37c-25.333 0 -38 11.333 -38 34
c0 23.333 -7 44.833 -21 64.5s-37.667 29.5 -71 29.5c-29.333 0 -54 -9.16699 -74 -27.5s-30 -46.166 -30 -83.499c0 -23.333 7.16699 -43.166 21.5 -59.499s32 -28.333 53 -36s44 -16.667 69 -27s48 -21.5 69 -33.5s38.667 -30.667 53 -56s21.5 -56 21.5 -92v-118
c0 -67.333 -18.167 -116.5 -54.5 -147.5s-81.5 -46.5 -135.5 -46.5c-56.667 0 -101.834 16.333 -135.501 49s-50.5 71.667 -50.5 117zM128.999 403.999c0 -24.667 5.49805 -45.334 16.498 -62.001s25.333 -29.5 43 -38.5s36 -16.667 55 -23s38.667 -14.166 59 -23.499
s36.166 -20 47.499 -32v27c0 30 -8.66699 54.667 -26 74s-37.166 32.333 -59.499 39s-47.166 15.667 -74.499 27s-47.666 24 -60.999 38v-26z" />
    <glyph glyph-name="dieresis" unicode="&#xa8;" horiz-adv-x="211" 
d="M0 630c0 11.333 4 21 12 29s17.667 12 29 12s20.833 -4 28.5 -12s11.5 -17.667 11.5 -29s-4 -21.166 -12 -29.499s-17.333 -12.5 -28 -12.5c-11.333 0 -21 4.16699 -29 12.5s-12 18.166 -12 29.499zM131 630c0 11.333 3.83301 21 11.5 29s17.167 12 28.5 12
s20.833 -4 28.5 -12s11.5 -17.667 11.5 -29s-3.83301 -21.166 -11.5 -29.499s-17.167 -12.5 -28.5 -12.5s-20.833 4.16699 -28.5 12.5s-11.5 18.166 -11.5 29.499z" />
    <glyph glyph-name="copyright" unicode="&#xa9;" horiz-adv-x="710" 
d="M48 358c0 53.333 9.5 101.5 28.5 144.5s43.833 77.333 74.5 103s63.834 45.334 99.501 59.001s71.5 20.5 107.5 20.5s71.667 -6.83301 107 -20.5s67.833 -33.334 97.5 -59.001s53.667 -59.667 72 -102s27.5 -89.5 27.5 -141.5c0 -53.333 -9.5 -101.5 -28.5 -144.5
s-43.833 -77.333 -74.5 -103s-63.834 -45.334 -99.501 -59.001s-71.5 -20.5 -107.5 -20.5s-71.667 6.83301 -107 20.5s-67.833 33.334 -97.5 59.001s-53.667 59.667 -72 102s-27.5 89.5 -27.5 141.5zM97 358c0 -80 23.5 -145.667 70.5 -197s108.5 -77 184.5 -77
c76.667 0 139.334 25.833 188.001 77.5s73 118.5 73 200.5c0 80 -23.5 145.667 -70.5 197s-108.5 77 -184.5 77c-76.667 0 -139.334 -25.833 -188.001 -77.5s-73 -118.5 -73 -200.5zM247 291l0.00195312 151.998c0 42 10.167 72.833 30.5 92.5s46.5 29.5 78.5 29.5
c33.333 0 60.166 -9.16699 80.499 -27.5s30.5 -42.166 30.5 -71.499c0 -11.333 -2 -19 -6 -23s-11 -6 -21 -6c-18 0 -27 6.33301 -27 19c-2 39.333 -20.333 59 -55 59c-38 0 -57 -24 -57 -72v-152c0 -48.667 19 -73 57 -73c11.333 0 20.666 1.83301 27.999 5.5
s12.833 9.5 16.5 17.5s6 14.333 7 19s2.16699 11.667 3.5 21c0.666992 12.667 9.66699 19 27 19c10 0 17 -2.16699 21 -6.5s6 -12.166 6 -23.499c0 -30 -10.333 -54.333 -31 -73s-47.667 -28 -81 -28c-32 0 -58 9.83301 -78 29.5s-30 50.5 -30 92.5z" />
    <glyph glyph-name="ordfeminine" unicode="&#xaa;" horiz-adv-x="319" 
d="M32 517c0 34 12.833 57.667 38.5 71s63.167 20 112.5 20h29v12c0 20 -5.5 37.333 -16.5 52s-27.5 22 -49.5 22c-18.667 0 -35 -3.16699 -49 -9.5s-21.667 -9.5 -23 -9.5c-6.66699 0 -12 3.16699 -16 9.5s-6 13.5 -6 21.5c0 10 10.333 19.167 31 27.5s42 12.5 64 12.5
c42.667 0 74.334 -12 95.001 -36s31 -54 31 -90v-162c0 -6 -2.83301 -11.167 -8.5 -15.5s-12.834 -6.5 -21.501 -6.5c-7.33301 0 -13.833 2.16699 -19.5 6.5s-8.5 9.5 -8.5 15.5v23c-28 -32.667 -61.667 -49 -101 -49c-24 0 -43.667 7.33301 -59 22s-23 35.667 -23 63z
M94 524c0 -14.667 4.16797 -25.833 12.501 -33.5s19.166 -11.5 32.499 -11.5c17.333 0 33.833 7 49.5 21s23.5 28.667 23.5 44v28h-26c-61.333 0 -92 -16 -92 -48z" />
    <glyph glyph-name="guillemotleft" unicode="&#xab;" horiz-adv-x="434" 
d="M32 277c0 5.33301 4.66797 16.668 14.001 34.001l84 157c5.33301 8.66699 14.333 13 27 13s24 -4.66699 34 -14s15 -18.666 15 -27.999c0 -3.33301 -1 -7 -3 -11l-81 -151l81 -151c2 -2.66699 3 -6.33398 3 -11.001c0 -9.33301 -5.16699 -18.5 -15.5 -27.5
s-21.833 -13.5 -34.5 -13.5s-21.334 4.33301 -26.001 13l-84 156c-9.33301 17.333 -14 28.666 -14 33.999zM220.001 277.002c0 5.33301 4.66797 16.667 14.001 34l84 157c4 8.66699 13 13 27 13c12.667 0 24 -4.66699 34 -14s15 -18.666 15 -27.999c0 -3.33301 -1 -7 -3 -11
l-81 -151l81 -151c2 -2.66699 3 -6.33398 3 -11.001c0 -9.33301 -5.16699 -18.5 -15.5 -27.5s-21.833 -13.5 -34.5 -13.5s-21.334 4.33301 -26.001 13l-84 156c-9.33301 16.667 -14 28 -14 34z" />
    <glyph glyph-name="logicalnot" unicode="&#xac;" horiz-adv-x="486" 
d="M44 240c0 10 2.66699 18.5 8 25.5s12.333 10.5 21 10.5h322c8 0 15 -3.5 21 -10.5s9 -15.5 9 -25.5v-148c0 -7.33301 -4 -14 -12 -20s-17.667 -9 -29 -9c-12 0 -22 2.83301 -30 8.5s-12 12.5 -12 20.5v113h-269c-19.333 0 -29 11.667 -29 35z" />
    <glyph glyph-name="uni00AD" unicode="&#xad;" horiz-adv-x="473" 
d="M47 240c0 10 2.66699 18.5 8 25.5s12.333 10.5 21 10.5h320c8 0 15 -3.5 21 -10.5s9 -15.5 9 -25.5s-3 -18.333 -9 -25s-13 -10 -21 -10h-320c-19.333 0 -29 11.667 -29 35z" />
    <glyph glyph-name="registered" unicode="&#xae;" horiz-adv-x="710" 
d="M48 358c0 53.333 9.5 101.5 28.5 144.5s43.833 77.333 74.5 103s63.834 45.334 99.501 59.001s71.5 20.5 107.5 20.5s71.667 -6.83301 107 -20.5s67.833 -33.334 97.5 -59.001s53.667 -59.667 72 -102s27.5 -89.5 27.5 -141.5c0 -53.333 -9.5 -101.5 -28.5 -144.5
s-43.833 -77.333 -74.5 -103s-63.834 -45.334 -99.501 -59.001s-71.5 -20.5 -107.5 -20.5s-71.667 6.83301 -107 20.5s-67.833 33.334 -97.5 59.001s-53.667 59.667 -72 102s-27.5 89.5 -27.5 141.5zM97 358c0 -80 23.5 -145.667 70.5 -197s108.5 -77 184.5 -77
c76.667 0 139.334 25.833 188.001 77.5s73 118.5 73 200.5c0 80 -23.5 145.667 -70.5 197s-108.5 77 -184.5 77c-76.667 0 -139.334 -25.833 -188.001 -77.5s-73 -118.5 -73 -200.5zM257 193l0.000976562 345.999c0 4.66699 1.66699 8.83398 5 12.501
s7.66602 5.5 12.999 5.5h90c73.333 0 110 -35.667 110 -107c0 -56.667 -22.333 -91 -67 -103l65 -139c0.666992 -2 1 -4.33301 1 -7c0 -6.66699 -3 -13 -9 -19s-12.667 -9 -20 -9c-6.66699 0 -13 6 -19 18l-69 148h-48v-146c0 -12.667 -8.33301 -19 -25 -19
c-18 0 -27 6.33301 -27 19zM309.001 382.999h56c38.667 0 58 20.667 58 62c0 43.333 -19.333 65 -58 65h-56v-127z" />
    <glyph glyph-name="macron" unicode="&#xaf;" horiz-adv-x="271" 
d="M0 658c0 8.66699 2.66797 16 8.00098 22s12.333 9 21 9h212c7.33301 0 14.166 -3.16699 20.499 -9.5s9.5 -13.5 9.5 -21.5c0 -8.66699 -3 -15.834 -9 -21.501s-13 -8.5 -21 -8.5h-212c-8.66699 0 -15.667 2.83301 -21 8.5s-8 12.834 -8 21.501z" />
    <glyph glyph-name="degree" unicode="&#xb0;" horiz-adv-x="413" 
d="M29 588c0 48 17.499 89.999 52.499 125.999s76.5 54 124.5 54s89.667 -17.667 125 -53s53 -77.666 53 -126.999c0 -48 -17.833 -90.333 -53.5 -127s-77.167 -55 -124.5 -55s-88.666 18.333 -123.999 55s-53 79 -53 127zM83.999 587.999
c0 -33.333 12.001 -62.833 36.001 -88.5s52.667 -38.5 86 -38.5s62.166 12.833 86.499 38.5s36.5 55.167 36.5 88.5c0 32 -12 60.833 -36 86.5s-53 38.5 -87 38.5c-33.333 0 -62 -12.667 -86 -38s-36 -54.333 -36 -87z" />
    <glyph glyph-name="plusminus" unicode="&#xb1;" horiz-adv-x="470" 
d="M46 85c0 10 2.66699 18.5 8 25.5s12.333 10.5 21 10.5h320c8 0 15 -3.5 21 -10.5s9 -15.5 9 -25.5s-3 -18.333 -9 -25s-13 -10 -21 -10h-320c-8.66699 0 -15.667 3.16699 -21 9.5s-8 14.833 -8 25.5zM46 357c0 10 2.66699 18.5 8 25.5s12.333 10.5 21 10.5h125v120
c0 8 3.5 15 10.5 21s15.5 9 25.5 9s18.333 -3 25 -9s10 -13 10 -21v-120h124c8 0 15 -3.5 21 -10.5s9 -15.5 9 -25.5s-3 -18.333 -9 -25s-13 -10 -21 -10h-124v-121c0 -8.66699 -3.16699 -15.667 -9.5 -21s-14.833 -8 -25.5 -8c-10 0 -18.5 2.66699 -25.5 8
s-10.5 12.333 -10.5 21v121h-125c-8.66699 0 -15.667 3.16699 -21 9.5s-8 14.833 -8 25.5z" />
    <glyph glyph-name="uni00B2" unicode="&#xb2;" horiz-adv-x="310" 
d="M30 368l-0.00390625 49.999c0 18.667 9.83301 37.667 29.5 57s41.334 35.666 65.001 48.999s45.334 29 65.001 47s29.5 35.667 29.5 53c0 13.333 -5.33301 25.333 -16 36s-26.334 16 -47.001 16c-38.667 0 -58 -16.667 -58 -50c0 -6 -3 -11.167 -9 -15.5
s-13.667 -6.5 -23 -6.5c-18 0 -27 10.667 -27 32c0 28 11.333 50.833 34 68.5s50.334 26.5 83.001 26.5c34.667 0 63.834 -9.66699 87.501 -29s35.5 -44.666 35.5 -75.999c0 -20.667 -6.33301 -40 -19 -58s-28.167 -33.333 -46.5 -46s-36.666 -24.5 -54.999 -35.5
s-33.833 -22.167 -46.5 -33.5s-19 -22 -19 -32v-20h169c5.33301 0 10 -2.5 14 -7.5s6 -11.167 6 -18.5s-2 -13.666 -6 -18.999s-8.66699 -8 -14 -8h-204c-6.66699 0 -13 2 -19 6s-9 8.66699 -9 14z" />
    <glyph glyph-name="uni00B3" unicode="&#xb3;" horiz-adv-x="317" 
d="M26 438c0 9.33301 1.99902 15.666 5.99902 18.999s11.333 5 22 5c12 0 20.333 -1.5 25 -4.5s7 -8.5 7 -16.5c0 -12 5.83301 -22.167 17.5 -30.5s28.5 -12.5 50.5 -12.5c24 0 41.667 4.83301 53 14.5s17 25.5 17 47.5v9c0 36.667 -23.333 55 -70 55
c-13.333 0 -20 7.66699 -20 23c0 16.667 6.66699 25 20 25c19.333 0 34 3.83301 44 11.5s15 22.167 15 43.5c0 34 -19 51 -57 51c-40.667 0 -61 -13.333 -61 -40c0 -15.333 -9.33301 -23 -28 -23c-13.333 0 -21.833 1.66699 -25.5 5s-5.5 10.333 -5.5 21
c0 22.667 9.33301 43.334 28 62.001s49.334 28 92.001 28c77.333 0 116 -31.333 116 -94c0 -44.667 -15.333 -73.667 -46 -87c38.667 -13.333 58 -40.333 58 -81v-9c0 -40 -12 -69.167 -36 -87.5s-55.667 -27.5 -95 -27.5c-41.333 0 -72.833 9.5 -94.5 28.5
s-32.5 40.5 -32.5 64.5z" />
    <glyph glyph-name="acute" unicode="&#xb4;" horiz-adv-x="168" 
d="M0 618c0 10 4.33301 17.333 13 22l117 62c4 1.33301 7.33301 2 10 2c8 0 14.667 -3.5 20 -10.5s8 -14.833 8 -23.5c0 -11.333 -4.66699 -19.333 -14 -24l-113 -58c-5.33301 -2.66699 -9 -4 -11 -4c-8 0 -15 3.5 -21 10.5s-9 14.833 -9 23.5z" />
    <glyph glyph-name="uni00B5" unicode="&#xb5;" horiz-adv-x="497" 
d="M66 -200l-0.000976562 644c0 8 4 15 12 21s17.667 9 29 9c10.667 0 20.334 -3.16699 29.001 -9.5s13 -13.166 13 -20.499v-274c0 -22 12 -44.667 36 -68s50.333 -35 79 -35c29.333 0 55 12 77 36s33 51 33 81v260c0 8 4.16699 15 12.5 21s17.833 9 28.5 9
c12 0 22 -2.83301 30 -8.5s12 -12.834 12 -21.501v-260c0 -52 -18.833 -97 -56.5 -135s-83.5 -57 -137.5 -57c-51.333 0 -92 19.333 -122 58v-250c0 -7.33301 -3.5 -14 -10.5 -20s-15.167 -9 -24.5 -9c-11.333 0 -20.833 2.83301 -28.5 8.5s-11.5 12.5 -11.5 20.5z" />
    <glyph glyph-name="paragraph" unicode="&#xb6;" horiz-adv-x="531" 
d="M29 513v12c0 71.333 17.833 123.5 53.5 156.5s83.167 49.5 142.5 49.5h205c8 0 15 -2.66699 21 -8s9 -12.666 9 -21.999v-672c0 -9.33301 -3 -16.5 -9 -21.5s-13 -7.5 -21 -7.5s-15 2.5 -21 7.5s-9 12.167 -9 21.5v654h-79v-653c0 -9.33301 -3 -16.666 -9 -21.999
s-13 -8 -21 -8s-15 2.66699 -21 8s-9 12.666 -9 21.999v276h-36c-59.333 0 -106.833 16.667 -142.5 50s-53.5 85.666 -53.5 156.999z" />
    <glyph glyph-name="periodcentered" unicode="&#xb7;" horiz-adv-x="188" 
d="M40 300c0 13.333 5.33301 25 16 35s23.667 15 39 15c14.667 0 27.167 -5 37.5 -15s15.5 -21.667 15.5 -35s-5.16699 -25 -15.5 -35s-22.833 -15 -37.5 -15c-15.333 0 -28.333 5 -39 15s-16 21.667 -16 35z" />
    <glyph glyph-name="cedilla" unicode="&#xb8;" horiz-adv-x="173" 
d="M0 -185c0 4.66699 1.66797 10.498 5.00098 17.498s7.66602 10.5 12.999 10.5c1.33301 0 7.83301 -2.33301 19.5 -7s23.834 -7 36.501 -7c34.667 0 52 12.333 52 37c0 24 -19.667 37.667 -59 41l-43 3l26 99h45l-18 -67c32 -0.666992 56 -8 72 -22s24 -31 24 -51
c0 -21.333 -7.83301 -40.166 -23.5 -56.499s-38.834 -24.5 -69.501 -24.5c-18 0 -35.833 2.33301 -53.5 7s-26.5 11.334 -26.5 20.001z" />
    <glyph glyph-name="uni00B9" unicode="&#xb9;" horiz-adv-x="175" 
d="M14 653c0 10 4 17.333 12 22l60 51c4 4 9.33301 6 16 6s12.667 -1.83301 18 -5.5s8 -8.5 8 -14.5v-344c0 -13.333 -10 -20 -30 -20s-30 6.66699 -30 20v286l-20 -20c-4 -3.33301 -8.33301 -5 -13 -5c-6 0 -11 2.5 -15 7.5s-6 10.5 -6 16.5z" />
    <glyph glyph-name="ordmasculine" unicode="&#xba;" horiz-adv-x="331" 
d="M35 558v62c0 34 12.667 63.5 38 88.5s56 37.5 92 37.5c35.333 0 66 -12.5 92 -37.5s39 -54.5 39 -88.5v-62c0 -33.333 -13.167 -62.833 -39.5 -88.5s-56.833 -38.5 -91.5 -38.5s-65 12.833 -91 38.5s-39 55.167 -39 88.5zM97 558c0 -18.667 6.66699 -35.334 20 -50.001
s29.333 -22 48 -22s35 7.33301 49 22s21 31.334 21 50.001v62c0 18.667 -6.83301 35 -20.5 49s-30.167 21 -49.5 21c-18.667 0 -34.667 -7 -48 -21s-20 -30.333 -20 -49v-62z" />
    <glyph glyph-name="guillemotright" unicode="&#xbb;" horiz-adv-x="434" 
d="M40 115c0 4.66699 1.00098 8.33203 3.00098 10.999l81 151l-81 151c-2 4 -3 7.66699 -3 11c0 9.33301 5 18.666 15 27.999s21.333 14 34 14s21.667 -4.33301 27 -13l84 -157c9.33301 -17.333 14 -28.666 14 -33.999s-4.66699 -16.666 -14 -33.999l-84 -156
c-4.66699 -8.66699 -13.334 -13 -26.001 -13s-24.167 4.5 -34.5 13.5s-15.5 18.167 -15.5 27.5zM227.001 114.998c0 4.66699 1.00098 8.33203 3.00098 10.999l82 151l-82 151c-2 4 -3 7.66699 -3 11c0 9.33301 5 18.666 15 27.999s21.333 14 34 14
c13.333 0 22.333 -4.33301 27 -13l85 -157c9.33301 -17.333 14 -28.666 14 -33.999s-4.66699 -16.666 -14 -33.999l-85 -156c-4.66699 -8.66699 -13.334 -13 -26.001 -13s-24.167 4.5 -34.5 13.5s-15.5 18.167 -15.5 27.5z" />
    <glyph glyph-name="onequarter" unicode="&#xbc;" horiz-adv-x="619" 
d="M27 653c0 10 4 17.333 12 22l60 51c4 4 9.33301 6 16 6s12.667 -1.83301 18 -5.5s8 -8.5 8 -14.5v-344c0 -13.333 -10 -20 -30 -20s-30 6.66699 -30 20v286l-20 -20c-4 -3.33301 -8.33301 -5 -13 -5c-6 0 -11 2.5 -15 7.5s-6 10.5 -6 16.5zM71 0c0 4.66699 1 9 3 13
l375 742c4.66699 10 13 15 25 15c8.66699 0 16.5 -3.16699 23.5 -9.5s10.5 -14.166 10.5 -23.499c0 -4.66699 -1 -9.33398 -3 -14.001l-374 -737c-4.66699 -10.667 -14 -16 -28 -16c-8.66699 0 -16.167 3 -22.5 9s-9.5 13 -9.5 21zM325 107c0 4 0.999023 8 2.99902 12
l139 248c6.66699 10.667 15.667 16 27 16c6.66699 0 13.334 -2.16699 20.001 -6.5s10 -9.83301 10 -16.5c0 -2 -0.666992 -5 -2 -9l-120 -210h86v66c0 12.667 9.66699 19 29 19c20.667 0 31 -6.33301 31 -19v-66h29c13.333 0 20 -9.33301 20 -28
c0 -7.33301 -2.16699 -13.833 -6.5 -19.5s-8.83301 -8.5 -13.5 -8.5h-29v-65c0 -13.333 -10.333 -20 -31 -20c-19.333 0 -29 6.66699 -29 20v65h-142c-14 0 -21 7.33301 -21 22z" />
    <glyph glyph-name="onehalf" unicode="&#xbd;" horiz-adv-x="625" 
d="M26 653c0 10 4 17.333 12 22l60 51c4 4 9.33301 6 16 6s12.667 -1.83301 18 -5.5s8 -8.5 8 -14.5v-344c0 -13.333 -10 -20 -30 -20s-30 6.66699 -30 20v286l-20 -20c-4 -3.33301 -8.33301 -5 -13 -5c-6 0 -11 2.5 -15 7.5s-6 10.5 -6 16.5zM54 0
c0 4.66699 1.00098 9 3.00098 13l375 742c5.33301 10 13.666 15 24.999 15c8.66699 0 16.5 -3.16699 23.5 -9.5s10.5 -14.166 10.5 -23.499c0 -4.66699 -1 -9.33398 -3 -14.001l-374 -737c-4.66699 -10.667 -14 -16 -28 -16c-8.66699 0 -16.167 3 -22.5 9s-9.5 13 -9.5 21z
M344.001 20l-0.00390625 50.998c0 18.667 9.83301 37.5 29.5 56.5s41.334 35.167 65.001 48.5s45.334 29 65.001 47s29.5 35.667 29.5 53c0 13.333 -5.33301 25.333 -16 36s-26.334 16 -47.001 16c-38.667 0 -58 -16.667 -58 -50c0 -6 -3 -11.167 -9 -15.5
s-13.667 -6.5 -23 -6.5c-18 0 -27 10.667 -27 32c0 28.667 11.333 51.667 34 69s50.334 26 83.001 26c34.667 0 63.834 -9.66699 87.501 -29s35.5 -44.666 35.5 -75.999c0 -20.667 -6.33301 -40 -19 -58s-28.167 -33.333 -46.5 -46s-36.666 -24.5 -54.999 -35.5
s-33.833 -22.167 -46.5 -33.5s-19 -22 -19 -32v-20h169c5.33301 0 10 -2.5 14 -7.5s6 -11.167 6 -18.5s-2 -13.666 -6 -18.999s-8.66699 -8 -14 -8h-204c-6.66699 0 -13 2 -19 6s-9 8.66699 -9 14z" />
    <glyph glyph-name="threequarters" unicode="&#xbe;" horiz-adv-x="751" 
d="M30 438c0 9.33301 1.99902 15.666 5.99902 18.999s11.333 5 22 5c12 0 20.333 -1.5 25 -4.5s7 -8.5 7 -16.5c0 -12 5.83301 -22.167 17.5 -30.5s28.5 -12.5 50.5 -12.5c24 0 41.667 4.83301 53 14.5s17 25.5 17 47.5v9c0 36.667 -23.333 55 -70 55
c-13.333 0 -20 7.66699 -20 23c0 16.667 6.66699 25 20 25c19.333 0 34 3.83301 44 11.5s15 22.167 15 43.5c0 34 -19 51 -57 51c-40.667 0 -61 -13.333 -61 -40c0 -15.333 -9.33301 -23 -28 -23c-13.333 0 -21.833 1.66699 -25.5 5s-5.5 10.333 -5.5 21
c0 22.667 9.33301 43.334 28 62.001s49.334 28 92.001 28c77.333 0 116 -31.333 116 -94c0 -44.667 -15.333 -73.667 -46 -87c38.667 -13.333 58 -40.333 58 -81v-9c0 -40 -12 -69.167 -36 -87.5s-55.667 -27.5 -95 -27.5c-41.333 0 -72.833 9.5 -94.5 28.5
s-32.5 40.5 -32.5 64.5zM196.999 0c0 4.66699 1 9 3 13l375 742c4.66699 10 13 15 25 15c8.66699 0 16.5 -3.16699 23.5 -9.5s10.5 -14.166 10.5 -23.499c0 -4.66699 -1 -9.33398 -3 -14.001l-374 -737c-4.66699 -10.667 -14 -16 -28 -16c-8.66699 0 -16.167 3 -22.5 9
s-9.5 13 -9.5 21zM456.999 107c0 4 0.999023 8 2.99902 12l139 248c6.66699 10.667 15.667 16 27 16c6.66699 0 13.334 -2.16699 20.001 -6.5s10 -9.83301 10 -16.5c0 -2 -0.666992 -5 -2 -9l-120 -210h86v66c0 12.667 9.66699 19 29 19c20.667 0 31 -6.33301 31 -19v-66h29
c13.333 0 20 -9.33301 20 -28c0 -7.33301 -2.16699 -13.833 -6.5 -19.5s-8.83301 -8.5 -13.5 -8.5h-29v-65c0 -13.333 -10.333 -20 -31 -20c-19.333 0 -29 6.66699 -29 20v65h-142c-14 0 -21 7.33301 -21 22z" />
    <glyph glyph-name="questiondown" unicode="&#xbf;" horiz-adv-x="408" 
d="M30 169c0 27.333 5.49805 53.8301 16.498 79.4971s22.167 45.167 33.5 58.5s26.333 29 45 47l34 33c17.333 16.667 28.166 35 32.499 55s6.5 50.667 6.5 92c0 17.333 11.333 26 34 26c21.333 0 32 -12.333 32 -37c0 -48 -4.16699 -84 -12.5 -108
s-20.166 -44.333 -35.499 -61c-5.33301 -6 -16.5 -16.667 -33.5 -32s-30.333 -28.166 -40 -38.499s-19 -25.333 -28 -45s-13.5 -40.167 -13.5 -61.5c0 -36.667 11 -65.167 33 -85.5s53 -30.5 93 -30.5c20.667 0 38.5 2.83301 53.5 8.5s25.667 11.834 32 18.501
s13 12.834 20 18.501s13.833 8.5 20.5 8.5c8.66699 0 16.334 -3 23.001 -9s10 -14 10 -24c0 -20 -15.667 -39.667 -47 -59s-69.666 -29 -114.999 -29c-60.667 0 -108.167 16.5 -142.5 49.5s-51.5 74.833 -51.5 125.5zM178.998 688.997c0 14 5 26.167 15 36.5
s22.333 15.5 37 15.5s27 -5.16699 37 -15.5s15 -22.5 15 -36.5c0 -14.667 -5 -27.167 -15 -37.5s-22.333 -15.5 -37 -15.5c-14 0 -26.167 5.16699 -36.5 15.5s-15.5 22.833 -15.5 37.5z" />
    <glyph glyph-name="Agrave" unicode="&#xc0;" horiz-adv-x="550" 
d="M17 35c0 1.33301 0.666992 3.99805 2 7.99805l204 665c6 19.333 23.333 29 52 29s46 -9.66699 52 -29l204 -665c0 -1.33301 0.166992 -2.66602 0.5 -3.99902s0.5 -2.33301 0.5 -3c0 -9.33301 -5.5 -17.666 -16.5 -24.999s-22.833 -11 -35.5 -11
c-16 -0 -26 6.33301 -30 19l-44 149h-263l-44 -149c-4 -12.667 -14.333 -19 -31 -19c-12 -0 -23.5 3.33301 -34.5 10s-16.5 15 -16.5 25zM162 236.998h224l-111 376zM184 920.998c0 8.66699 2.66699 16.5 8 23.5s12 10.5 20 10.5c2.66699 0 6 -0.666992 10 -2l117 -62
c8.66699 -4.66699 13 -12 13 -22c0 -8.66699 -3 -16.5 -9 -23.5s-13 -10.5 -21 -10.5c-2 0 -5.66699 1.33301 -11 4l-113 58c-9.33301 4.66699 -14 12.667 -14 24z" />
    <glyph glyph-name="Aacute" unicode="&#xc1;" horiz-adv-x="550" 
d="M17 35c0 1.33301 0.666992 3.99805 2 7.99805l204 665c6 19.333 23.333 29 52 29s46 -9.66699 52 -29l204 -665c0 -1.33301 0.166992 -2.66602 0.5 -3.99902s0.5 -2.33301 0.5 -3c0 -9.33301 -5.5 -17.666 -16.5 -24.999s-22.833 -11 -35.5 -11
c-16 -0 -26 6.33301 -30 19l-44 149h-263l-44 -149c-4 -12.667 -14.333 -19 -31 -19c-12 -0 -23.5 3.33301 -34.5 10s-16.5 15 -16.5 25zM162 236.998h224l-111 376zM206 868.998c0 10 4.33301 17.333 13 22l117 62c4 1.33301 7.33301 2 10 2c8 0 14.667 -3.5 20 -10.5
s8 -14.833 8 -23.5c0 -11.333 -4.66699 -19.333 -14 -24l-113 -58c-5.33301 -2.66699 -9 -4 -11 -4c-8 0 -15 3.5 -21 10.5s-9 14.833 -9 23.5z" />
    <glyph glyph-name="Acircumflex" unicode="&#xc2;" horiz-adv-x="550" 
d="M17 35c0 1.33301 0.666992 3.99805 2 7.99805l204 665c6 19.333 23.333 29 52 29s46 -9.66699 52 -29l204 -665c0 -1.33301 0.166992 -2.66602 0.5 -3.99902s0.5 -2.33301 0.5 -3c0 -9.33301 -5.5 -17.666 -16.5 -24.999s-22.833 -11 -35.5 -11
c-16 -0 -26 6.33301 -30 19l-44 149h-263l-44 -149c-4 -12.667 -14.333 -19 -31 -19c-12 -0 -23.5 3.33301 -34.5 10s-16.5 15 -16.5 25zM138 867.998c0 12 4.99805 20.667 14.998 26l104 56c6.66699 3.33301 12.334 5 17.001 5c6 0 11.667 -1.66699 17 -5l104 -55
c10.667 -6 16 -15.333 16 -28c0 -7.33301 -2.16699 -13.833 -6.5 -19.5s-9.83301 -8.5 -16.5 -8.5c-1.33301 0 -3.33301 0.333008 -6 1c-1.33301 1.33301 -2.66602 2 -3.99902 2l-104 56l-104 -56c-2.66699 -2 -5.66699 -3 -9 -3c-6 0 -11.333 3 -16 9s-7 12.667 -7 20z
M161.998 236.998h224l-111 376z" />
    <glyph glyph-name="Atilde" unicode="&#xc3;" horiz-adv-x="550" 
d="M17 35c0 1.33301 0.666992 3.99805 2 7.99805l204 665c6 19.333 23.333 29 52 29s46 -9.66699 52 -29l204 -665c0 -1.33301 0.166992 -2.66602 0.5 -3.99902s0.5 -2.33301 0.5 -3c0 -9.33301 -5.5 -17.666 -16.5 -24.999s-22.833 -11 -35.5 -11
c-16 -0 -26 6.33301 -30 19l-44 149h-263l-44 -149c-4 -12.667 -14.333 -19 -31 -19c-12 -0 -23.5 3.33301 -34.5 10s-16.5 15 -16.5 25zM115 886.998c0 19.333 9.83496 34.334 29.502 45.001s38.834 16 57.501 16c18 0 40.667 -5.5 68 -16.5s49.666 -16.5 66.999 -16.5
c16.667 0 32 4.5 46 13.5s23 13.5 27 13.5c7.33301 0 13.166 -3.16699 17.499 -9.5s6.5 -12.5 6.5 -18.5c0 -20.667 -9.33301 -35.834 -28 -45.501s-37.334 -14.5 -56.001 -14.5c-20 0 -43.333 5.5 -70 16.5s-48.667 16.5 -66 16.5c-16.667 0 -32.5 -4.83301 -47.5 -14.5
s-24.5 -14.5 -28.5 -14.5c-7.33301 0 -13 3.16699 -17 9.5s-6 12.833 -6 19.5zM162.002 236.999h224l-111 376z" />
    <glyph glyph-name="Adieresis" unicode="&#xc4;" horiz-adv-x="550" 
d="M17 35c0 1.33301 0.666992 3.99805 2 7.99805l204 665c6 19.333 23.333 29 52 29s46 -9.66699 52 -29l204 -665c0 -1.33301 0.166992 -2.66602 0.5 -3.99902s0.5 -2.33301 0.5 -3c0 -9.33301 -5.5 -17.666 -16.5 -24.999s-22.833 -11 -35.5 -11
c-16 -0 -26 6.33301 -30 19l-44 149h-263l-44 -149c-4 -12.667 -14.333 -19 -31 -19c-12 -0 -23.5 3.33301 -34.5 10s-16.5 15 -16.5 25zM162 236.998h224l-111 376zM169 880.998c0 11.333 4 21 12 29s17.667 12 29 12s20.833 -4 28.5 -12s11.5 -17.667 11.5 -29
s-4 -21.166 -12 -29.499s-17.333 -12.5 -28 -12.5c-11.333 0 -21 4.16699 -29 12.5s-12 18.166 -12 29.499zM300 880.998c0 11.333 3.83301 21 11.5 29s17.167 12 28.5 12s20.833 -4 28.5 -12s11.5 -17.667 11.5 -29s-3.83301 -21.166 -11.5 -29.499
s-17.167 -12.5 -28.5 -12.5s-20.833 4.16699 -28.5 12.5s-11.5 18.166 -11.5 29.499z" />
    <glyph glyph-name="Aring" unicode="&#xc5;" horiz-adv-x="550" 
d="M17 35c0 1.33301 0.666992 3.99805 2 7.99805l204 665c6 19.333 23.333 29 52 29s46 -9.66699 52 -29l204 -665c0 -1.33301 0.166992 -2.66602 0.5 -3.99902s0.5 -2.33301 0.5 -3c0 -9.33301 -5.5 -17.666 -16.5 -24.999s-22.833 -11 -35.5 -11
c-16 -0 -26 6.33301 -30 19l-44 149h-263l-44 -149c-4 -12.667 -14.333 -19 -31 -19c-12 -0 -23.5 3.33301 -34.5 10s-16.5 15 -16.5 25zM162 236.998h224l-111 376zM180 923.998c0 25.333 9.16699 47.5 27.5 66.5s40.5 28.5 66.5 28.5c24.667 0 46.5 -9.66699 65.5 -29
s28.5 -41.333 28.5 -66c0 -25.333 -9.5 -47.833 -28.5 -67.5s-40.833 -29.5 -65.5 -29.5c-26 0 -48.167 9.66699 -66.5 29s-27.5 42 -27.5 68zM218 923.998c0 -14.667 5.5 -28.167 16.5 -40.5s24.167 -18.5 39.5 -18.5c14.667 0 27.5 6.16699 38.5 18.5
s16.5 25.833 16.5 40.5c0 14 -5.5 26.667 -16.5 38s-23.833 17 -38.5 17c-15.333 0 -28.5 -5.83301 -39.5 -17.5s-16.5 -24.167 -16.5 -37.5z" />
    <glyph glyph-name="AE" unicode="&#xc6;" horiz-adv-x="735" 
d="M68 35l-0.000976562 477.999c0 75.333 19.333 130.5 58 165.5s90 52.5 154 52.5h404c9.33301 0 16.5 -3.66699 21.5 -11s7.5 -16 7.5 -26c0 -11.333 -2.5 -20.666 -7.5 -27.999s-12.167 -11 -21.5 -11h-233v-254h140c8.66699 0 15.667 -3.5 21 -10.5s8 -15.5 8 -25.5
c0 -8.66699 -2.5 -16.5 -7.5 -23.5s-12.167 -10.5 -21.5 -10.5h-140v-255h233c9.33301 0 16.5 -3.66699 21.5 -11s7.5 -16.666 7.5 -27.999c0 -10 -2.5 -18.667 -7.5 -26s-12.167 -11 -21.5 -11h-279c-10 0 -18.833 2.66699 -26.5 8s-11.5 12.666 -11.5 21.999v301h-219
v-296c0 -12 -2.66699 -20.833 -8 -26.5s-16.666 -8.5 -33.999 -8.5c-25.333 0 -38 11.667 -38 35zM147.999 400.999h219v254h-87c-42 0 -74.5 -11.833 -97.5 -35.5s-34.5 -59.167 -34.5 -106.5v-112z" />
    <glyph glyph-name="Ccedilla" unicode="&#xc7;" horiz-adv-x="531" 
d="M64 212l0.00195312 300.998c0 74.667 19.833 129.667 59.5 165s91.5 53 155.5 53c65.333 0 117.666 -16.5 156.999 -49.5s59 -74.5 59 -124.5c0 -18 -3.33301 -30.167 -10 -36.5s-17.334 -9.5 -32.001 -9.5c-26.667 0 -40.667 9.66699 -42 29
c-4 76.667 -47.333 115 -130 115c-88.667 0 -133 -47.333 -133 -142v-301c0 -94.667 45.333 -142 136 -142c26 0 47.667 3.66699 65 11s30.166 18 38.499 32s13.833 26 16.5 36s5 23.333 7 40c2 19.333 16 29 42 29c14.667 0 25.334 -3.33301 32.001 -10s10 -19 10 -37
c0 -46 -16.5 -85.167 -49.5 -117.5s-77.167 -51.5 -132.5 -57.5l-14 -54c32 -0.666992 56 -8 72 -22s24 -31 24 -51c0 -21.333 -7.83301 -40.166 -23.5 -56.499s-38.834 -24.5 -69.501 -24.5c-18 0 -35.833 2.33301 -53.5 7s-26.5 11.334 -26.5 20.001
c0 4.66699 1.66699 10.5 5 17.5s7.66602 10.5 12.999 10.5c1.33301 0 7.83301 -2.33301 19.5 -7s23.834 -7 36.501 -7c34.667 0 52 12.333 52 37c0 24 -19.667 37.667 -59 41l-43 3l22 84c-61.333 2 -110.666 20.5 -147.999 55.5s-56 89.167 -56 162.5z" />
    <glyph glyph-name="Egrave" unicode="&#xc8;" horiz-adv-x="514" 
d="M71 30v671.004c0 9.33301 3.83301 16.666 11.5 21.999s16.5 8 26.5 8h356c9.33301 0 16.5 -3.66699 21.5 -11s7.5 -16 7.5 -26c0 -10.667 -2.66699 -19.834 -8 -27.501s-12.333 -11.5 -21 -11.5h-310v-254h156c8.66699 0 15.667 -3.5 21 -10.5s8 -15.5 8 -25.5
c0 -8.66699 -2.5 -16.5 -7.5 -23.5s-12.167 -10.5 -21.5 -10.5h-156v-255h310c8.66699 0 15.667 -3.83301 21 -11.5s8 -16.834 8 -27.501c0 -10 -2.5 -18.667 -7.5 -26s-12.167 -11 -21.5 -11h-356c-10 0 -18.833 2.66699 -26.5 8s-11.5 12.666 -11.5 21.999zM196 921.004
c0 8.66699 2.66699 16.5 8 23.5s12 10.5 20 10.5c2.66699 0 6 -0.666992 10 -2l117 -62c8.66699 -4.66699 13 -12 13 -22c0 -8.66699 -3 -16.5 -9 -23.5s-13 -10.5 -21 -10.5c-2 0 -5.66699 1.33301 -11 4l-113 58c-9.33301 4.66699 -14 12.667 -14 24z" />
    <glyph glyph-name="Eacute" unicode="&#xc9;" horiz-adv-x="514" 
d="M71 30v671.004c0 9.33301 3.83301 16.666 11.5 21.999s16.5 8 26.5 8h356c9.33301 0 16.5 -3.66699 21.5 -11s7.5 -16 7.5 -26c0 -10.667 -2.66699 -19.834 -8 -27.501s-12.333 -11.5 -21 -11.5h-310v-254h156c8.66699 0 15.667 -3.5 21 -10.5s8 -15.5 8 -25.5
c0 -8.66699 -2.5 -16.5 -7.5 -23.5s-12.167 -10.5 -21.5 -10.5h-156v-255h310c8.66699 0 15.667 -3.83301 21 -11.5s8 -16.834 8 -27.501c0 -10 -2.5 -18.667 -7.5 -26s-12.167 -11 -21.5 -11h-356c-10 0 -18.833 2.66699 -26.5 8s-11.5 12.666 -11.5 21.999zM208 869.004
c0 10 4.33301 17.333 13 22l117 62c4 1.33301 7.33301 2 10 2c8 0 14.667 -3.5 20 -10.5s8 -14.833 8 -23.5c0 -11.333 -4.66699 -19.333 -14 -24l-113 -58c-5.33301 -2.66699 -9 -4 -11 -4c-8 0 -15 3.5 -21 10.5s-9 14.833 -9 23.5z" />
    <glyph glyph-name="Ecircumflex" unicode="&#xca;" horiz-adv-x="514" 
d="M71 30v671.004c0 9.33301 3.83301 16.666 11.5 21.999s16.5 8 26.5 8h356c9.33301 0 16.5 -3.66699 21.5 -11s7.5 -16 7.5 -26c0 -10.667 -2.66699 -19.834 -8 -27.501s-12.333 -11.5 -21 -11.5h-310v-254h156c8.66699 0 15.667 -3.5 21 -10.5s8 -15.5 8 -25.5
c0 -8.66699 -2.5 -16.5 -7.5 -23.5s-12.167 -10.5 -21.5 -10.5h-156v-255h310c8.66699 0 15.667 -3.83301 21 -11.5s8 -16.834 8 -27.501c0 -10 -2.5 -18.667 -7.5 -26s-12.167 -11 -21.5 -11h-356c-10 0 -18.833 2.66699 -26.5 8s-11.5 12.666 -11.5 21.999zM149 868.004
c0 12 4.99805 20.667 14.998 26l104 56c6.66699 3.33301 12.334 5 17.001 5c6 0 11.667 -1.66699 17 -5l104 -55c10.667 -6 16 -15.333 16 -28c0 -7.33301 -2.33301 -13.833 -7 -19.5s-10 -8.5 -16 -8.5c-1.33301 0 -3.33301 0.333008 -6 1
c-1.33301 1.33301 -2.66602 2 -3.99902 2l-104 56l-104 -56c-3.33301 -2 -6.33301 -3 -9 -3c-6 0 -11.333 3 -16 9s-7 12.667 -7 20z" />
    <glyph glyph-name="Edieresis" unicode="&#xcb;" horiz-adv-x="514" 
d="M71 30v671.004c0 9.33301 3.83301 16.666 11.5 21.999s16.5 8 26.5 8h356c9.33301 0 16.5 -3.66699 21.5 -11s7.5 -16 7.5 -26c0 -10.667 -2.66699 -19.834 -8 -27.501s-12.333 -11.5 -21 -11.5h-310v-254h156c8.66699 0 15.667 -3.5 21 -10.5s8 -15.5 8 -25.5
c0 -8.66699 -2.5 -16.5 -7.5 -23.5s-12.167 -10.5 -21.5 -10.5h-156v-255h310c8.66699 0 15.667 -3.83301 21 -11.5s8 -16.834 8 -27.501c0 -10 -2.5 -18.667 -7.5 -26s-12.167 -11 -21.5 -11h-356c-10 0 -18.833 2.66699 -26.5 8s-11.5 12.666 -11.5 21.999zM177 881.004
c0 11.333 4 21 12 29s17.667 12 29 12s20.833 -4 28.5 -12s11.5 -17.667 11.5 -29s-4 -21.166 -12 -29.499s-17.333 -12.5 -28 -12.5c-11.333 0 -21 4.16699 -29 12.5s-12 18.166 -12 29.499zM308 881.004c0 11.333 3.83301 21 11.5 29s17.167 12 28.5 12
s20.833 -4 28.5 -12s11.5 -17.667 11.5 -29s-3.83301 -21.166 -11.5 -29.499s-17.167 -12.5 -28.5 -12.5s-20.833 4.16699 -28.5 12.5s-11.5 18.166 -11.5 29.499z" />
    <glyph glyph-name="Igrave" unicode="&#xcc;" horiz-adv-x="226" 
d="M25 921c0 8.66699 2.66699 16.5 8 23.5s12 10.5 20 10.5c2.66699 0 6 -0.666992 10 -2l117 -62c8.66699 -4.66699 13 -12 13 -22c0 -8.66699 -3 -16.5 -9 -23.5s-13 -10.5 -21 -10.5c-2 0 -5.66699 1.33301 -11 4l-113 58c-9.33301 4.66699 -14 12.667 -14 24zM71 30v672
c0 9.33301 4.16699 16.5 12.5 21.5s18.166 7.5 29.499 7.5s21.166 -2.5 29.499 -7.5s12.5 -12.167 12.5 -21.5v-672c0 -9.33301 -4.16699 -16.666 -12.5 -21.999s-18.166 -8 -29.499 -8s-21.166 2.66699 -29.499 8s-12.5 12.666 -12.5 21.999z" />
    <glyph glyph-name="Iacute" unicode="&#xcd;" horiz-adv-x="226" 
d="M32 869c0 10 4.33301 17.333 13 22l117 62c4 1.33301 7.33301 2 10 2c8 0 14.667 -3.5 20 -10.5s8 -14.833 8 -23.5c0 -11.333 -4.66699 -19.333 -14 -24l-113 -58c-5.33301 -2.66699 -9 -4 -11 -4c-8 0 -15 3.5 -21 10.5s-9 14.833 -9 23.5zM71 30v672
c0 9.33301 4.16699 16.5 12.5 21.5s18.166 7.5 29.499 7.5s21.166 -2.5 29.499 -7.5s12.5 -12.167 12.5 -21.5v-672c0 -9.33301 -4.16699 -16.666 -12.5 -21.999s-18.166 -8 -29.499 -8s-21.166 2.66699 -29.499 8s-12.5 12.666 -12.5 21.999z" />
    <glyph glyph-name="Icircumflex" unicode="&#xce;" horiz-adv-x="226" 
d="M-23 868c0 12 4.99805 20.667 14.998 26l104 56c6.66699 3.33301 12.334 5 17.001 5c6 0 11.667 -1.66699 17 -5l104 -55c10.667 -6 16 -15.333 16 -28c0 -7.33301 -2.33301 -13.833 -7 -19.5s-10 -8.5 -16 -8.5c-1.33301 0 -3.33301 0.333008 -6 1
c-1.33301 1.33301 -2.66602 2 -3.99902 2l-104 56l-104 -56c-3.33301 -2 -6.33301 -3 -9 -3c-6 0 -11.333 3 -16 9s-7 12.667 -7 20zM70.998 30v672c0 9.33301 4.16699 16.5 12.5 21.5s18.166 7.5 29.499 7.5s21.166 -2.5 29.499 -7.5s12.5 -12.167 12.5 -21.5v-672
c0 -9.33301 -4.16699 -16.666 -12.5 -21.999s-18.166 -8 -29.499 -8s-21.166 2.66699 -29.499 8s-12.5 12.666 -12.5 21.999z" />
    <glyph glyph-name="Idieresis" unicode="&#xcf;" horiz-adv-x="226" 
d="M8 881c0 11.333 4 21 12 29s17.667 12 29 12s20.833 -4 28.5 -12s11.5 -17.667 11.5 -29s-4 -21.166 -12 -29.499s-17.333 -12.5 -28 -12.5c-11.333 0 -21 4.16699 -29 12.5s-12 18.166 -12 29.499zM71 30v672c0 9.33301 4.16699 16.5 12.5 21.5s18.166 7.5 29.499 7.5
s21.166 -2.5 29.499 -7.5s12.5 -12.167 12.5 -21.5v-672c0 -9.33301 -4.16699 -16.666 -12.5 -21.999s-18.166 -8 -29.499 -8s-21.166 2.66699 -29.499 8s-12.5 12.666 -12.5 21.999zM139 881c0 11.333 3.83301 21 11.5 29s17.167 12 28.5 12s20.833 -4 28.5 -12
s11.5 -17.667 11.5 -29s-3.83301 -21.166 -11.5 -29.499s-17.167 -12.5 -28.5 -12.5s-20.833 4.16699 -28.5 12.5s-11.5 18.166 -11.5 29.499z" />
    <glyph glyph-name="Eth" unicode="&#xd0;" horiz-adv-x="574" 
d="M-3 383c0 9.33301 2.33301 17.167 7 23.5s10.667 9.5 18 9.5h57v286c0 8 3.5 14.833 10.5 20.5s16.167 8.5 27.5 8.5h177c65.333 0 117.666 -17.5 156.999 -52.5s59 -90.167 59 -165.5v-295c0 -75.333 -19.667 -130.5 -59 -165.5s-91.666 -52.5 -156.999 -52.5h-177
c-11.333 -0 -20.5 2.83301 -27.5 8.5s-10.5 12.5 -10.5 20.5v322h-57c-8 0 -14.167 3.16699 -18.5 9.5s-6.5 13.833 -6.5 22.5zM163 76.001l131 0.000976562c42 0 74.5 11.833 97.5 35.5s34.5 59.167 34.5 106.5v295c0 47.333 -11.5 82.833 -34.5 106.5
s-55.5 35.5 -97.5 35.5h-131v-239h103c7.33301 0 13.5 -3.33301 18.5 -10s7.5 -14.334 7.5 -23.001s-2.5 -16.167 -7.5 -22.5s-11.167 -9.5 -18.5 -9.5h-103v-275z" />
    <glyph glyph-name="Ntilde" unicode="&#xd1;" horiz-adv-x="581" 
d="M71 30l-0.000976562 671.999c0 19.333 14 29 42 29c14 0 25.833 -4.16699 35.5 -12.5s19.167 -21.833 28.5 -40.5l249 -487v511c0 9.33301 4.16699 16.5 12.5 21.5s18.166 7.5 29.499 7.5s21.166 -2.5 29.499 -7.5s12.5 -12.167 12.5 -21.5v-672
c0 -9.33301 -4.16699 -16.666 -12.5 -21.999s-18.166 -8 -29.499 -8c-21.333 0 -39 12.667 -53 38l-260 503v-511c0 -9.33301 -4.16699 -16.666 -12.5 -21.999s-18.166 -8 -29.499 -8s-21.166 2.66699 -29.499 8s-12.5 12.666 -12.5 21.999zM126.999 886.999
c0 19.333 9.83496 34.334 29.502 45.001s38.834 16 57.501 16c18 0 40.667 -5.5 68 -16.5s49.666 -16.5 66.999 -16.5c16.667 0 32 4.5 46 13.5s23 13.5 27 13.5c7.33301 0 13.166 -3.16699 17.499 -9.5s6.5 -12.5 6.5 -18.5c0 -20.667 -9.33301 -35.834 -28 -45.501
s-37.334 -14.5 -56.001 -14.5c-20 0 -43.333 5.5 -70 16.5s-48.667 16.5 -66 16.5c-16.667 0 -32.5 -4.83301 -47.5 -14.5s-24.5 -14.5 -28.5 -14.5c-7.33301 0 -13 3.16699 -17 9.5s-6 12.833 -6 19.5z" />
    <glyph glyph-name="Ograve" unicode="&#xd2;" horiz-adv-x="559" 
d="M64 212v301c0 75.333 19.5 130.5 58.5 165.5s91.167 52.5 156.5 52.5s117.666 -17.5 156.999 -52.5s59 -90.167 59 -165.5v-301c0 -75.333 -19.667 -130.5 -59 -165.5s-91.666 -52.5 -156.999 -52.5s-117.5 17.5 -156.5 52.5s-58.5 90.167 -58.5 165.5zM148 212
c0 -94.667 43.667 -142 131 -142c42 0 74.5 11.833 97.5 35.5s34.5 59.167 34.5 106.5v301c0 47.333 -11.5 82.833 -34.5 106.5s-55.5 35.5 -97.5 35.5c-87.333 0 -131 -47.333 -131 -142v-301zM189 921c0 8.66699 2.66699 16.5 8 23.5s12 10.5 20 10.5
c2.66699 0 6 -0.666992 10 -2l117 -62c8.66699 -4.66699 13 -12 13 -22c0 -8.66699 -3 -16.5 -9 -23.5s-13 -10.5 -21 -10.5c-2 0 -5.66699 1.33301 -11 4l-113 58c-9.33301 4.66699 -14 12.667 -14 24z" />
    <glyph glyph-name="Oacute" unicode="&#xd3;" horiz-adv-x="559" 
d="M64 212v301c0 75.333 19.5 130.5 58.5 165.5s91.167 52.5 156.5 52.5s117.666 -17.5 156.999 -52.5s59 -90.167 59 -165.5v-301c0 -75.333 -19.667 -130.5 -59 -165.5s-91.666 -52.5 -156.999 -52.5s-117.5 17.5 -156.5 52.5s-58.5 90.167 -58.5 165.5zM148 212
c0 -94.667 43.667 -142 131 -142c42 0 74.5 11.833 97.5 35.5s34.5 59.167 34.5 106.5v301c0 47.333 -11.5 82.833 -34.5 106.5s-55.5 35.5 -97.5 35.5c-87.333 0 -131 -47.333 -131 -142v-301zM213 869c0 10 4.33301 17.333 13 22l117 62c4 1.33301 7.33301 2 10 2
c8 0 14.667 -3.5 20 -10.5s8 -14.833 8 -23.5c0 -11.333 -4.66699 -19.333 -14 -24l-113 -58c-5.33301 -2.66699 -9 -4 -11 -4c-8 0 -15 3.5 -21 10.5s-9 14.833 -9 23.5z" />
    <glyph glyph-name="Ocircumflex" unicode="&#xd4;" horiz-adv-x="559" 
d="M64 212v301c0 75.333 19.5 130.5 58.5 165.5s91.167 52.5 156.5 52.5s117.666 -17.5 156.999 -52.5s59 -90.167 59 -165.5v-301c0 -75.333 -19.667 -130.5 -59 -165.5s-91.666 -52.5 -156.999 -52.5s-117.5 17.5 -156.5 52.5s-58.5 90.167 -58.5 165.5zM143 868
c0 12 4.99805 20.667 14.998 26l104 56c6.66699 3.33301 12.334 5 17.001 5c6 0 11.667 -1.66699 17 -5l104 -55c10.667 -6 16 -15.333 16 -28c0 -7.33301 -2.33301 -13.833 -7 -19.5s-10 -8.5 -16 -8.5c-1.33301 0 -3.33301 0.333008 -6 1
c-1.33301 1.33301 -2.66602 2 -3.99902 2l-104 56l-104 -56c-3.33301 -2 -6.33301 -3 -9 -3c-6 0 -11.333 3 -16 9s-7 12.667 -7 20zM147.998 212c0 -94.667 43.667 -142 131 -142c42 0 74.5 11.833 97.5 35.5s34.5 59.167 34.5 106.5v301
c0 47.333 -11.5 82.833 -34.5 106.5s-55.5 35.5 -97.5 35.5c-87.333 0 -131 -47.333 -131 -142v-301z" />
    <glyph glyph-name="Otilde" unicode="&#xd5;" horiz-adv-x="559" 
d="M64 212v301c0 75.333 19.5 130.5 58.5 165.5s91.167 52.5 156.5 52.5s117.666 -17.5 156.999 -52.5s59 -90.167 59 -165.5v-301c0 -75.333 -19.667 -130.5 -59 -165.5s-91.666 -52.5 -156.999 -52.5s-117.5 17.5 -156.5 52.5s-58.5 90.167 -58.5 165.5zM120 887
c0 19.333 9.83496 34.334 29.502 45.001s38.834 16 57.501 16c18 0 40.667 -5.5 68 -16.5s49.666 -16.5 66.999 -16.5c16.667 0 32 4.5 46 13.5s23 13.5 27 13.5c7.33301 0 13.166 -3.16699 17.499 -9.5s6.5 -12.5 6.5 -18.5c0 -20.667 -9.33301 -35.834 -28 -45.501
s-37.334 -14.5 -56.001 -14.5c-20 0 -43.333 5.5 -70 16.5s-48.667 16.5 -66 16.5c-16.667 0 -32.5 -4.83301 -47.5 -14.5s-24.5 -14.5 -28.5 -14.5c-7.33301 0 -13 3.16699 -17 9.5s-6 12.833 -6 19.5zM148.002 212.001c0 -94.667 43.667 -142 131 -142
c42 0 74.5 11.833 97.5 35.5s34.5 59.167 34.5 106.5v301c0 47.333 -11.5 82.833 -34.5 106.5s-55.5 35.5 -97.5 35.5c-87.333 0 -131 -47.333 -131 -142v-301z" />
    <glyph glyph-name="Odieresis" unicode="&#xd6;" horiz-adv-x="559" 
d="M64 212v301c0 75.333 19.5 130.5 58.5 165.5s91.167 52.5 156.5 52.5s117.666 -17.5 156.999 -52.5s59 -90.167 59 -165.5v-301c0 -75.333 -19.667 -130.5 -59 -165.5s-91.666 -52.5 -156.999 -52.5s-117.5 17.5 -156.5 52.5s-58.5 90.167 -58.5 165.5zM148 212
c0 -94.667 43.667 -142 131 -142c42 0 74.5 11.833 97.5 35.5s34.5 59.167 34.5 106.5v301c0 47.333 -11.5 82.833 -34.5 106.5s-55.5 35.5 -97.5 35.5c-87.333 0 -131 -47.333 -131 -142v-301zM174 881c0 11.333 4 21 12 29s17.667 12 29 12s20.833 -4 28.5 -12
s11.5 -17.667 11.5 -29s-4 -21.166 -12 -29.499s-17.333 -12.5 -28 -12.5c-11.333 0 -21 4.16699 -29 12.5s-12 18.166 -12 29.499zM305 881c0 11.333 3.83301 21 11.5 29s17.167 12 28.5 12s20.833 -4 28.5 -12s11.5 -17.667 11.5 -29s-3.83301 -21.166 -11.5 -29.499
s-17.167 -12.5 -28.5 -12.5s-20.833 4.16699 -28.5 12.5s-11.5 18.166 -11.5 29.499z" />
    <glyph glyph-name="multiply" unicode="&#xd7;" horiz-adv-x="400" 
d="M54 168c0 7.33301 2.33105 13.667 6.99805 19l93 88l-92 87c-5.33301 5.33301 -8 12 -8 20c0 10 4.16699 19 12.5 27s17.166 12 26.499 12c8 0 14.667 -2.66699 20 -8l87 -87l87 87c5.33301 5.33301 12 8 20 8c10 0 19 -4 27 -12s12 -17 12 -27
c0 -8 -2.66699 -14.667 -8 -20l-91 -87l92 -88c5.33301 -6.66699 8 -13 8 -19c0 -9.33301 -4.16699 -18.166 -12.5 -26.499s-17.5 -12.5 -27.5 -12.5c-7.33301 0 -13.666 2.33301 -18.999 7l-88 89l-88 -89c-5.33301 -4.66699 -11.666 -7 -18.999 -7
c-9.33301 0 -18.166 4.16699 -26.499 12.5s-12.5 17.166 -12.5 26.499z" />
    <glyph glyph-name="Oslash" unicode="&#xd8;" horiz-adv-x="559" 
d="M62 0c0 6 0.999023 10.333 2.99902 13l32 64c-22 34.667 -33 79.667 -33 135v301c0 75.333 19.5 130.5 58.5 165.5s91.167 52.5 156.5 52.5c51.333 0 95.333 -11.333 132 -34l29 58c5.33301 10 13.333 15 24 15c8.66699 0 16.667 -3.16699 24 -9.5s11 -14.166 11 -23.499
c0 -4.66699 -1.33301 -9.33398 -4 -14.001l-36 -72c24 -34.667 36 -80.667 36 -138v-301c0 -75.333 -19.667 -130.5 -59 -165.5s-91.666 -52.5 -156.999 -52.5c-55.333 0 -100.333 11.667 -135 35l-22 -43c-4.66699 -10.667 -14 -16 -28 -16c-9.33301 0 -17 3 -23 9
s-9 13 -9 21zM147.999 212c0 -8.66699 0.666992 -19 2 -31l223 442c-22.667 21.333 -54 32 -94 32c-87.333 0 -131 -47.333 -131 -142v-301zM181.999 105c21.333 -23.333 53.667 -35 97 -35c42 0 74.5 11.833 97.5 35.5s34.5 59.167 34.5 106.5v301c0 13.333 -1 26 -3 38z
" />
    <glyph glyph-name="Ugrave" unicode="&#xd9;" horiz-adv-x="573" 
d="M68 212l0.00390625 490c0 9.33301 4.16699 16.5 12.5 21.5s18.166 7.5 29.499 7.5s21.166 -2.5 29.499 -7.5s12.5 -12.167 12.5 -21.5v-490c0 -94.667 44.667 -142 134 -142c43.333 0 76.666 11.833 99.999 35.5s35 59.167 35 106.5v490c0 19.333 14 29 42 29
c11.333 0 21.166 -2.5 29.499 -7.5s12.5 -12.167 12.5 -21.5v-490c0 -75.333 -20 -130.5 -60 -165.5s-93 -52.5 -159 -52.5s-118.833 17.5 -158.5 52.5s-59.5 90.167 -59.5 165.5zM193.004 921c0 8.66699 2.66699 16.5 8 23.5s12 10.5 20 10.5c2.66699 0 6 -0.666992 10 -2
l117 -62c8.66699 -4.66699 13 -12 13 -22c0 -8.66699 -3 -16.5 -9 -23.5s-13 -10.5 -21 -10.5c-2 0 -5.66699 1.33301 -11 4l-113 58c-9.33301 4.66699 -14 12.667 -14 24z" />
    <glyph glyph-name="Uacute" unicode="&#xda;" horiz-adv-x="573" 
d="M68 212l0.00390625 490c0 9.33301 4.16699 16.5 12.5 21.5s18.166 7.5 29.499 7.5s21.166 -2.5 29.499 -7.5s12.5 -12.167 12.5 -21.5v-490c0 -94.667 44.667 -142 134 -142c43.333 0 76.666 11.833 99.999 35.5s35 59.167 35 106.5v490c0 19.333 14 29 42 29
c11.333 0 21.166 -2.5 29.499 -7.5s12.5 -12.167 12.5 -21.5v-490c0 -75.333 -20 -130.5 -60 -165.5s-93 -52.5 -159 -52.5s-118.833 17.5 -158.5 52.5s-59.5 90.167 -59.5 165.5zM213.004 869c0 10 4.33301 17.333 13 22l117 62c4 1.33301 7.33301 2 10 2
c8 0 14.667 -3.5 20 -10.5s8 -14.833 8 -23.5c0 -11.333 -4.66699 -19.333 -14 -24l-113 -58c-5.33301 -2.66699 -9 -4 -11 -4c-8 0 -15 3.5 -21 10.5s-9 14.833 -9 23.5z" />
    <glyph glyph-name="Ucircumflex" unicode="&#xdb;" horiz-adv-x="573" 
d="M68 212l0.00390625 490c0 9.33301 4.16699 16.5 12.5 21.5s18.166 7.5 29.499 7.5s21.166 -2.5 29.499 -7.5s12.5 -12.167 12.5 -21.5v-490c0 -94.667 44.667 -142 134 -142c43.333 0 76.666 11.833 99.999 35.5s35 59.167 35 106.5v490c0 19.333 14 29 42 29
c11.333 0 21.166 -2.5 29.499 -7.5s12.5 -12.167 12.5 -21.5v-490c0 -75.333 -20 -130.5 -60 -165.5s-93 -52.5 -159 -52.5s-118.833 17.5 -158.5 52.5s-59.5 90.167 -59.5 165.5zM147.004 868c0 12 4.99805 20.667 14.998 26l104 56c6.66699 3.33301 12.334 5 17.001 5
c6 0 11.667 -1.66699 17 -5l104 -55c10.667 -6 16 -15.333 16 -28c0 -7.33301 -2.33301 -13.833 -7 -19.5s-10 -8.5 -16 -8.5c-1.33301 0 -3.33301 0.333008 -6 1c-1.33301 1.33301 -2.66602 2 -3.99902 2l-104 56l-104 -56c-3.33301 -2 -6.33301 -3 -9 -3
c-6 0 -11.333 3 -16 9s-7 12.667 -7 20z" />
    <glyph glyph-name="Udieresis" unicode="&#xdc;" horiz-adv-x="573" 
d="M68 212l0.00390625 490c0 9.33301 4.16699 16.5 12.5 21.5s18.166 7.5 29.499 7.5s21.166 -2.5 29.499 -7.5s12.5 -12.167 12.5 -21.5v-490c0 -94.667 44.667 -142 134 -142c43.333 0 76.666 11.833 99.999 35.5s35 59.167 35 106.5v490c0 19.333 14 29 42 29
c11.333 0 21.166 -2.5 29.499 -7.5s12.5 -12.167 12.5 -21.5v-490c0 -75.333 -20 -130.5 -60 -165.5s-93 -52.5 -159 -52.5s-118.833 17.5 -158.5 52.5s-59.5 90.167 -59.5 165.5zM180.004 881c0 11.333 4 21 12 29s17.667 12 29 12s20.833 -4 28.5 -12
s11.5 -17.667 11.5 -29s-4 -21.166 -12 -29.499s-17.333 -12.5 -28 -12.5c-11.333 0 -21 4.16699 -29 12.5s-12 18.166 -12 29.499zM311.004 881c0 11.333 3.83301 21 11.5 29s17.167 12 28.5 12s20.833 -4 28.5 -12s11.5 -17.667 11.5 -29s-3.83301 -21.166 -11.5 -29.499
s-17.167 -12.5 -28.5 -12.5s-20.833 4.16699 -28.5 12.5s-11.5 18.166 -11.5 29.499z" />
    <glyph glyph-name="Yacute" unicode="&#xdd;" horiz-adv-x="545" 
d="M17 696c0 10 5.49805 18.334 16.498 25.001s22.167 10 33.5 10c12 0 22 -7.33301 30 -22l176 -343l175 343c8 14.667 18 22 30 22s23.333 -3.33301 34 -10s16 -15 16 -25c0 -5.33301 -1.33301 -11 -4 -17l-207 -386c-1.33301 -2 -2 -5.33301 -2 -10v-253
c0 -9.33301 -4.16699 -16.666 -12.5 -21.999s-18.166 -8 -29.499 -8s-21.166 2.66699 -29.499 8s-12.5 12.666 -12.5 21.999v253c0 3.33301 -1 6.66602 -3 9.99902l-207 386c-2.66699 6 -4 11.667 -4 17zM195.998 869.001c0 10 4.33301 17.333 13 22l117 62
c4 1.33301 7.33301 2 10 2c8 0 14.667 -3.5 20 -10.5s8 -14.833 8 -23.5c0 -11.333 -4.66699 -19.333 -14 -24l-113 -58c-5.33301 -2.66699 -9 -4 -11 -4c-8 0 -15 3.5 -21 10.5s-9 14.833 -9 23.5z" />
    <glyph glyph-name="Thorn" unicode="&#xde;" horiz-adv-x="501" 
d="M71 30v679.001c0 8.66699 3.83301 15.667 11.5 21s17.167 8 28.5 8c12.667 0 23 -2.66699 31 -8s12 -12.333 12 -21v-165c29.333 50.667 74.666 76 135.999 76c48 0 89 -15.833 123 -47.5s51 -72.834 51 -123.501v-143c0 -49.333 -17.167 -90.5 -51.5 -123.5
s-73.5 -49.5 -117.5 -49.5c-30.667 0 -59.5 7.66699 -86.5 23s-45.167 34 -54.5 56v-182c0 -8 -4 -15 -12 -21s-17.667 -9 -29 -9s-21.166 3 -29.499 9s-12.5 13 -12.5 21zM154 301.001c0 -21.333 11.499 -42.168 34.499 -62.501s50.5 -30.5 82.5 -30.5c29.333 0 55 9 77 27
s33 41.667 33 71v143c0 28.667 -10.833 51.834 -32.5 69.501s-47.5 26.5 -77.5 26.5c-31.333 0 -58.666 -9 -81.999 -27s-35 -41 -35 -69v-148z" />
    <glyph glyph-name="germandbls" unicode="&#xdf;" horiz-adv-x="566" 
d="M6 441c0 8.66699 2.33008 16.3369 6.99707 23.0039s11 10 19 10h68v104c0 56 14.167 101.667 42.5 137s72.5 53 132.5 53c52.667 0 95.334 -15.333 128.001 -46s49 -76 49 -136c0 -36.667 -6.16699 -70.834 -18.5 -102.501s-29.5 -52.834 -51.5 -63.501
c36.667 -7.33301 70.5 -30 101.5 -68s46.5 -82.333 46.5 -133v-16c0 -71.333 -18.667 -126.333 -56 -165s-83 -58 -137 -58c-69.333 0 -104 16 -104 48c0 9.33301 2.16699 18.333 6.5 27s9.83301 13 16.5 13c2.66699 0 11.834 -2.83301 27.501 -8.5s31.5 -8.5 47.5 -8.5
c37.333 0 66.5 12.667 87.5 38s31.5 61.666 31.5 108.999v15c0 43.333 -12.167 79.666 -36.5 108.999s-60.166 47 -107.499 53c-8.66699 1.33301 -15 2.83301 -19 4.5s-7.66699 5 -11 10s-5 11.833 -5 20.5s1.83301 15.334 5.5 20.001s7.5 7.66699 11.5 9s10.333 3 19 5
c49.333 5.33301 74 45.666 74 120.999c0 40 -8.5 71.333 -25.5 94s-42.5 34 -76.5 34s-58.5 -10.833 -73.5 -32.5s-22.5 -49.167 -22.5 -82.5v-549c0 -8 -4.16699 -14.833 -12.5 -20.5s-18.5 -8.5 -30.5 -8.5c-11.333 0 -20.833 2.66699 -28.5 8s-11.5 12.333 -11.5 21v380
h-68c-8 0 -14.333 3.16699 -19 9.5s-7 13.833 -7 22.5z" />
    <glyph glyph-name="agrave" unicode="&#xe0;" horiz-adv-x="448" 
d="M28 125c0 52 19.999 88.167 59.999 108.5s98 30.5 174 30.5h48v21c0 33.333 -9.16699 62.333 -27.5 87s-45.833 37 -82.5 37c-28 0 -52.667 -4.83301 -74 -14.5s-33 -14.5 -35 -14.5c-9.33301 0 -16.833 4.5 -22.5 13.5s-8.5 18.5 -8.5 28.5
c0 15.333 15.167 28.833 45.5 40.5s62.5 17.5 96.5 17.5c65.333 0 113.5 -18.5 144.5 -55.5s46.5 -83.167 46.5 -138.5v-256c0 -8.66699 -3.83301 -15.834 -11.5 -21.501s-17.5 -8.5 -29.5 -8.5c-10.667 0 -19.667 2.83301 -27 8.5s-11 12.834 -11 21.501v40
c-45.333 -52 -95.666 -78 -150.999 -78c-40 0 -72.5 11.333 -97.5 34s-37.5 55.667 -37.5 99zM111.999 134c0 -24.667 7 -43.3311 21 -55.998s32.667 -19 56 -19c28 0 55.167 11.167 81.5 33.5s39.5 45.166 39.5 68.499v52h-35c-19.333 0 -36 -0.5 -50 -1.5
s-28.5 -3 -43.5 -6s-27.333 -7.33301 -37 -13s-17.5 -13.334 -23.5 -23.001s-9 -21.5 -9 -35.5zM127.999 670.003c0 8.66699 2.66699 16.5 8 23.5s12 10.5 20 10.5c2.66699 0 6 -0.666992 10 -2l117 -62c8.66699 -4 13 -11.333 13 -22c0 -8.66699 -3 -16.5 -9 -23.5
s-13 -10.5 -21 -10.5c-2 0 -5.66699 1.33301 -11 4l-113 58c-9.33301 4.66699 -14 12.667 -14 24z" />
    <glyph glyph-name="aacute" unicode="&#xe1;" horiz-adv-x="448" 
d="M28 125c0 52 19.999 88.167 59.999 108.5s98 30.5 174 30.5h48v21c0 33.333 -9.16699 62.333 -27.5 87s-45.833 37 -82.5 37c-28 0 -52.667 -4.83301 -74 -14.5s-33 -14.5 -35 -14.5c-9.33301 0 -16.833 4.5 -22.5 13.5s-8.5 18.5 -8.5 28.5
c0 15.333 15.167 28.833 45.5 40.5s62.5 17.5 96.5 17.5c65.333 0 113.5 -18.5 144.5 -55.5s46.5 -83.167 46.5 -138.5v-256c0 -8.66699 -3.83301 -15.834 -11.5 -21.501s-17.5 -8.5 -29.5 -8.5c-10.667 0 -19.667 2.83301 -27 8.5s-11 12.834 -11 21.501v40
c-45.333 -52 -95.666 -78 -150.999 -78c-40 0 -72.5 11.333 -97.5 34s-37.5 55.667 -37.5 99zM111.999 134c0 -24.667 7 -43.3311 21 -55.998s32.667 -19 56 -19c28 0 55.167 11.167 81.5 33.5s39.5 45.166 39.5 68.499v52h-35c-19.333 0 -36 -0.5 -50 -1.5
s-28.5 -3 -43.5 -6s-27.333 -7.33301 -37 -13s-17.5 -13.334 -23.5 -23.001s-9 -21.5 -9 -35.5zM135.999 618.003c0 10 4.33301 17.333 13 22l117 62c4 1.33301 7.33301 2 10 2c8 0 14.667 -3.5 20 -10.5s8 -14.833 8 -23.5c0 -11.333 -4.66699 -19.333 -14 -24l-113 -58
c-5.33301 -2.66699 -9 -4 -11 -4c-8 0 -15 3.5 -21 10.5s-9 14.833 -9 23.5z" />
    <glyph glyph-name="acircumflex" unicode="&#xe2;" horiz-adv-x="448" 
d="M28 125c0 52 19.999 88.167 59.999 108.5s98 30.5 174 30.5h48v21c0 33.333 -9.16699 62.333 -27.5 87s-45.833 37 -82.5 37c-28 0 -52.667 -4.83301 -74 -14.5s-33 -14.5 -35 -14.5c-9.33301 0 -16.833 4.5 -22.5 13.5s-8.5 18.5 -8.5 28.5
c0 15.333 15.167 28.833 45.5 40.5s62.5 17.5 96.5 17.5c65.333 0 113.5 -18.5 144.5 -55.5s46.5 -83.167 46.5 -138.5v-256c0 -8.66699 -3.83301 -15.834 -11.5 -21.501s-17.5 -8.5 -29.5 -8.5c-10.667 0 -19.667 2.83301 -27 8.5s-11 12.834 -11 21.501v40
c-45.333 -52 -95.666 -78 -150.999 -78c-40 0 -72.5 11.333 -97.5 34s-37.5 55.667 -37.5 99zM74.999 617c0 12.667 4.99805 21.333 14.998 26l104 56c6.66699 3.33301 12.334 5 17.001 5c6 0 11.667 -1.66699 17 -5l104 -55c10.667 -6 16 -15.333 16 -28
c0 -7.33301 -2.33301 -13.833 -7 -19.5s-10 -8.5 -16 -8.5c-1.33301 0 -3.33301 0.333008 -6 1c-1.33301 1.33301 -2.66602 2 -3.99902 2l-104 56l-104 -56c-3.33301 -2 -6.33301 -3 -9 -3c-6 0 -11.333 3 -16 9s-7 12.667 -7 20zM111.997 133.999
c0 -24.667 7 -43.3311 21 -55.998s32.667 -19 56 -19c28 0 55.167 11.167 81.5 33.5s39.5 45.166 39.5 68.499v52h-35c-19.333 0 -36 -0.5 -50 -1.5s-28.5 -3 -43.5 -6s-27.333 -7.33301 -37 -13s-17.5 -13.334 -23.5 -23.001s-9 -21.5 -9 -35.5z" />
    <glyph glyph-name="atilde" unicode="&#xe3;" horiz-adv-x="448" 
d="M28 125c0 52 19.999 88.167 59.999 108.5s98 30.5 174 30.5h48v21c0 33.333 -9.16699 62.333 -27.5 87s-45.833 37 -82.5 37c-28 0 -52.667 -4.83301 -74 -14.5s-33 -14.5 -35 -14.5c-9.33301 0 -16.833 4.5 -22.5 13.5s-8.5 18.5 -8.5 28.5
c0 15.333 15.167 28.833 45.5 40.5s62.5 17.5 96.5 17.5c65.333 0 113.5 -18.5 144.5 -55.5s46.5 -83.167 46.5 -138.5v-256c0 -8.66699 -3.83301 -15.834 -11.5 -21.501s-17.5 -8.5 -29.5 -8.5c-10.667 0 -19.667 2.83301 -27 8.5s-11 12.834 -11 21.501v40
c-45.333 -52 -95.666 -78 -150.999 -78c-40 0 -72.5 11.333 -97.5 34s-37.5 55.667 -37.5 99zM52.999 636c0 19.333 9.83496 34.334 29.502 45.001s38.834 16 57.501 16c18 0 40.667 -5.5 68 -16.5s49.666 -16.5 66.999 -16.5c16.667 0 32 4.5 46 13.5s23 13.5 27 13.5
c7.33301 0 13.166 -3.16699 17.499 -9.5s6.5 -12.5 6.5 -18.5c0 -20.667 -9.33301 -35.834 -28 -45.501s-37.334 -14.5 -56.001 -14.5c-20 0 -43.333 5.5 -70 16.5s-48.667 16.5 -66 16.5c-16.667 0 -32.5 -4.83301 -47.5 -14.5s-24.5 -14.5 -28.5 -14.5
c-7.33301 0 -13 3.16699 -17 9.5s-6 12.833 -6 19.5zM112.001 134.001c0 -24.667 7 -43.3311 21 -55.998s32.667 -19 56 -19c28 0 55.167 11.167 81.5 33.5s39.5 45.166 39.5 68.499v52h-35c-19.333 0 -36 -0.5 -50 -1.5s-28.5 -3 -43.5 -6s-27.333 -7.33301 -37 -13
s-17.5 -13.334 -23.5 -23.001s-9 -21.5 -9 -35.5z" />
    <glyph glyph-name="adieresis" unicode="&#xe4;" horiz-adv-x="448" 
d="M28 125c0 52 19.999 88.167 59.999 108.5s98 30.5 174 30.5h48v21c0 33.333 -9.16699 62.333 -27.5 87s-45.833 37 -82.5 37c-28 0 -52.667 -4.83301 -74 -14.5s-33 -14.5 -35 -14.5c-9.33301 0 -16.833 4.5 -22.5 13.5s-8.5 18.5 -8.5 28.5
c0 15.333 15.167 28.833 45.5 40.5s62.5 17.5 96.5 17.5c65.333 0 113.5 -18.5 144.5 -55.5s46.5 -83.167 46.5 -138.5v-256c0 -8.66699 -3.83301 -15.834 -11.5 -21.501s-17.5 -8.5 -29.5 -8.5c-10.667 0 -19.667 2.83301 -27 8.5s-11 12.834 -11 21.501v40
c-45.333 -52 -95.666 -78 -150.999 -78c-40 0 -72.5 11.333 -97.5 34s-37.5 55.667 -37.5 99zM105.999 630c0 11.333 4 21 12 29s17.667 12 29 12s20.833 -4 28.5 -12s11.5 -17.667 11.5 -29s-4 -21.166 -12 -29.499s-17.333 -12.5 -28 -12.5
c-11.333 0 -21 4.16699 -29 12.5s-12 18.166 -12 29.499zM111.999 134c0 -24.667 7 -43.3311 21 -55.998s32.667 -19 56 -19c28 0 55.167 11.167 81.5 33.5s39.5 45.166 39.5 68.499v52h-35c-19.333 0 -36 -0.5 -50 -1.5s-28.5 -3 -43.5 -6s-27.333 -7.33301 -37 -13
s-17.5 -13.334 -23.5 -23.001s-9 -21.5 -9 -35.5zM236.999 630.003c0 11.333 3.83301 21 11.5 29s17.167 12 28.5 12s20.833 -4 28.5 -12s11.5 -17.667 11.5 -29s-3.83301 -21.166 -11.5 -29.499s-17.167 -12.5 -28.5 -12.5s-20.833 4.16699 -28.5 12.5
s-11.5 18.166 -11.5 29.499z" />
    <glyph glyph-name="aring" unicode="&#xe5;" horiz-adv-x="448" 
d="M28 125c0 52 19.999 88.167 59.999 108.5s98 30.5 174 30.5h48v21c0 33.333 -9.16699 62.333 -27.5 87s-45.833 37 -82.5 37c-28 0 -52.667 -4.83301 -74 -14.5s-33 -14.5 -35 -14.5c-9.33301 0 -16.833 4.5 -22.5 13.5s-8.5 18.5 -8.5 28.5
c0 15.333 15.167 28.833 45.5 40.5s62.5 17.5 96.5 17.5c65.333 0 113.5 -18.5 144.5 -55.5s46.5 -83.167 46.5 -138.5v-256c0 -8.66699 -3.83301 -15.834 -11.5 -21.501s-17.5 -8.5 -29.5 -8.5c-10.667 0 -19.667 2.83301 -27 8.5s-11 12.834 -11 21.501v40
c-45.333 -52 -95.666 -78 -150.999 -78c-40 0 -72.5 11.333 -97.5 34s-37.5 55.667 -37.5 99zM111.999 134c0 -24.667 7 -43.3311 21 -55.998s32.667 -19 56 -19c28 0 55.167 11.167 81.5 33.5s39.5 45.166 39.5 68.499v52h-35c-19.333 0 -36 -0.5 -50 -1.5
s-28.5 -3 -43.5 -6s-27.333 -7.33301 -37 -13s-17.5 -13.334 -23.5 -23.001s-9 -21.5 -9 -35.5zM118.999 673.003c0 25.333 9.16699 47.5 27.5 66.5s40.5 28.5 66.5 28.5c24.667 0 46.5 -9.66699 65.5 -29s28.5 -41.333 28.5 -66c0 -25.333 -9.5 -47.833 -28.5 -67.5
s-40.833 -29.5 -65.5 -29.5c-26 0 -48.167 9.66699 -66.5 29s-27.5 42 -27.5 68zM156.999 673.003c0 -14.667 5.5 -28.167 16.5 -40.5s24.167 -18.5 39.5 -18.5c14.667 0 27.5 6.16699 38.5 18.5s16.5 25.833 16.5 40.5c0 14 -5.5 26.667 -16.5 38s-23.833 17 -38.5 17
c-15.333 0 -28.5 -5.83301 -39.5 -17.5s-16.5 -24.167 -16.5 -37.5z" />
    <glyph glyph-name="ae" unicode="&#xe6;" horiz-adv-x="733" 
d="M28 124c0 52.667 19.833 89.165 59.5 109.498s97.167 30.5 172.5 30.5h48v22c0 34 -9 63.167 -27 87.5s-46 36.5 -84 36.5c-26.667 0 -50.834 -5 -72.501 -15s-33.5 -15 -35.5 -15c-8.66699 0 -16 4.5 -22 13.5s-9 18.833 -9 29.5c0 14.667 15.333 27.834 46 39.501
s63 17.5 97 17.5c72 0 123.333 -29.667 154 -89c17.333 26.667 39.333 48.167 66 64.5s55.667 24.5 87 24.5c50.667 0 95.5 -16.833 134.5 -50.5s58.5 -81.167 58.5 -142.5c0 -30.667 -6.66699 -50.667 -20 -60s-36.333 -14 -69 -14h-218v-30c0 -36.667 13 -66 39 -88
s59.667 -33 101 -33c28.667 0 55.167 6.5 79.5 19.5s38.5 19.5 42.5 19.5c8.66699 0 16.334 -4.16699 23.001 -12.5s10 -16.833 10 -25.5c0 -16.667 -17.167 -32.667 -51.5 -48s-71.833 -23 -112.5 -23c-38 0 -73 8.83301 -105 26.5s-57 42.167 -75 73.5
c-20.667 -32.667 -46.5 -57.5 -77.5 -74.5s-62.5 -25.5 -94.5 -25.5c-41.333 0 -75.833 11.333 -103.5 34s-41.5 55.334 -41.5 98.001zM112 131.998c0 -23.333 7 -41.334 21 -54.001s32.333 -19 55 -19c30.667 0 58.334 11.167 83.001 33.5s37 45.166 37 68.499v52h-34
c-25.333 0 -46.333 -0.833008 -63 -2.5s-33.334 -5.16699 -50.001 -10.5s-29 -13.666 -37 -24.999s-12 -25.666 -12 -42.999zM394 268.997l182.999 0.000976562c18.667 0 30.834 2.16699 36.501 6.5s8.5 12.5 8.5 24.5c0 31.333 -11 58.166 -33 80.499
s-49.333 33.5 -82 33.5c-31.333 0 -58 -10.5 -80 -31.5s-33 -46.833 -33 -77.5v-36z" />
    <glyph glyph-name="ccedilla" unicode="&#xe7;" horiz-adv-x="417" 
d="M42 186l0.000976562 99.998c0 57.333 16.833 104 50.5 140s83.167 54 148.5 54c41.333 0 76.166 -7.33301 104.499 -22s42.5 -30.334 42.5 -47.001c0 -9.33301 -3.5 -18.5 -10.5 -27.5s-15.167 -13.5 -24.5 -13.5c-2.66699 0 -14.167 5.83301 -34.5 17.5
s-44.166 17.5 -71.499 17.5c-40 0 -70.333 -10.333 -91 -31s-31 -50 -31 -88v-100c0 -79.333 41 -119 123 -119c28 0 52.333 6 73 18s32.667 18 36 18c10.667 0 19.5 -4.33301 26.5 -13s10.5 -17.667 10.5 -27c0 -15.333 -12.667 -30.166 -38 -44.499s-57 -22.833 -95 -25.5
l-13 -51c32 -0.666992 56 -8 72 -22s24 -31 24 -51c0 -21.333 -7.83301 -40.166 -23.5 -56.499s-38.834 -24.5 -69.501 -24.5c-18 0 -35.833 2.33301 -53.5 7s-26.5 11.334 -26.5 20.001c0 4.66699 1.66699 10.5 5 17.5s7.66602 10.5 12.999 10.5
c1.33301 0 7.83301 -2.33301 19.5 -7s23.834 -7 36.501 -7c34.667 0 52 12.333 52 37c0 24 -19.667 37.667 -59 41l-43 3l22 83c-58 4 -101.667 23.667 -131 59s-44 80 -44 134z" />
    <glyph glyph-name="egrave" unicode="&#xe8;" horiz-adv-x="465" 
d="M41 186v105.001c0 51.333 19.5 95.666 58.5 132.999s85.833 56 140.5 56c52 0 97 -17.5 135 -52.5s57 -78.833 57 -131.5c0 -19.333 -2.33301 -34.833 -7 -46.5s-11.834 -20 -21.501 -25s-18.667 -8.16699 -27 -9.5s-19.5 -2 -33.5 -2h-219v-30
c0 -36.667 13.167 -66 39.5 -88s60.5 -33 102.5 -33c22 0 41.167 3.33301 57.5 10s29.5 13.167 39.5 19.5s18 9.5 24 9.5c9.33301 0 17.333 -4.16699 24 -12.5s10 -16.833 10 -25.5c0 -15.333 -15.167 -31 -45.5 -47s-67.833 -24 -112.5 -24
c-65.333 0 -118.666 17.833 -159.999 53.5s-62 82.5 -62 140.5zM124 269.001h185c17.333 0 29 2.16699 35 6.5s9 12.833 9 25.5c0 30 -11 56.333 -33 79s-49 34 -81 34c-31.333 0 -58.333 -10.5 -81 -31.5s-34 -46.833 -34 -77.5v-36zM148 670.001
c0 8.66699 2.66699 16.5 8 23.5s12 10.5 20 10.5c2.66699 0 6 -0.666992 10 -2l117 -62c8.66699 -4 13 -11.333 13 -22c0 -8.66699 -3 -16.5 -9 -23.5s-13 -10.5 -21 -10.5c-2 0 -5.66699 1.33301 -11 4l-113 58c-9.33301 4.66699 -14 12.667 -14 24z" />
    <glyph glyph-name="eacute" unicode="&#xe9;" horiz-adv-x="465" 
d="M41 186v105.001c0 51.333 19.5 95.666 58.5 132.999s85.833 56 140.5 56c52 0 97 -17.5 135 -52.5s57 -78.833 57 -131.5c0 -19.333 -2.33301 -34.833 -7 -46.5s-11.834 -20 -21.501 -25s-18.667 -8.16699 -27 -9.5s-19.5 -2 -33.5 -2h-219v-30
c0 -36.667 13.167 -66 39.5 -88s60.5 -33 102.5 -33c22 0 41.167 3.33301 57.5 10s29.5 13.167 39.5 19.5s18 9.5 24 9.5c9.33301 0 17.333 -4.16699 24 -12.5s10 -16.833 10 -25.5c0 -15.333 -15.167 -31 -45.5 -47s-67.833 -24 -112.5 -24
c-65.333 0 -118.666 17.833 -159.999 53.5s-62 82.5 -62 140.5zM124 269.001h185c17.333 0 29 2.16699 35 6.5s9 12.833 9 25.5c0 30 -11 56.333 -33 79s-49 34 -81 34c-31.333 0 -58.333 -10.5 -81 -31.5s-34 -46.833 -34 -77.5v-36zM156 618.001
c0 10 4.33301 17.333 13 22l117 62c4 1.33301 7.33301 2 10 2c8 0 14.667 -3.5 20 -10.5s8 -14.833 8 -23.5c0 -11.333 -4.66699 -19.333 -14 -24l-113 -58c-5.33301 -2.66699 -9 -4 -11 -4c-8 0 -15 3.5 -21 10.5s-9 14.833 -9 23.5z" />
    <glyph glyph-name="ecircumflex" unicode="&#xea;" horiz-adv-x="465" 
d="M41 186v105.001c0 51.333 19.5 95.666 58.5 132.999s85.833 56 140.5 56c52 0 97 -17.5 135 -52.5s57 -78.833 57 -131.5c0 -19.333 -2.33301 -34.833 -7 -46.5s-11.834 -20 -21.501 -25s-18.667 -8.16699 -27 -9.5s-19.5 -2 -33.5 -2h-219v-30
c0 -36.667 13.167 -66 39.5 -88s60.5 -33 102.5 -33c22 0 41.167 3.33301 57.5 10s29.5 13.167 39.5 19.5s18 9.5 24 9.5c9.33301 0 17.333 -4.16699 24 -12.5s10 -16.833 10 -25.5c0 -15.333 -15.167 -31 -45.5 -47s-67.833 -24 -112.5 -24
c-65.333 0 -118.666 17.833 -159.999 53.5s-62 82.5 -62 140.5zM102 617.001c0 12.667 4.99805 21.333 14.998 26l104 56c6.66699 3.33301 12.334 5 17.001 5c6 0 11.667 -1.66699 17 -5l104 -55c10.667 -6 16 -15.333 16 -28c0 -7.33301 -2.16699 -13.833 -6.5 -19.5
s-9.83301 -8.5 -16.5 -8.5c-1.33301 0 -3.33301 0.333008 -6 1c-1.33301 1.33301 -2.66602 2 -3.99902 2l-104 56l-104 -56c-2.66699 -2 -5.66699 -3 -9 -3c-6 0 -11.333 3 -16 9s-7 12.667 -7 20zM123.998 269h185c17.333 0 29 2.16699 35 6.5s9 12.833 9 25.5
c0 30 -11 56.333 -33 79s-49 34 -81 34c-31.333 0 -58.333 -10.5 -81 -31.5s-34 -46.833 -34 -77.5v-36z" />
    <glyph glyph-name="edieresis" unicode="&#xeb;" horiz-adv-x="465" 
d="M41 186v105.001c0 51.333 19.5 95.666 58.5 132.999s85.833 56 140.5 56c52 0 97 -17.5 135 -52.5s57 -78.833 57 -131.5c0 -19.333 -2.33301 -34.833 -7 -46.5s-11.834 -20 -21.501 -25s-18.667 -8.16699 -27 -9.5s-19.5 -2 -33.5 -2h-219v-30
c0 -36.667 13.167 -66 39.5 -88s60.5 -33 102.5 -33c22 0 41.167 3.33301 57.5 10s29.5 13.167 39.5 19.5s18 9.5 24 9.5c9.33301 0 17.333 -4.16699 24 -12.5s10 -16.833 10 -25.5c0 -15.333 -15.167 -31 -45.5 -47s-67.833 -24 -112.5 -24
c-65.333 0 -118.666 17.833 -159.999 53.5s-62 82.5 -62 140.5zM124 269.001h185c17.333 0 29 2.16699 35 6.5s9 12.833 9 25.5c0 30 -11 56.333 -33 79s-49 34 -81 34c-31.333 0 -58.333 -10.5 -81 -31.5s-34 -46.833 -34 -77.5v-36zM132 630.001c0 11.333 4 21 12 29
s17.667 12 29 12s20.833 -4 28.5 -12s11.5 -17.667 11.5 -29s-4 -21.166 -12 -29.499s-17.333 -12.5 -28 -12.5c-11.333 0 -21 4.16699 -29 12.5s-12 18.166 -12 29.499zM263 630.001c0 11.333 3.83301 21 11.5 29s17.167 12 28.5 12s20.833 -4 28.5 -12
s11.5 -17.667 11.5 -29s-3.83301 -21.166 -11.5 -29.499s-17.167 -12.5 -28.5 -12.5s-20.833 4.16699 -28.5 12.5s-11.5 18.166 -11.5 29.499z" />
    <glyph glyph-name="igrave" unicode="&#xec;" horiz-adv-x="201" 
d="M8 670c0 8.66699 2.66699 16.5 8 23.5s12 10.5 20 10.5c2.66699 0 6 -0.666992 10 -2l117 -62c8.66699 -4 13 -11.333 13 -22c0 -8.66699 -3 -16.5 -9 -23.5s-13 -10.5 -21 -10.5c-2 0 -5.66699 1.33301 -11 4l-113 58c-9.33301 4.66699 -14 12.667 -14 24zM59 30
l-0.000976562 414.999c0 8.66699 4 15.667 12 21s17.667 8 29 8c12 0 22 -2.66699 30 -8s12 -12.333 12 -21v-415c0 -7.33301 -4.16699 -14.166 -12.5 -20.499s-18.166 -9.5 -29.499 -9.5s-21 3 -29 9s-12 13 -12 21z" />
    <glyph glyph-name="iacute" unicode="&#xed;" horiz-adv-x="201" 
d="M24 618c0 10 4.33301 17.333 13 22l117 62c4 1.33301 7.33301 2 10 2c8 0 14.667 -3.5 20 -10.5s8 -14.833 8 -23.5c0 -11.333 -4.66699 -19.333 -14 -24l-113 -58c-5.33301 -2.66699 -9 -4 -11 -4c-8 0 -15 3.5 -21 10.5s-9 14.833 -9 23.5zM59 30l-0.000976562 414.999
c0 8.66699 4 15.667 12 21s17.667 8 29 8c12 0 22 -2.66699 30 -8s12 -12.333 12 -21v-415c0 -7.33301 -4.16699 -14.166 -12.5 -20.499s-18.166 -9.5 -29.499 -9.5s-21 3 -29 9s-12 13 -12 21z" />
    <glyph glyph-name="icircumflex" unicode="&#xee;" horiz-adv-x="201" 
d="M-36 617c0 12.667 4.99805 21.333 14.998 26l104 56c6.66699 3.33301 12.334 5 17.001 5c6 0 11.667 -1.66699 17 -5l104 -55c10.667 -6 16 -15.333 16 -28c0 -7.33301 -2.16699 -13.833 -6.5 -19.5s-9.83301 -8.5 -16.5 -8.5c-1.33301 0 -3.33301 0.333008 -6 1
c-1.33301 1.33301 -2.66602 2 -3.99902 2l-104 56l-104 -56c-2.66699 -2 -5.66699 -3 -9 -3c-6 0 -11.333 3 -16 9s-7 12.667 -7 20zM58.998 29.999l-0.000976562 414.999c0 8.66699 4 15.667 12 21s17.667 8 29 8c12 0 22 -2.66699 30 -8s12 -12.333 12 -21v-415
c0 -7.33301 -4.16699 -14.166 -12.5 -20.499s-18.166 -9.5 -29.499 -9.5s-21 3 -29 9s-12 13 -12 21z" />
    <glyph glyph-name="idieresis" unicode="&#xef;" horiz-adv-x="201" 
d="M-3 630c0 11.333 4 21 12 29s17.667 12 29 12s20.833 -4 28.5 -12s11.5 -17.667 11.5 -29s-4 -21.166 -12 -29.499s-17.333 -12.5 -28 -12.5c-11.333 0 -21 4.16699 -29 12.5s-12 18.166 -12 29.499zM59 30l-0.000976562 414.999c0 8.66699 4 15.667 12 21s17.667 8 29 8
c12 0 22 -2.66699 30 -8s12 -12.333 12 -21v-415c0 -7.33301 -4.16699 -14.166 -12.5 -20.499s-18.166 -9.5 -29.499 -9.5s-21 3 -29 9s-12 13 -12 21zM127.999 629.999c0 11.333 3.83301 21 11.5 29s17.167 12 28.5 12s20.833 -4 28.5 -12s11.5 -17.667 11.5 -29
s-3.83301 -21.166 -11.5 -29.499s-17.167 -12.5 -28.5 -12.5s-20.833 4.16699 -28.5 12.5s-11.5 18.166 -11.5 29.499z" />
    <glyph glyph-name="eth" unicode="&#xf0;" horiz-adv-x="492" 
d="M41 186l0.00292969 102.001c0 52 17.5 97 52.5 135s76.5 57 124.5 57c30 0 58 -7.66699 84 -23s43.667 -35 53 -59c-5.33301 78.667 -26.666 145 -63.999 199l-75 -44c-2.66699 -2 -6.33398 -3 -11.001 -3c-7.33301 0 -14.333 3.83301 -21 11.5s-10 15.834 -10 24.501
c0 9.33301 3.66699 15.666 11 18.999l69 40c-26.667 27.333 -55.334 41.666 -86.001 42.999c-13.333 6.66699 -20 17 -20 31c0 10 3.66699 19.333 11 28s18.666 13 33.999 13c46.667 0 91 -24 133 -72l68 40c2.66699 2 6 3 10 3c8 0 15.333 -3.66699 22 -11
s10 -15.333 10 -24c0 -9.33301 -4 -16 -12 -20l-63 -38c51.333 -82.667 77 -176.667 77 -282v-170c0 -50.667 -19.833 -95.667 -59.5 -135s-85.834 -59 -138.501 -59c-53.333 0 -99.833 19.5 -139.5 58.5s-59.5 84.167 -59.5 135.5zM124.003 186.001
c0 -31.333 11.5 -59.001 34.5 -83.001s50.167 -36 81.5 -36s58.333 12.167 81 36.5s34 51.833 34 82.5v105c0 30.667 -11.667 57.334 -35 80.001s-50.333 34 -81 34c-32 0 -59.167 -12 -81.5 -36s-33.5 -51 -33.5 -81v-102z" />
    <glyph glyph-name="ntilde" unicode="&#xf1;" horiz-adv-x="503" 
d="M59 30v415.001c0 8.66699 3.83301 15.667 11.5 21s17.5 8 29.5 8c10 0 18.833 -2.83301 26.5 -8.5s11.5 -12.5 11.5 -20.5v-41c10.667 21.333 27.834 39.333 51.501 54s51.167 22 82.5 22c47.333 0 88.5 -18.833 123.5 -56.5s52.5 -82.834 52.5 -135.501v-258
c0 -9.33301 -4.16699 -16.666 -12.5 -21.999s-18.166 -8 -29.499 -8c-10.667 0 -20.167 2.66699 -28.5 8s-12.5 12.666 -12.5 21.999v258c0 30 -11.333 57 -34 81s-49.334 36 -80.001 36c-28.667 0 -54 -10.833 -76 -32.5s-33 -49.834 -33 -84.501v-258
c0 -7.33301 -4.33301 -14.166 -13 -20.499s-18.334 -9.5 -29.001 -9.5c-11.333 0 -21 3 -29 9s-12 13 -12 21zM89 636.001c0 19.333 9.83496 34.334 29.502 45.001s38.834 16 57.501 16c18 0 40.667 -5.5 68 -16.5s49.666 -16.5 66.999 -16.5c16.667 0 32 4.5 46 13.5
s23 13.5 27 13.5c7.33301 0 13.166 -3.16699 17.499 -9.5s6.5 -12.5 6.5 -18.5c0 -20.667 -9.33301 -35.834 -28 -45.501s-37.334 -14.5 -56.001 -14.5c-20 0 -43.333 5.5 -70 16.5s-48.667 16.5 -66 16.5c-16.667 0 -32.5 -4.83301 -47.5 -14.5s-24.5 -14.5 -28.5 -14.5
c-7.33301 0 -13 3.16699 -17 9.5s-6 12.833 -6 19.5z" />
    <glyph glyph-name="ograve" unicode="&#xf2;" horiz-adv-x="477" 
d="M41 186l0.00195312 102.001c0 51.333 19.5 96.166 58.5 134.499s85.167 57.5 138.5 57.5s99.666 -19 138.999 -57s59 -83 59 -135v-102c0 -50.667 -19.833 -95.667 -59.5 -135s-85.834 -59 -138.501 -59s-98.667 19.5 -138 58.5s-59 84.167 -59 135.5zM124.002 186.001
c0 -31.333 11.3311 -59 33.998 -83s49.334 -36 80.001 -36c31.333 0 58.333 12.167 81 36.5s34 51.833 34 82.5v102c0 30 -11.333 57 -34 81s-49.667 36 -81 36s-58.166 -12 -80.499 -36s-33.5 -51 -33.5 -81v-102zM148 670.001c0 8.66699 2.66699 16.5 8 23.5
s12 10.5 20 10.5c2.66699 0 6 -0.666992 10 -2l117 -62c8.66699 -4 13 -11.333 13 -22c0 -8.66699 -3 -16.5 -9 -23.5s-13 -10.5 -21 -10.5c-2 0 -5.66699 1.33301 -11 4l-113 58c-9.33301 4.66699 -14 12.667 -14 24z" />
    <glyph glyph-name="oacute" unicode="&#xf3;" horiz-adv-x="477" 
d="M41 186l0.00195312 102.001c0 51.333 19.5 96.166 58.5 134.499s85.167 57.5 138.5 57.5s99.666 -19 138.999 -57s59 -83 59 -135v-102c0 -50.667 -19.833 -95.667 -59.5 -135s-85.834 -59 -138.501 -59s-98.667 19.5 -138 58.5s-59 84.167 -59 135.5zM124.002 186.001
c0 -31.333 11.3311 -59 33.998 -83s49.334 -36 80.001 -36c31.333 0 58.333 12.167 81 36.5s34 51.833 34 82.5v102c0 30 -11.333 57 -34 81s-49.667 36 -81 36s-58.166 -12 -80.499 -36s-33.5 -51 -33.5 -81v-102zM156 618.001c0 10 4.33301 17.333 13 22l117 62
c4 1.33301 7.33301 2 10 2c8 0 14.667 -3.5 20 -10.5s8 -14.833 8 -23.5c0 -11.333 -4.66699 -19.333 -14 -24l-113 -58c-5.33301 -2.66699 -9 -4 -11 -4c-8 0 -15 3.5 -21 10.5s-9 14.833 -9 23.5z" />
    <glyph glyph-name="ocircumflex" unicode="&#xf4;" horiz-adv-x="477" 
d="M41 186l0.00195312 102.001c0 51.333 19.5 96.166 58.5 134.499s85.167 57.5 138.5 57.5s99.666 -19 138.999 -57s59 -83 59 -135v-102c0 -50.667 -19.833 -95.667 -59.5 -135s-85.834 -59 -138.501 -59s-98.667 19.5 -138 58.5s-59 84.167 -59 135.5zM102.002 617.001
c0 12.667 4.99805 21.333 14.998 26l104 56c6.66699 3.33301 12.334 5 17.001 5c6 0 11.667 -1.66699 17 -5l104 -55c10.667 -6 16 -15.333 16 -28c0 -7.33301 -2.16699 -13.833 -6.5 -19.5s-9.83301 -8.5 -16.5 -8.5c-1.33301 0 -3.33301 0.333008 -6 1
c-1.33301 1.33301 -2.66602 2 -3.99902 2l-104 56l-104 -56c-2.66699 -2 -5.66699 -3 -9 -3c-6 0 -11.333 3 -16 9s-7 12.667 -7 20zM124 186c0 -31.333 11.3311 -59 33.998 -83s49.334 -36 80.001 -36c31.333 0 58.333 12.167 81 36.5s34 51.833 34 82.5v102
c0 30 -11.333 57 -34 81s-49.667 36 -81 36s-58.166 -12 -80.499 -36s-33.5 -51 -33.5 -81v-102z" />
    <glyph glyph-name="otilde" unicode="&#xf5;" horiz-adv-x="477" 
d="M41 186l0.00195312 102.001c0 51.333 19.5 96.166 58.5 134.499s85.167 57.5 138.5 57.5s99.666 -19 138.999 -57s59 -83 59 -135v-102c0 -50.667 -19.833 -95.667 -59.5 -135s-85.834 -59 -138.501 -59s-98.667 19.5 -138 58.5s-59 84.167 -59 135.5zM79.002 636.001
c0 19.333 9.83496 34.334 29.502 45.001s38.834 16 57.501 16c18 0 40.667 -5.5 68 -16.5s49.666 -16.5 66.999 -16.5c16.667 0 32 4.5 46 13.5s23 13.5 27 13.5c7.33301 0 13.166 -3.16699 17.499 -9.5s6.5 -12.5 6.5 -18.5c0 -20.667 -9.33301 -35.834 -28 -45.501
s-37.334 -14.5 -56.001 -14.5c-20 0 -43.333 5.5 -70 16.5s-48.667 16.5 -66 16.5c-16.667 0 -32.5 -4.83301 -47.5 -14.5s-24.5 -14.5 -28.5 -14.5c-7.33301 0 -13 3.16699 -17 9.5s-6 12.833 -6 19.5zM124.004 186.002c0 -31.333 11.3311 -59 33.998 -83
s49.334 -36 80.001 -36c31.333 0 58.333 12.167 81 36.5s34 51.833 34 82.5v102c0 30 -11.333 57 -34 81s-49.667 36 -81 36s-58.166 -12 -80.499 -36s-33.5 -51 -33.5 -81v-102z" />
    <glyph glyph-name="odieresis" unicode="&#xf6;" horiz-adv-x="477" 
d="M41 186l0.00195312 102.001c0 51.333 19.5 96.166 58.5 134.499s85.167 57.5 138.5 57.5s99.666 -19 138.999 -57s59 -83 59 -135v-102c0 -50.667 -19.833 -95.667 -59.5 -135s-85.834 -59 -138.501 -59s-98.667 19.5 -138 58.5s-59 84.167 -59 135.5zM124.002 186.001
c0 -31.333 11.3311 -59 33.998 -83s49.334 -36 80.001 -36c31.333 0 58.333 12.167 81 36.5s34 51.833 34 82.5v102c0 30 -11.333 57 -34 81s-49.667 36 -81 36s-58.166 -12 -80.499 -36s-33.5 -51 -33.5 -81v-102zM133 630.001c0 11.333 4 21 12 29s17.667 12 29 12
s20.833 -4 28.5 -12s11.5 -17.667 11.5 -29s-4 -21.166 -12 -29.499s-17.333 -12.5 -28 -12.5c-11.333 0 -21 4.16699 -29 12.5s-12 18.166 -12 29.499zM264 630.001c0 11.333 3.83301 21 11.5 29s17.167 12 28.5 12s20.833 -4 28.5 -12s11.5 -17.667 11.5 -29
s-3.83301 -21.166 -11.5 -29.499s-17.167 -12.5 -28.5 -12.5s-20.833 4.16699 -28.5 12.5s-11.5 18.166 -11.5 29.499z" />
    <glyph glyph-name="divide" unicode="&#xf7;" horiz-adv-x="449" 
d="M35 239c0 10 2.83301 18.333 8.5 25s12.834 10 21.501 10h318c8 0 15.167 -3.33301 21.5 -10s9.5 -15 9.5 -25s-3.16699 -18.167 -9.5 -24.5s-13.5 -9.5 -21.5 -9.5h-318c-8.66699 0 -15.834 3.16699 -21.501 9.5s-8.5 14.5 -8.5 24.5zM168 74c0 14 5.33301 26 16 36
s23 15 37 15s26.167 -5 36.5 -15s15.5 -22 15.5 -36c0 -13.333 -5.33301 -25.166 -16 -35.499s-22.667 -15.5 -36 -15.5c-14 0 -26.333 5.16699 -37 15.5s-16 22.166 -16 35.499zM168 405c0 14 5.33301 26 16 36s23 15 37 15s26.167 -5 36.5 -15s15.5 -22 15.5 -36
s-5.16699 -26 -15.5 -36s-22.5 -15 -36.5 -15s-26.333 5 -37 15s-16 22 -16 36z" />
    <glyph glyph-name="oslash" unicode="&#xf8;" horiz-adv-x="477" 
d="M41 186l0.00195312 102.003c0 51.333 19.5 96.166 58.5 134.499s85.167 57.5 138.5 57.5c36 0 70 -9.66699 102 -29l29 48c4 6.66699 9.66699 10 17 10c6 0 11.5 -2.33301 16.5 -7s7.5 -10.334 7.5 -17.001c0 -4.66699 -1.66699 -9.66699 -5 -15l-29 -46
c40 -38 60 -83.333 60 -136v-102c0 -50.667 -19.833 -95.667 -59.5 -135s-85.834 -59 -138.501 -59c-38.667 0 -74.334 11 -107.001 33l-29 -47c-4 -6.66699 -9.66699 -10 -17 -10c-5.33301 0 -10.333 2 -15 6s-7 9 -7 15c0 3.33301 1.33301 7.66602 4 12.999l31 50
c-38 39.333 -57 84 -57 134zM124.002 186.003c0 -22 5.66602 -42.667 16.999 -62l159 261c-20 13.333 -40.667 20 -62 20c-31.333 0 -58.166 -12 -80.499 -36s-33.5 -51 -33.5 -81v-102zM171.001 90.0029c20.667 -15.333 43 -23 67 -23c31.333 0 58.333 12.167 81 36.5
s34 51.833 34 82.5v102c0 22 -7 43.333 -21 64z" />
    <glyph glyph-name="ugrave" unicode="&#xf9;" 
d="M55 184l0.000976562 259.998c0 8 4.16699 15 12.5 21s18.166 9 29.499 9c10.667 0 20.167 -3.16699 28.5 -9.5s12.5 -13.166 12.5 -20.499v-260c0 -30 11.333 -57 34 -81s49.667 -36 81 -36c30.667 0 57.334 11.833 80.001 35.5s34 50.834 34 81.501v261
c0 7.33301 4.16699 14 12.5 20s18.166 9 29.499 9c12 0 21.833 -2.83301 29.5 -8.5s11.5 -12.5 11.5 -20.5v-261c0 -51.333 -19.5 -96.166 -58.5 -134.499s-85.167 -57.5 -138.5 -57.5c-54 0 -100.5 19.167 -139.5 57.5s-58.5 83.166 -58.5 134.499zM162.001 669.998
c0 8.66699 2.66699 16.5 8 23.5s12 10.5 20 10.5c2.66699 0 6 -0.666992 10 -2l117 -62c8.66699 -4 13 -11.333 13 -22c0 -8.66699 -3 -16.5 -9 -23.5s-13 -10.5 -21 -10.5c-2 0 -5.66699 1.33301 -11 4l-113 58c-9.33301 4.66699 -14 12.667 -14 24z" />
    <glyph glyph-name="uacute" unicode="&#xfa;" 
d="M55 184l0.000976562 259.998c0 8 4.16699 15 12.5 21s18.166 9 29.499 9c10.667 0 20.167 -3.16699 28.5 -9.5s12.5 -13.166 12.5 -20.499v-260c0 -30 11.333 -57 34 -81s49.667 -36 81 -36c30.667 0 57.334 11.833 80.001 35.5s34 50.834 34 81.501v261
c0 7.33301 4.16699 14 12.5 20s18.166 9 29.499 9c12 0 21.833 -2.83301 29.5 -8.5s11.5 -12.5 11.5 -20.5v-261c0 -51.333 -19.5 -96.166 -58.5 -134.499s-85.167 -57.5 -138.5 -57.5c-54 0 -100.5 19.167 -139.5 57.5s-58.5 83.166 -58.5 134.499zM174.001 617.998
c0 10 4.33301 17.333 13 22l117 62c4 1.33301 7.33301 2 10 2c8 0 14.667 -3.5 20 -10.5s8 -14.833 8 -23.5c0 -11.333 -4.66699 -19.333 -14 -24l-113 -58c-5.33301 -2.66699 -9 -4 -11 -4c-8 0 -15 3.5 -21 10.5s-9 14.833 -9 23.5z" />
    <glyph glyph-name="ucircumflex" unicode="&#xfb;" 
d="M55 184l0.000976562 259.998c0 8 4.16699 15 12.5 21s18.166 9 29.499 9c10.667 0 20.167 -3.16699 28.5 -9.5s12.5 -13.166 12.5 -20.499v-260c0 -30 11.333 -57 34 -81s49.667 -36 81 -36c30.667 0 57.334 11.833 80.001 35.5s34 50.834 34 81.501v261
c0 7.33301 4.16699 14 12.5 20s18.166 9 29.499 9c12 0 21.833 -2.83301 29.5 -8.5s11.5 -12.5 11.5 -20.5v-261c0 -51.333 -19.5 -96.166 -58.5 -134.499s-85.167 -57.5 -138.5 -57.5c-54 0 -100.5 19.167 -139.5 57.5s-58.5 83.166 -58.5 134.499zM116.001 616.998
c0 12.667 4.99805 21.333 14.998 26l104 56c6.66699 3.33301 12.334 5 17.001 5c6 0 11.667 -1.66699 17 -5l104 -55c10.667 -6 16 -15.333 16 -28c0 -7.33301 -2.16699 -13.833 -6.5 -19.5s-9.83301 -8.5 -16.5 -8.5c-1.33301 0 -3.33301 0.333008 -6 1
c-1.33301 1.33301 -2.66602 2 -3.99902 2l-104 56l-104 -56c-2.66699 -2 -5.66699 -3 -9 -3c-6 0 -11.333 3 -16 9s-7 12.667 -7 20z" />
    <glyph glyph-name="udieresis" unicode="&#xfc;" 
d="M55 184l0.000976562 259.998c0 8 4.16699 15 12.5 21s18.166 9 29.499 9c10.667 0 20.167 -3.16699 28.5 -9.5s12.5 -13.166 12.5 -20.499v-260c0 -30 11.333 -57 34 -81s49.667 -36 81 -36c30.667 0 57.334 11.833 80.001 35.5s34 50.834 34 81.501v261
c0 7.33301 4.16699 14 12.5 20s18.166 9 29.499 9c12 0 21.833 -2.83301 29.5 -8.5s11.5 -12.5 11.5 -20.5v-261c0 -51.333 -19.5 -96.166 -58.5 -134.499s-85.167 -57.5 -138.5 -57.5c-54 0 -100.5 19.167 -139.5 57.5s-58.5 83.166 -58.5 134.499zM147.001 629.998
c0 11.333 4 21 12 29s17.667 12 29 12s20.833 -4 28.5 -12s11.5 -17.667 11.5 -29s-4 -21.166 -12 -29.499s-17.333 -12.5 -28 -12.5c-11.333 0 -21 4.16699 -29 12.5s-12 18.166 -12 29.499zM278.001 629.998c0 11.333 3.83301 21 11.5 29s17.167 12 28.5 12
s20.833 -4 28.5 -12s11.5 -17.667 11.5 -29s-3.83301 -21.166 -11.5 -29.499s-17.167 -12.5 -28.5 -12.5s-20.833 4.16699 -28.5 12.5s-11.5 18.166 -11.5 29.499z" />
    <glyph glyph-name="yacute" unicode="&#xfd;" horiz-adv-x="437" 
d="M12 440c0 10.667 6 19.9971 18 27.9971s24 12 36 12c14 0 23 -5.66699 27 -17l132 -348l119 348c4.66699 11.333 13.334 17 26.001 17c11.333 0 23.166 -4 35.499 -12s18.5 -17.667 18.5 -29c0 -3.33301 -1 -6.66602 -3 -9.99902l-152 -407l-19 -50
c-3.33301 -9.33301 -10 -25.333 -20 -48s-18.333 -39 -25 -49s-16 -23.167 -28 -39.5s-23.667 -28.166 -35 -35.499s-24.833 -14 -40.5 -20s-32.167 -9 -49.5 -9c-26 0 -39 12.333 -39 37c0 24 8 36 24 36c30 0 59.167 16.833 87.5 50.5s47.5 76.834 57.5 129.501l-166 405
c-2.66699 4 -4 7.66699 -4 11zM154 617.997c0 10 4.33301 17.333 13 22l117 62c4 1.33301 7.33301 2 10 2c8 0 14.667 -3.5 20 -10.5s8 -14.833 8 -23.5c0 -11.333 -4.66699 -19.333 -14 -24l-113 -58c-5.33301 -2.66699 -9 -4 -11 -4c-8 0 -15 3.5 -21 10.5
s-9 14.833 -9 23.5z" />
    <glyph glyph-name="thorn" unicode="&#xfe;" horiz-adv-x="494" 
d="M60 -199l-0.00292969 930c0 8.66699 3.83301 15.667 11.5 21s17.167 8 28.5 8c12.667 0 23 -2.66699 31 -8s12 -12.333 12 -21v-327c12 21.333 29.333 39.333 52 54s48.667 22 78 22c50 0 92.5 -18.833 127.5 -56.5s52.5 -82.834 52.5 -135.501v-102
c0 -50.667 -17.667 -95.667 -53 -135s-76.333 -59 -123 -59c-29.333 0 -56.166 7.5 -80.499 22.5s-42.166 33.5 -53.499 55.5v-269c0 -7.33301 -4.16699 -14.166 -12.5 -20.499s-18.166 -9.5 -29.499 -9.5s-21 3 -29 9s-12 13 -12 21zM142.997 159
c0 -16.667 11.499 -36.166 34.499 -58.499s49.167 -33.5 78.5 -33.5c30 0 56.5 12.167 79.5 36.5s34.5 51.833 34.5 82.5v102c0 30 -11.5 57 -34.5 81s-50.167 36 -81.5 36c-29.333 0 -55.166 -10.833 -77.499 -32.5s-33.5 -49.834 -33.5 -84.501v-129z" />
    <glyph glyph-name="ydieresis" unicode="&#xff;" horiz-adv-x="437" 
d="M12 440c0 10.667 6 19.9971 18 27.9971s24 12 36 12c14 0 23 -5.66699 27 -17l132 -348l119 348c4.66699 11.333 13.334 17 26.001 17c11.333 0 23.166 -4 35.499 -12s18.5 -17.667 18.5 -29c0 -3.33301 -1 -6.66602 -3 -9.99902l-152 -407l-19 -50
c-3.33301 -9.33301 -10 -25.333 -20 -48s-18.333 -39 -25 -49s-16 -23.167 -28 -39.5s-23.667 -28.166 -35 -35.499s-24.833 -14 -40.5 -20s-32.167 -9 -49.5 -9c-26 0 -39 12.333 -39 37c0 24 8 36 24 36c30 0 59.167 16.833 87.5 50.5s47.5 76.834 57.5 129.501l-166 405
c-2.66699 4 -4 7.66699 -4 11zM118 629.997c0 11.333 4 21 12 29s17.667 12 29 12s20.833 -4 28.5 -12s11.5 -17.667 11.5 -29s-4 -21.166 -12 -29.499s-17.333 -12.5 -28 -12.5c-11.333 0 -21 4.16699 -29 12.5s-12 18.166 -12 29.499zM249 629.997
c0 11.333 3.83301 21 11.5 29s17.167 12 28.5 12s20.833 -4 28.5 -12s11.5 -17.667 11.5 -29s-3.83301 -21.166 -11.5 -29.499s-17.167 -12.5 -28.5 -12.5s-20.833 4.16699 -28.5 12.5s-11.5 18.166 -11.5 29.499z" />
    <glyph glyph-name="Amacron" unicode="&#x100;" horiz-adv-x="550" 
d="M17 35c0 1.33301 0.666992 3.99805 2 7.99805l204 665c6 19.333 23.333 29 52 29s46 -9.66699 52 -29l204 -665c0 -1.33301 0.166992 -2.66602 0.5 -3.99902s0.5 -2.33301 0.5 -3c0 -9.33301 -5.5 -17.666 -16.5 -24.999s-22.833 -11 -35.5 -11
c-16 -0 -26 6.33301 -30 19l-44 149h-263l-44 -149c-4 -12.667 -14.333 -19 -31 -19c-12 -0 -23.5 3.33301 -34.5 10s-16.5 15 -16.5 25zM139 908.998c0 8.66699 2.66699 16 8 22s12.333 9 21 9h212c8 0 15 -3 21 -9s9 -13.333 9 -22s-3 -15.834 -9 -21.501
s-13 -8.5 -21 -8.5h-212c-8.66699 0 -15.667 2.83301 -21 8.5s-8 12.834 -8 21.501zM162 236.998h224l-111 376z" />
    <glyph glyph-name="amacron" unicode="&#x101;" horiz-adv-x="448" 
d="M28 125c0 52 19.999 88.167 59.999 108.5s98 30.5 174 30.5h48v21c0 33.333 -9.16699 62.333 -27.5 87s-45.833 37 -82.5 37c-28 0 -52.667 -4.83301 -74 -14.5s-33 -14.5 -35 -14.5c-9.33301 0 -16.833 4.5 -22.5 13.5s-8.5 18.5 -8.5 28.5
c0 15.333 15.167 28.833 45.5 40.5s62.5 17.5 96.5 17.5c65.333 0 113.5 -18.5 144.5 -55.5s46.5 -83.167 46.5 -138.5v-256c0 -8.66699 -3.83301 -15.834 -11.5 -21.501s-17.5 -8.5 -29.5 -8.5c-10.667 0 -19.667 2.83301 -27 8.5s-11 12.834 -11 21.501v40
c-45.333 -52 -95.666 -78 -150.999 -78c-40 0 -72.5 11.333 -97.5 34s-37.5 55.667 -37.5 99zM83.999 658c0 8.66699 2.66797 16 8.00098 22s12.333 9 21 9h212c7.33301 0 14.166 -3.16699 20.499 -9.5s9.5 -13.5 9.5 -21.5c0 -8.66699 -3 -15.834 -9 -21.501
s-13 -8.5 -21 -8.5h-212c-8.66699 0 -15.667 2.83301 -21 8.5s-8 12.834 -8 21.501zM112 134c0 -24.667 7 -43.3311 21 -55.998s32.667 -19 56 -19c28 0 55.167 11.167 81.5 33.5s39.5 45.166 39.5 68.499v52h-35c-19.333 0 -36 -0.5 -50 -1.5s-28.5 -3 -43.5 -6
s-27.333 -7.33301 -37 -13s-17.5 -13.334 -23.5 -23.001s-9 -21.5 -9 -35.5z" />
    <glyph glyph-name="Abreve" unicode="&#x102;" horiz-adv-x="550" 
d="M17 35c0 1.33301 0.666992 3.99805 2 7.99805l204 665c6 19.333 23.333 29 52 29s46 -9.66699 52 -29l204 -665c0 -1.33301 0.166992 -2.66602 0.5 -3.99902s0.5 -2.33301 0.5 -3c0 -9.33301 -5.5 -17.666 -16.5 -24.999s-22.833 -11 -35.5 -11
c-16 -0 -26 6.33301 -30 19l-44 149h-263l-44 -149c-4 -12.667 -14.333 -19 -31 -19c-12 -0 -23.5 3.33301 -34.5 10s-16.5 15 -16.5 25zM153 966.998h51c0 -22 7 -40.667 21 -56s30.333 -23 49 -23s35 7.66699 49 23s21 34 21 56h51c0 -32 -12.167 -60.167 -36.5 -84.5
s-52.5 -36.5 -84.5 -36.5s-60.167 12.167 -84.5 36.5s-36.5 52.5 -36.5 84.5zM162 236.998h224l-111 376z" />
    <glyph glyph-name="abreve" unicode="&#x103;" horiz-adv-x="448" 
d="M28 125c0 52 19.999 88.167 59.999 108.5s98 30.5 174 30.5h48v21c0 33.333 -9.16699 62.333 -27.5 87s-45.833 37 -82.5 37c-28 0 -52.667 -4.83301 -74 -14.5s-33 -14.5 -35 -14.5c-9.33301 0 -16.833 4.5 -22.5 13.5s-8.5 18.5 -8.5 28.5
c0 15.333 15.167 28.833 45.5 40.5s62.5 17.5 96.5 17.5c65.333 0 113.5 -18.5 144.5 -55.5s46.5 -83.167 46.5 -138.5v-256c0 -8.66699 -3.83301 -15.834 -11.5 -21.501s-17.5 -8.5 -29.5 -8.5c-10.667 0 -19.667 2.83301 -27 8.5s-11 12.834 -11 21.501v40
c-45.333 -52 -95.666 -78 -150.999 -78c-40 0 -72.5 11.333 -97.5 34s-37.5 55.667 -37.5 99zM95.999 716h51c0 -22 7 -40.667 21 -56s30.333 -23 49 -23s35 7.66699 49 23s21 34 21 56h51c0 -32 -12.167 -60.167 -36.5 -84.5s-52.5 -36.5 -84.5 -36.5
s-60.167 12.167 -84.5 36.5s-36.5 52.5 -36.5 84.5zM111.999 134c0 -24.667 7 -43.3311 21 -55.998s32.667 -19 56 -19c28 0 55.167 11.167 81.5 33.5s39.5 45.166 39.5 68.499v52h-35c-19.333 0 -36 -0.5 -50 -1.5s-28.5 -3 -43.5 -6s-27.333 -7.33301 -37 -13
s-17.5 -13.334 -23.5 -23.001s-9 -21.5 -9 -35.5z" />
    <glyph glyph-name="Aogonek" unicode="&#x104;" horiz-adv-x="550" 
d="M17 35c0 1.33301 0.666992 3.99902 2 7.99902l204 665c6 19.333 23.333 29 52 29s46 -9.66699 52 -29l204 -665c0 -1.33301 0.166992 -2.66602 0.5 -3.99902s0.5 -2.33301 0.5 -3c0 -14 -10.333 -24.667 -31 -32c-48 -40 -72 -80.667 -72 -122c0 -30 20.333 -45 61 -45
c13.333 0 20 -7.33301 20 -22c0 -12.667 -8.66699 -19 -26 -19c-30 0 -54.5 6.66699 -73.5 20s-28.5 33 -28.5 59c0 50 23.667 95.333 71 136l-47 157h-263l-44 -149c-4 -12.667 -14.333 -19 -31 -19c-12 -0 -23.5 3.33301 -34.5 10s-16.5 15 -16.5 25zM162 236.999h224
l-111 376z" />
    <glyph glyph-name="aogonek" unicode="&#x105;" horiz-adv-x="448" 
d="M28 125c0 52 19.999 88.167 59.999 108.5s98 30.5 174 30.5h48v21c0 33.333 -9.16699 62.333 -27.5 87s-45.833 37 -82.5 37c-28 0 -52.667 -4.83301 -74 -14.5s-33 -14.5 -35 -14.5c-9.33301 0 -16.833 4.5 -22.5 13.5s-8.5 18.5 -8.5 28.5
c0 15.333 15.167 28.833 45.5 40.5s62.5 17.5 96.5 17.5c65.333 0 113.5 -18.5 144.5 -55.5s46.5 -83.167 46.5 -138.5v-256c0 -12 -7 -20.667 -21 -26c-48 -40 -72 -80.667 -72 -122c0 -30 20.333 -45 61 -45c13.333 0 20 -7.33301 20 -22c0 -12.667 -8.66699 -19 -26 -19
c-30 0 -54.5 6.66699 -73.5 20s-28.5 33 -28.5 59c0 50 23.333 95 70 135c-6 5.33301 -9 12 -9 20v40c-45.333 -52 -95.666 -78 -150.999 -78c-40 0 -72.5 11.333 -97.5 34s-37.5 55.667 -37.5 99zM111.999 134c0 -24.667 7 -43.3311 21 -55.998s32.667 -19 56 -19
c28 0 55.167 11.167 81.5 33.5s39.5 45.166 39.5 68.499v52h-35c-19.333 0 -36 -0.5 -50 -1.5s-28.5 -3 -43.5 -6s-27.333 -7.33301 -37 -13s-17.5 -13.334 -23.5 -23.001s-9 -21.5 -9 -35.5z" />
    <glyph glyph-name="Cacute" unicode="&#x106;" horiz-adv-x="531" 
d="M64 212l0.00195312 301.001c0 74.667 19.833 129.667 59.5 165s91.5 53 155.5 53c65.333 0 117.666 -16.5 156.999 -49.5s59 -74.5 59 -124.5c0 -18 -3.33301 -30.167 -10 -36.5s-17.334 -9.5 -32.001 -9.5c-26.667 0 -40.667 9.66699 -42 29
c-4 76.667 -47.333 115 -130 115c-88.667 0 -133 -47.333 -133 -142v-301c0 -94.667 45.333 -142 136 -142c26 0 47.667 3.66699 65 11s30.166 18 38.499 32s13.833 26 16.5 36s5 23.333 7 40c2 19.333 16 29 42 29c14.667 0 25.334 -3.33301 32.001 -10s10 -19 10 -37
c0 -50.667 -19.833 -92.834 -59.5 -126.501s-92.167 -50.5 -157.5 -50.5c-63.333 0 -114.833 17.667 -154.5 53s-59.5 90.333 -59.5 165zM205.002 869.001c0 10 4.33301 17.333 13 22l117 62c4 1.33301 7.33301 2 10 2c8 0 14.667 -3.5 20 -10.5s8 -14.833 8 -23.5
c0 -11.333 -4.66699 -19.333 -14 -24l-113 -58c-5.33301 -2.66699 -9 -4 -11 -4c-8 0 -15 3.5 -21 10.5s-9 14.833 -9 23.5z" />
    <glyph glyph-name="cacute" unicode="&#x107;" horiz-adv-x="417" 
d="M42 186v100.001c0 57.333 16.833 104 50.5 140s83.167 54 148.5 54c41.333 0 76.166 -7.33301 104.499 -22s42.5 -30.334 42.5 -47.001c0 -9.33301 -3.5 -18.5 -10.5 -27.5s-15.167 -13.5 -24.5 -13.5c-2.66699 0 -14.167 5.83301 -34.5 17.5s-44.166 17.5 -71.499 17.5
c-40 0 -70.333 -10.333 -91 -31s-31 -50 -31 -88v-100c0 -79.333 41 -119 123 -119c28 0 52.333 6 73 18s32.667 18 36 18c10.667 0 19.5 -4.33301 26.5 -13s10.5 -17.667 10.5 -27c0 -16.667 -14.667 -32.667 -44 -48s-65.333 -23 -108 -23
c-66 0 -115.833 17.833 -149.5 53.5s-50.5 82.5 -50.5 140.5zM143 618.001c0 10 4.33301 17.333 13 22l117 62c4 1.33301 7.33301 2 10 2c8 0 14.667 -3.5 20 -10.5s8 -14.833 8 -23.5c0 -11.333 -4.66699 -19.333 -14 -24l-113 -58c-5.33301 -2.66699 -9 -4 -11 -4
c-8 0 -15 3.5 -21 10.5s-9 14.833 -9 23.5z" />
    <glyph glyph-name="Ccircumflex" unicode="&#x108;" horiz-adv-x="531" 
d="M64 212l0.00195312 301.001c0 74.667 19.833 129.667 59.5 165s91.5 53 155.5 53c65.333 0 117.666 -16.5 156.999 -49.5s59 -74.5 59 -124.5c0 -18 -3.33301 -30.167 -10 -36.5s-17.334 -9.5 -32.001 -9.5c-26.667 0 -40.667 9.66699 -42 29
c-4 76.667 -47.333 115 -130 115c-88.667 0 -133 -47.333 -133 -142v-301c0 -94.667 45.333 -142 136 -142c26 0 47.667 3.66699 65 11s30.166 18 38.499 32s13.833 26 16.5 36s5 23.333 7 40c2 19.333 16 29 42 29c14.667 0 25.334 -3.33301 32.001 -10s10 -19 10 -37
c0 -50.667 -19.833 -92.834 -59.5 -126.501s-92.167 -50.5 -157.5 -50.5c-63.333 0 -114.833 17.667 -154.5 53s-59.5 90.333 -59.5 165zM143.002 868.001c0 12 4.99805 20.667 14.998 26l104 56c6.66699 3.33301 12.334 5 17.001 5c6 0 11.667 -1.66699 17 -5l104 -55
c10.667 -6 16 -15.333 16 -28c0 -7.33301 -2.33301 -13.833 -7 -19.5s-10 -8.5 -16 -8.5c-1.33301 0 -3.33301 0.333008 -6 1c-1.33301 1.33301 -2.66602 2 -3.99902 2l-104 56l-104 -56c-3.33301 -2 -6.33301 -3 -9 -3c-6 0 -11.333 3 -16 9s-7 12.667 -7 20z" />
    <glyph glyph-name="ccircumflex" unicode="&#x109;" horiz-adv-x="417" 
d="M42 186v100.001c0 57.333 16.833 104 50.5 140s83.167 54 148.5 54c41.333 0 76.166 -7.33301 104.499 -22s42.5 -30.334 42.5 -47.001c0 -9.33301 -3.5 -18.5 -10.5 -27.5s-15.167 -13.5 -24.5 -13.5c-2.66699 0 -14.167 5.83301 -34.5 17.5s-44.166 17.5 -71.499 17.5
c-40 0 -70.333 -10.333 -91 -31s-31 -50 -31 -88v-100c0 -79.333 41 -119 123 -119c28 0 52.333 6 73 18s32.667 18 36 18c10.667 0 19.5 -4.33301 26.5 -13s10.5 -17.667 10.5 -27c0 -16.667 -14.667 -32.667 -44 -48s-65.333 -23 -108 -23
c-66 0 -115.833 17.833 -149.5 53.5s-50.5 82.5 -50.5 140.5zM87 617.001c0 12.667 4.99805 21.333 14.998 26l104 56c6.66699 3.33301 12.334 5 17.001 5c6 0 11.667 -1.66699 17 -5l104 -55c10.667 -6 16 -15.333 16 -28c0 -7.33301 -2.33301 -13.833 -7 -19.5
s-10 -8.5 -16 -8.5c-1.33301 0 -3.33301 0.333008 -6 1c-1.33301 1.33301 -2.66602 2 -3.99902 2l-104 56l-104 -56c-3.33301 -2 -6.33301 -3 -9 -3c-6 0 -11.333 3 -16 9s-7 12.667 -7 20z" />
    <glyph glyph-name="Cdotaccent" unicode="&#x10a;" horiz-adv-x="531" 
d="M64 212l0.00195312 301.001c0 74.667 19.833 129.667 59.5 165s91.5 53 155.5 53c65.333 0 117.666 -16.5 156.999 -49.5s59 -74.5 59 -124.5c0 -18 -3.33301 -30.167 -10 -36.5s-17.334 -9.5 -32.001 -9.5c-26.667 0 -40.667 9.66699 -42 29
c-4 76.667 -47.333 115 -130 115c-88.667 0 -133 -47.333 -133 -142v-301c0 -94.667 45.333 -142 136 -142c26 0 47.667 3.66699 65 11s30.166 18 38.499 32s13.833 26 16.5 36s5 23.333 7 40c2 19.333 16 29 42 29c14.667 0 25.334 -3.33301 32.001 -10s10 -19 10 -37
c0 -50.667 -19.833 -92.834 -59.5 -126.501s-92.167 -50.5 -157.5 -50.5c-63.333 0 -114.833 17.667 -154.5 53s-59.5 90.333 -59.5 165zM240.002 881.001c0 11.333 4 21 12 29s17.667 12 29 12s20.833 -4 28.5 -12s11.5 -17.667 11.5 -29s-4 -21.166 -12 -29.499
s-17.333 -12.5 -28 -12.5c-11.333 0 -21 4.16699 -29 12.5s-12 18.166 -12 29.499z" />
    <glyph glyph-name="cdotaccent" unicode="&#x10b;" horiz-adv-x="417" 
d="M42 186v100.001c0 57.333 16.833 104 50.5 140s83.167 54 148.5 54c41.333 0 76.166 -7.33301 104.499 -22s42.5 -30.334 42.5 -47.001c0 -9.33301 -3.5 -18.5 -10.5 -27.5s-15.167 -13.5 -24.5 -13.5c-2.66699 0 -14.167 5.83301 -34.5 17.5s-44.166 17.5 -71.499 17.5
c-40 0 -70.333 -10.333 -91 -31s-31 -50 -31 -88v-100c0 -79.333 41 -119 123 -119c28 0 52.333 6 73 18s32.667 18 36 18c10.667 0 19.5 -4.33301 26.5 -13s10.5 -17.667 10.5 -27c0 -16.667 -14.667 -32.667 -44 -48s-65.333 -23 -108 -23
c-66 0 -115.833 17.833 -149.5 53.5s-50.5 82.5 -50.5 140.5zM181 630.001c0 11.333 4 21 12 29s17.667 12 29 12s20.833 -4 28.5 -12s11.5 -17.667 11.5 -29s-4 -21.166 -12 -29.499s-17.333 -12.5 -28 -12.5c-11.333 0 -21 4.16699 -29 12.5s-12 18.166 -12 29.499z" />
    <glyph glyph-name="Ccaron" unicode="&#x10c;" horiz-adv-x="531" 
d="M64 212l0.00195312 301.001c0 74.667 19.833 129.667 59.5 165s91.5 53 155.5 53c65.333 0 117.666 -16.5 156.999 -49.5s59 -74.5 59 -124.5c0 -18 -3.33301 -30.167 -10 -36.5s-17.334 -9.5 -32.001 -9.5c-26.667 0 -40.667 9.66699 -42 29
c-4 76.667 -47.333 115 -130 115c-88.667 0 -133 -47.333 -133 -142v-301c0 -94.667 45.333 -142 136 -142c26 0 47.667 3.66699 65 11s30.166 18 38.499 32s13.833 26 16.5 36s5 23.333 7 40c2 19.333 16 29 42 29c14.667 0 25.334 -3.33301 32.001 -10s10 -19 10 -37
c0 -50.667 -19.833 -92.834 -59.5 -126.501s-92.167 -50.5 -157.5 -50.5c-63.333 0 -114.833 17.667 -154.5 53s-59.5 90.333 -59.5 165zM143.002 955.001c0 6.66699 2.00098 12.834 6.00098 18.501s9 8.5 15 8.5c5.33301 0 10 -2 14 -6l100 -84l101 84c3.33301 4 8 6 14 6
s11 -2.83301 15 -8.5s6 -11.834 6 -18.501c0 -11.333 -5 -20.333 -15 -27l-101 -83c-6.66699 -6 -13.334 -9 -20.001 -9s-13 3 -19 9l-102 83c-9.33301 6.66699 -14 15.667 -14 27z" />
    <glyph glyph-name="ccaron" unicode="&#x10d;" horiz-adv-x="417" 
d="M42 186v100.001c0 57.333 16.833 104 50.5 140s83.167 54 148.5 54c41.333 0 76.166 -7.33301 104.499 -22s42.5 -30.334 42.5 -47.001c0 -9.33301 -3.5 -18.5 -10.5 -27.5s-15.167 -13.5 -24.5 -13.5c-2.66699 0 -14.167 5.83301 -34.5 17.5s-44.166 17.5 -71.499 17.5
c-40 0 -70.333 -10.333 -91 -31s-31 -50 -31 -88v-100c0 -79.333 41 -119 123 -119c28 0 52.333 6 73 18s32.667 18 36 18c10.667 0 19.5 -4.33301 26.5 -13s10.5 -17.667 10.5 -27c0 -16.667 -14.667 -32.667 -44 -48s-65.333 -23 -108 -23
c-66 0 -115.833 17.833 -149.5 53.5s-50.5 82.5 -50.5 140.5zM84 704.001c0 6.66699 2 12.834 6 18.501s9 8.5 15 8.5c5.33301 0 10 -2 14 -6l100 -84l101 84c3.33301 4 8 6 14 6s11 -2.83301 15 -8.5s6 -11.834 6 -18.501c0 -11.333 -5 -20.333 -15 -27l-101 -83
c-7.33301 -6 -14 -9 -20 -9c-6.66699 0 -13 3 -19 9l-102 83c-9.33301 6.66699 -14 15.667 -14 27z" />
    <glyph glyph-name="Dcaron" unicode="&#x10e;" horiz-adv-x="566" 
d="M71 29v673c0 8 3.5 14.833 10.5 20.5s16.167 8.5 27.5 8.5h177c65.333 0 117.666 -17.5 156.999 -52.5s59 -90.167 59 -165.5v-295c0 -75.333 -19.667 -130.5 -59 -165.5s-91.666 -52.5 -156.999 -52.5h-177c-11.333 -0 -20.5 2.83301 -27.5 8.5s-10.5 12.5 -10.5 20.5z
M140 955c0 6.66699 2 12.834 6 18.501s9 8.5 15 8.5c5.33301 0 10 -2 14 -6l100 -84l101 84c3.33301 4 8 6 14 6s11 -2.83301 15 -8.5s6 -11.834 6 -18.501c0 -11.333 -5 -20.333 -15 -27l-101 -83c-7.33301 -6 -14 -9 -20 -9c-6.66699 0 -13 3 -19 9l-102 83
c-9.33301 6.66699 -14 15.667 -14 27zM155 76h131c42 0 74.5 11.833 97.5 35.5s34.5 59.167 34.5 106.5v295c0 47.333 -11.5 82.833 -34.5 106.5s-55.5 35.5 -97.5 35.5h-131v-579z" />
    <glyph glyph-name="dcaron" unicode="&#x10f;" horiz-adv-x="494" 
d="M41 186l-0.000976562 101.998c0 52.667 17.667 97.834 53 135.501s77.333 56.5 126 56.5c30 0 56.333 -7.33301 79 -22s40 -32.667 52 -54v327c0 8.66699 4 15.667 12 21s18 8 30 8s21.833 -2.66699 29.5 -8s11.5 -12.333 11.5 -21v-701c0 -8 -4 -15 -12 -21
s-17.667 -9 -29 -9c-10 0 -18.833 3 -26.5 9s-11.5 13 -11.5 21v40c-11.333 -21.333 -29.666 -39.666 -54.999 -54.999s-53 -23 -83 -23c-46.667 0 -87.667 19.667 -123 59s-53 84.333 -53 135zM123.999 185.998c0 -30.667 11.335 -58.168 34.002 -82.501s49 -36.5 79 -36.5
c29.333 0 55.666 11.167 78.999 33.5s35 41.833 35 58.5v129c0 34.667 -11.333 62.834 -34 84.501s-49 32.5 -79 32.5c-30.667 0 -57.334 -12 -80.001 -36s-34 -51 -34 -81v-102zM491.001 688.997c0 14 4.99902 26.168 14.999 36.501s22.333 15.5 37 15.5
c14 0 26.167 -5.16699 36.5 -15.5s15.5 -22.5 15.5 -36.5s-15 -54.667 -45 -122c-4 -8.66699 -10.667 -13 -20 -13c-7.33301 0 -14.166 2.16699 -20.499 6.5s-9.5 10.166 -9.5 17.499c0 2.66699 0.666992 6 2 10l21 52c-21.333 8.66699 -32 25 -32 49z" />
    <glyph glyph-name="Dcroat" unicode="&#x110;" horiz-adv-x="574" 
d="M-3 383c0 9.33301 2.33301 17.167 7 23.5s10.667 9.5 18 9.5h57v286c0 8 3.5 14.833 10.5 20.5s16.167 8.5 27.5 8.5h177c65.333 0 117.666 -17.5 156.999 -52.5s59 -90.167 59 -165.5v-295c0 -75.333 -19.667 -130.5 -59 -165.5s-91.666 -52.5 -156.999 -52.5h-177
c-11.333 -0 -20.5 2.83301 -27.5 8.5s-10.5 12.5 -10.5 20.5v322h-57c-8 0 -14.167 3.16699 -18.5 9.5s-6.5 13.833 -6.5 22.5zM163 76.001l131 0.000976562c42 0 74.5 11.833 97.5 35.5s34.5 59.167 34.5 106.5v295c0 47.333 -11.5 82.833 -34.5 106.5
s-55.5 35.5 -97.5 35.5h-131v-239h103c7.33301 0 13.5 -3.33301 18.5 -10s7.5 -14.334 7.5 -23.001s-2.5 -16.167 -7.5 -22.5s-11.167 -9.5 -18.5 -9.5h-103v-275z" />
    <glyph glyph-name="dcroat" unicode="&#x111;" horiz-adv-x="494" 
d="M41 186l-0.000976562 101.998c0 52.667 17.667 97.834 53 135.501s77.333 56.5 126 56.5c30 0 56.333 -7.33301 79 -22s40 -32.667 52 -54v164h-107c-8 0 -14.333 3.16699 -19 9.5s-7 13.833 -7 22.5s2.33301 16.334 7 23.001s11 10 19 10h107v98
c0 8.66699 4 15.667 12 21s18 8 30 8s21.833 -2.66699 29.5 -8s11.5 -12.333 11.5 -21v-98h43c7.33301 0 13.5 -3.33301 18.5 -10s7.5 -14.334 7.5 -23.001c0 -9.33301 -2.5 -17 -7.5 -23s-11.167 -9 -18.5 -9h-43v-538c0 -8 -4 -15 -12 -21s-17.667 -9 -29 -9
c-10 0 -18.833 3 -26.5 9s-11.5 13 -11.5 21v40c-11.333 -21.333 -29.666 -39.666 -54.999 -54.999s-53 -23 -83 -23c-46.667 0 -87.667 19.667 -123 59s-53 84.333 -53 135zM123.999 185.998c0 -30.667 11.335 -58.168 34.002 -82.501s49 -36.5 79 -36.5
c29.333 0 55.666 11.167 78.999 33.5s35 41.833 35 58.5v129c0 34.667 -11.333 62.834 -34 84.501s-49 32.5 -79 32.5c-30.667 0 -57.334 -12 -80.001 -36s-34 -51 -34 -81v-102z" />
    <glyph glyph-name="Emacron" unicode="&#x112;" horiz-adv-x="514" 
d="M71 30v671.004c0 9.33301 3.83301 16.666 11.5 21.999s16.5 8 26.5 8h356c9.33301 0 16.5 -3.66699 21.5 -11s7.5 -16 7.5 -26c0 -10.667 -2.66699 -19.834 -8 -27.501s-12.333 -11.5 -21 -11.5h-310v-254h156c8.66699 0 15.667 -3.5 21 -10.5s8 -15.5 8 -25.5
c0 -8.66699 -2.5 -16.5 -7.5 -23.5s-12.167 -10.5 -21.5 -10.5h-156v-255h310c8.66699 0 15.667 -3.83301 21 -11.5s8 -16.834 8 -27.501c0 -10 -2.5 -18.667 -7.5 -26s-12.167 -11 -21.5 -11h-356c-10 0 -18.833 2.66699 -26.5 8s-11.5 12.666 -11.5 21.999zM149 909.004
c0 8.66699 2.66699 16 8 22s12.333 9 21 9h212c8 0 15 -3 21 -9s9 -13.333 9 -22s-3 -15.834 -9 -21.501s-13 -8.5 -21 -8.5h-212c-8.66699 0 -15.667 2.83301 -21 8.5s-8 12.834 -8 21.501z" />
    <glyph glyph-name="emacron" unicode="&#x113;" horiz-adv-x="465" 
d="M41 186v105.001c0 51.333 19.5 95.666 58.5 132.999s85.833 56 140.5 56c52 0 97 -17.5 135 -52.5s57 -78.833 57 -131.5c0 -19.333 -2.33301 -34.833 -7 -46.5s-11.834 -20 -21.501 -25s-18.667 -8.16699 -27 -9.5s-19.5 -2 -33.5 -2h-219v-30
c0 -36.667 13.167 -66 39.5 -88s60.5 -33 102.5 -33c22 0 41.167 3.33301 57.5 10s29.5 13.167 39.5 19.5s18 9.5 24 9.5c9.33301 0 17.333 -4.16699 24 -12.5s10 -16.833 10 -25.5c0 -15.333 -15.167 -31 -45.5 -47s-67.833 -24 -112.5 -24
c-65.333 0 -118.666 17.833 -159.999 53.5s-62 82.5 -62 140.5zM104 658.001c0 8.66699 2.66797 16 8.00098 22s12.333 9 21 9h212c7.33301 0 14.166 -3.16699 20.499 -9.5s9.5 -13.5 9.5 -21.5c0 -8.66699 -3 -15.834 -9 -21.501s-13 -8.5 -21 -8.5h-212
c-8.66699 0 -15.667 2.83301 -21 8.5s-8 12.834 -8 21.501zM124.001 269.001h185c17.333 0 29 2.16699 35 6.5s9 12.833 9 25.5c0 30 -11 56.333 -33 79s-49 34 -81 34c-31.333 0 -58.333 -10.5 -81 -31.5s-34 -46.833 -34 -77.5v-36z" />
    <glyph glyph-name="Ebreve" unicode="&#x114;" horiz-adv-x="514" 
d="M71 30v671.004c0 9.33301 3.83301 16.666 11.5 21.999s16.5 8 26.5 8h356c9.33301 0 16.5 -3.66699 21.5 -11s7.5 -16 7.5 -26c0 -10.667 -2.66699 -19.834 -8 -27.501s-12.333 -11.5 -21 -11.5h-310v-254h156c8.66699 0 15.667 -3.5 21 -10.5s8 -15.5 8 -25.5
c0 -8.66699 -2.5 -16.5 -7.5 -23.5s-12.167 -10.5 -21.5 -10.5h-156v-255h310c8.66699 0 15.667 -3.83301 21 -11.5s8 -16.834 8 -27.501c0 -10 -2.5 -18.667 -7.5 -26s-12.167 -11 -21.5 -11h-356c-10 0 -18.833 2.66699 -26.5 8s-11.5 12.666 -11.5 21.999zM160 967.004
h51c0 -22 7 -40.667 21 -56s30.333 -23 49 -23s35 7.66699 49 23s21 34 21 56h51c0 -32 -12.167 -60.167 -36.5 -84.5s-52.5 -36.5 -84.5 -36.5s-60.167 12.167 -84.5 36.5s-36.5 52.5 -36.5 84.5z" />
    <glyph glyph-name="ebreve" unicode="&#x115;" horiz-adv-x="465" 
d="M41 186v105.001c0 51.333 19.5 95.666 58.5 132.999s85.833 56 140.5 56c52 0 97 -17.5 135 -52.5s57 -78.833 57 -131.5c0 -19.333 -2.33301 -34.833 -7 -46.5s-11.834 -20 -21.501 -25s-18.667 -8.16699 -27 -9.5s-19.5 -2 -33.5 -2h-219v-30
c0 -36.667 13.167 -66 39.5 -88s60.5 -33 102.5 -33c22 0 41.167 3.33301 57.5 10s29.5 13.167 39.5 19.5s18 9.5 24 9.5c9.33301 0 17.333 -4.16699 24 -12.5s10 -16.833 10 -25.5c0 -15.333 -15.167 -31 -45.5 -47s-67.833 -24 -112.5 -24
c-65.333 0 -118.666 17.833 -159.999 53.5s-62 82.5 -62 140.5zM117 716.001h51c0 -22 7 -40.667 21 -56s30.333 -23 49 -23s35 7.66699 49 23s21 34 21 56h51c0 -32 -12.167 -60.167 -36.5 -84.5s-52.5 -36.5 -84.5 -36.5s-60.167 12.167 -84.5 36.5s-36.5 52.5 -36.5 84.5
zM124 269.001h185c17.333 0 29 2.16699 35 6.5s9 12.833 9 25.5c0 30 -11 56.333 -33 79s-49 34 -81 34c-31.333 0 -58.333 -10.5 -81 -31.5s-34 -46.833 -34 -77.5v-36z" />
    <glyph glyph-name="Edotaccent" unicode="&#x116;" horiz-adv-x="514" 
d="M71 30v671.004c0 9.33301 3.83301 16.666 11.5 21.999s16.5 8 26.5 8h356c9.33301 0 16.5 -3.66699 21.5 -11s7.5 -16 7.5 -26c0 -10.667 -2.66699 -19.834 -8 -27.501s-12.333 -11.5 -21 -11.5h-310v-254h156c8.66699 0 15.667 -3.5 21 -10.5s8 -15.5 8 -25.5
c0 -8.66699 -2.5 -16.5 -7.5 -23.5s-12.167 -10.5 -21.5 -10.5h-156v-255h310c8.66699 0 15.667 -3.83301 21 -11.5s8 -16.834 8 -27.501c0 -10 -2.5 -18.667 -7.5 -26s-12.167 -11 -21.5 -11h-356c-10 0 -18.833 2.66699 -26.5 8s-11.5 12.666 -11.5 21.999zM247 881.004
c0 11.333 4 21 12 29s17.667 12 29 12s20.833 -4 28.5 -12s11.5 -17.667 11.5 -29s-4 -21.166 -12 -29.499s-17.333 -12.5 -28 -12.5c-11.333 0 -21 4.16699 -29 12.5s-12 18.166 -12 29.499z" />
    <glyph glyph-name="edotaccent" unicode="&#x117;" horiz-adv-x="465" 
d="M41 186v105.001c0 51.333 19.5 95.666 58.5 132.999s85.833 56 140.5 56c52 0 97 -17.5 135 -52.5s57 -78.833 57 -131.5c0 -19.333 -2.33301 -34.833 -7 -46.5s-11.834 -20 -21.501 -25s-18.667 -8.16699 -27 -9.5s-19.5 -2 -33.5 -2h-219v-30
c0 -36.667 13.167 -66 39.5 -88s60.5 -33 102.5 -33c22 0 41.167 3.33301 57.5 10s29.5 13.167 39.5 19.5s18 9.5 24 9.5c9.33301 0 17.333 -4.16699 24 -12.5s10 -16.833 10 -25.5c0 -15.333 -15.167 -31 -45.5 -47s-67.833 -24 -112.5 -24
c-65.333 0 -118.666 17.833 -159.999 53.5s-62 82.5 -62 140.5zM124 269.001h185c17.333 0 29 2.16699 35 6.5s9 12.833 9 25.5c0 30 -11 56.333 -33 79s-49 34 -81 34c-31.333 0 -58.333 -10.5 -81 -31.5s-34 -46.833 -34 -77.5v-36zM198 630.001c0 11.333 4 21 12 29
s17.667 12 29 12s20.833 -4 28.5 -12s11.5 -17.667 11.5 -29s-4 -21.166 -12 -29.499s-17.333 -12.5 -28 -12.5c-11.333 0 -21 4.16699 -29 12.5s-12 18.166 -12 29.499z" />
    <glyph glyph-name="Eogonek" unicode="&#x118;" horiz-adv-x="514" 
d="M71 30v671.005c0 9.33301 3.83301 16.666 11.5 21.999s16.5 8 26.5 8h356c9.33301 0 16.5 -3.66699 21.5 -11s7.5 -16 7.5 -26c0 -10.667 -2.66699 -19.834 -8 -27.501s-12.333 -11.5 -21 -11.5h-310v-254h156c8.66699 0 15.667 -3.5 21 -10.5s8 -15.5 8 -25.5
c0 -8.66699 -2.5 -16.5 -7.5 -23.5s-12.167 -10.5 -21.5 -10.5h-156v-255h310c8.66699 0 15.667 -3.83301 21 -11.5s8 -16.834 8 -27.501c0 -19.333 -6.33301 -31.333 -19 -36c-46.667 -38.667 -70 -78.334 -70 -119.001c0 -30 20.333 -45 61 -45
c13.333 0 20 -7.33301 20 -22c0 -12.667 -8.66699 -19 -26 -19c-30 0 -54.5 6.66699 -73.5 20s-28.5 33 -28.5 59c0 45.333 19.667 87 59 125h-308c-10 0 -18.833 2.66699 -26.5 8s-11.5 12.666 -11.5 21.999z" />
    <glyph glyph-name="eogonek" unicode="&#x119;" horiz-adv-x="465" 
d="M41 186v105.002c0 51.333 19.5 95.666 58.5 132.999s85.833 56 140.5 56c52 0 97 -17.5 135 -52.5s57 -78.833 57 -131.5c0 -19.333 -2.33301 -34.833 -7 -46.5s-11.834 -20 -21.501 -25s-18.667 -8.16699 -27 -9.5s-19.5 -2 -33.5 -2h-219v-30
c0 -36.667 13.167 -66 39.5 -88s60.5 -33 102.5 -33c22 0 41.167 3.33301 57.5 10s29.5 13.167 39.5 19.5s18 9.5 24 9.5c9.33301 0 17.333 -4.16699 24 -12.5s10 -16.833 10 -25.5c0 -8 -4.66699 -16.5 -14 -25.5s-22.333 -17.167 -39 -24.5
c-43.333 -38.667 -65 -77.334 -65 -116.001c0 -30 20.333 -45 61 -45c13.333 0 20 -7.33301 20 -22c0 -12.667 -8.66699 -19 -26 -19c-30 0 -54.5 6.66699 -73.5 20s-28.5 33 -28.5 59c0 36 13.333 70.667 40 104c-14.667 -1.33301 -25.667 -2 -33 -2
c-65.333 0 -118.666 17.833 -159.999 53.5s-62 82.5 -62 140.5zM124 269.002h185c17.333 0 29 2.16699 35 6.5s9 12.833 9 25.5c0 30 -11 56.333 -33 79s-49 34 -81 34c-31.333 0 -58.333 -10.5 -81 -31.5s-34 -46.833 -34 -77.5v-36z" />
    <glyph glyph-name="Ecaron" unicode="&#x11a;" horiz-adv-x="514" 
d="M71 30v671.004c0 9.33301 3.83301 16.666 11.5 21.999s16.5 8 26.5 8h356c9.33301 0 16.5 -3.66699 21.5 -11s7.5 -16 7.5 -26c0 -10.667 -2.66699 -19.834 -8 -27.501s-12.333 -11.5 -21 -11.5h-310v-254h156c8.66699 0 15.667 -3.5 21 -10.5s8 -15.5 8 -25.5
c0 -8.66699 -2.5 -16.5 -7.5 -23.5s-12.167 -10.5 -21.5 -10.5h-156v-255h310c8.66699 0 15.667 -3.83301 21 -11.5s8 -16.834 8 -27.501c0 -10 -2.5 -18.667 -7.5 -26s-12.167 -11 -21.5 -11h-356c-10 0 -18.833 2.66699 -26.5 8s-11.5 12.666 -11.5 21.999zM145 955.004
c0 6.66699 2.00098 12.834 6.00098 18.501s9 8.5 15 8.5c5.33301 0 10 -2 14 -6l100 -84l101 84c3.33301 4 8 6 14 6s11 -2.83301 15 -8.5s6 -11.834 6 -18.501c0 -11.333 -5 -20.333 -15 -27l-101 -83c-6.66699 -6 -13.334 -9 -20.001 -9s-13 3 -19 9l-102 83
c-9.33301 6.66699 -14 15.667 -14 27z" />
    <glyph glyph-name="ecaron" unicode="&#x11b;" horiz-adv-x="465" 
d="M41 186v105.001c0 51.333 19.5 95.666 58.5 132.999s85.833 56 140.5 56c52 0 97 -17.5 135 -52.5s57 -78.833 57 -131.5c0 -19.333 -2.33301 -34.833 -7 -46.5s-11.834 -20 -21.501 -25s-18.667 -8.16699 -27 -9.5s-19.5 -2 -33.5 -2h-219v-30
c0 -36.667 13.167 -66 39.5 -88s60.5 -33 102.5 -33c22 0 41.167 3.33301 57.5 10s29.5 13.167 39.5 19.5s18 9.5 24 9.5c9.33301 0 17.333 -4.16699 24 -12.5s10 -16.833 10 -25.5c0 -15.333 -15.167 -31 -45.5 -47s-67.833 -24 -112.5 -24
c-65.333 0 -118.666 17.833 -159.999 53.5s-62 82.5 -62 140.5zM103 704.001c0 6.66699 2.00098 12.834 6.00098 18.501s9 8.5 15 8.5c5.33301 0 10 -2 14 -6l100 -84l101 84c3.33301 4 8 6 14 6s11 -2.83301 15 -8.5s6 -11.834 6 -18.501c0 -11.333 -5 -20.333 -15 -27
l-101 -83c-6.66699 -6 -13.334 -9 -20.001 -9s-13 3 -19 9l-102 83c-9.33301 6.66699 -14 15.667 -14 27zM124.001 269.001h185c17.333 0 29 2.16699 35 6.5s9 12.833 9 25.5c0 30 -11 56.333 -33 79s-49 34 -81 34c-31.333 0 -58.333 -10.5 -81 -31.5
s-34 -46.833 -34 -77.5v-36z" />
    <glyph glyph-name="Gcircumflex" unicode="&#x11c;" horiz-adv-x="548" 
d="M64 212l-0.000976562 301c0 75.333 19.5 130.5 58.5 165.5s90.5 52.5 154.5 52.5c65.333 0 118 -16.5 158 -49.5s60 -76.167 60 -129.5c0 -15.333 -3.5 -26 -10.5 -32s-17.5 -9 -31.5 -9c-27.333 0 -41.333 9.66699 -42 29c-8.66699 76.667 -52.667 115 -132 115
c-87.333 0 -131 -47.333 -131 -142v-301c0 -94.667 43.667 -142 131 -142c42 0 74.5 11.833 97.5 35.5s34.5 59.167 34.5 106.5v102h-119c-9.33301 0 -16.5 3.5 -21.5 10.5s-7.5 15.167 -7.5 24.5s2.66699 17.5 8 24.5s12.333 10.5 21 10.5h174c9.33301 0 16.5 -3 21.5 -9
s7.5 -13.333 7.5 -22v-141c0 -75.333 -19.667 -130.5 -59 -165.5s-91.666 -52.5 -156.999 -52.5s-117.5 17.5 -156.5 52.5s-58.5 90.167 -58.5 165.5zM136.999 868c0 12 4.99805 20.667 14.998 26l104 56c6.66699 3.33301 12.334 5 17.001 5c6 0 11.667 -1.66699 17 -5
l104 -55c10.667 -6 16 -15.333 16 -28c0 -7.33301 -2.33301 -13.833 -7 -19.5s-10 -8.5 -16 -8.5c-1.33301 0 -3.33301 0.333008 -6 1c-1.33301 1.33301 -2.66602 2 -3.99902 2l-104 56l-104 -56c-3.33301 -2 -6.33301 -3 -9 -3c-6 0 -11.333 3 -16 9s-7 12.667 -7 20z" />
    <glyph glyph-name="gcircumflex" unicode="&#x11d;" horiz-adv-x="457" 
d="M22 -94c0 48.667 26.9971 85.002 80.9971 109.002c-34 12.667 -51 35 -51 67c0 30.667 16.667 55.334 50 74.001c-38 30.667 -57 72.667 -57 126v33c0 48.667 16.333 88.334 49 119.001s75.667 46 129 46c45.333 0 84.333 -13 117 -39c20 43.333 42.667 65 68 65
c10.667 0 19.334 -3.16699 26.001 -9.5s10 -13.5 10 -21.5c0 -10 -5.66699 -17.667 -17 -23c-22.667 -6 -40.667 -20 -54 -42c20.667 -24.667 31 -56.334 31 -95.001v-33c0 -48 -17 -87.667 -51 -119s-77.333 -47 -130 -47c-27.333 0 -52 5 -74 15
c-16.667 -10 -25 -21.333 -25 -34s7.66699 -22.5 23 -29.5s34.333 -11.333 57 -13s47.334 -4.83398 74.001 -9.50098s51.334 -10.667 74.001 -18s41.667 -20.333 57 -39s23 -42.334 23 -71.001c0 -47.333 -18.833 -83.5 -56.5 -108.5s-86.5 -37.5 -146.5 -37.5
s-109.5 12.167 -148.5 36.5s-58.5 57.166 -58.5 98.499zM95.9971 617.002c0 12.667 4.99805 21.333 14.998 26l104 56c6.66699 3.33301 12.334 5 17.001 5c6 0 11.667 -1.66699 17 -5l104 -55c10.667 -6 16 -15.333 16 -28c0 -7.33301 -2.16699 -13.833 -6.5 -19.5
s-9.83301 -8.5 -16.5 -8.5c-1.33301 0 -3.33301 0.333008 -6 1c-1.33301 1.33301 -2.66602 2 -3.99902 2l-104 56l-104 -56c-2.66699 -2 -5.66699 -3 -9 -3c-6 0 -11.333 3 -16 9s-7 12.667 -7 20zM100.995 -84.999c0 -26 11.501 -46.834 34.501 -62.501
s53.833 -23.5 92.5 -23.5c37.333 0 67.166 7.83301 89.499 23.5s33.5 36.5 33.5 62.5c0 10.667 -1.83301 20 -5.5 28s-9.5 14.667 -17.5 20s-16 9.83301 -24 13.5s-18.333 6.66699 -31 9s-23.167 4 -31.5 5s-19.333 2.16699 -33 3.5s-23.167 2.33301 -28.5 3
c-52.667 -17.333 -79 -44.666 -79 -81.999zM125.996 283c0 -32 8.83203 -58.335 26.499 -79.002s41.834 -31 72.501 -31c29.333 0 53 10.167 71 30.5s27 46.5 27 78.5v33c0 30.667 -9 56.334 -27 77.001s-42 31 -72 31c-30.667 0 -54.667 -10.167 -72 -30.5
s-26 -46.166 -26 -77.499v-32z" />
    <glyph glyph-name="Gbreve" unicode="&#x11e;" horiz-adv-x="548" 
d="M64 212l-0.000976562 301c0 75.333 19.5 130.5 58.5 165.5s90.5 52.5 154.5 52.5c65.333 0 118 -16.5 158 -49.5s60 -76.167 60 -129.5c0 -15.333 -3.5 -26 -10.5 -32s-17.5 -9 -31.5 -9c-27.333 0 -41.333 9.66699 -42 29c-8.66699 76.667 -52.667 115 -132 115
c-87.333 0 -131 -47.333 -131 -142v-301c0 -94.667 43.667 -142 131 -142c42 0 74.5 11.833 97.5 35.5s34.5 59.167 34.5 106.5v102h-119c-9.33301 0 -16.5 3.5 -21.5 10.5s-7.5 15.167 -7.5 24.5s2.66699 17.5 8 24.5s12.333 10.5 21 10.5h174c9.33301 0 16.5 -3 21.5 -9
s7.5 -13.333 7.5 -22v-141c0 -75.333 -19.667 -130.5 -59 -165.5s-91.666 -52.5 -156.999 -52.5s-117.5 17.5 -156.5 52.5s-58.5 90.167 -58.5 165.5zM156.999 967h51c0 -22 7 -40.667 21 -56s30.333 -23 49 -23s35 7.66699 49 23s21 34 21 56h51
c0 -32 -12.167 -60.167 -36.5 -84.5s-52.5 -36.5 -84.5 -36.5s-60.167 12.167 -84.5 36.5s-36.5 52.5 -36.5 84.5z" />
    <glyph glyph-name="gbreve" unicode="&#x11f;" horiz-adv-x="457" 
d="M22 -94c0 48.667 26.9971 85.002 80.9971 109.002c-34 12.667 -51 35 -51 67c0 30.667 16.667 55.334 50 74.001c-38 30.667 -57 72.667 -57 126v33c0 48.667 16.333 88.334 49 119.001s75.667 46 129 46c45.333 0 84.333 -13 117 -39c20 43.333 42.667 65 68 65
c10.667 0 19.334 -3.16699 26.001 -9.5s10 -13.5 10 -21.5c0 -10 -5.66699 -17.667 -17 -23c-22.667 -6 -40.667 -20 -54 -42c20.667 -24.667 31 -56.334 31 -95.001v-33c0 -48 -17 -87.667 -51 -119s-77.333 -47 -130 -47c-27.333 0 -52 5 -74 15
c-16.667 -10 -25 -21.333 -25 -34s7.66699 -22.5 23 -29.5s34.333 -11.333 57 -13s47.334 -4.83398 74.001 -9.50098s51.334 -10.667 74.001 -18s41.667 -20.333 57 -39s23 -42.334 23 -71.001c0 -47.333 -18.833 -83.5 -56.5 -108.5s-86.5 -37.5 -146.5 -37.5
s-109.5 12.167 -148.5 36.5s-58.5 57.166 -58.5 98.499zM100.997 -84.998c0 -26 11.501 -46.834 34.501 -62.501s53.833 -23.5 92.5 -23.5c37.333 0 67.166 7.83301 89.499 23.5s33.5 36.5 33.5 62.5c0 10.667 -1.83301 20 -5.5 28s-9.5 14.667 -17.5 20
s-16 9.83301 -24 13.5s-18.333 6.66699 -31 9s-23.167 4 -31.5 5s-19.333 2.16699 -33 3.5s-23.167 2.33301 -28.5 3c-52.667 -17.333 -79 -44.666 -79 -81.999zM110.998 716.001h51c0 -22 7 -40.667 21 -56s30.333 -23 49 -23s35 7.66699 49 23s21 34 21 56h51
c0 -32 -12.167 -60.167 -36.5 -84.5s-52.5 -36.5 -84.5 -36.5s-60.167 12.167 -84.5 36.5s-36.5 52.5 -36.5 84.5zM125.998 283.001c0 -32 8.83203 -58.335 26.499 -79.002s41.834 -31 72.501 -31c29.333 0 53 10.167 71 30.5s27 46.5 27 78.5v33
c0 30.667 -9 56.334 -27 77.001s-42 31 -72 31c-30.667 0 -54.667 -10.167 -72 -30.5s-26 -46.166 -26 -77.499v-32z" />
    <glyph glyph-name="Gdotaccent" unicode="&#x120;" horiz-adv-x="548" 
d="M64 212l-0.000976562 301c0 75.333 19.5 130.5 58.5 165.5s90.5 52.5 154.5 52.5c65.333 0 118 -16.5 158 -49.5s60 -76.167 60 -129.5c0 -15.333 -3.5 -26 -10.5 -32s-17.5 -9 -31.5 -9c-27.333 0 -41.333 9.66699 -42 29c-8.66699 76.667 -52.667 115 -132 115
c-87.333 0 -131 -47.333 -131 -142v-301c0 -94.667 43.667 -142 131 -142c42 0 74.5 11.833 97.5 35.5s34.5 59.167 34.5 106.5v102h-119c-9.33301 0 -16.5 3.5 -21.5 10.5s-7.5 15.167 -7.5 24.5s2.66699 17.5 8 24.5s12.333 10.5 21 10.5h174c9.33301 0 16.5 -3 21.5 -9
s7.5 -13.333 7.5 -22v-141c0 -75.333 -19.667 -130.5 -59 -165.5s-91.666 -52.5 -156.999 -52.5s-117.5 17.5 -156.5 52.5s-58.5 90.167 -58.5 165.5zM236.999 881c0 11.333 4 21 12 29s17.667 12 29 12s20.833 -4 28.5 -12s11.5 -17.667 11.5 -29s-4 -21.166 -12 -29.499
s-17.333 -12.5 -28 -12.5c-11.333 0 -21 4.16699 -29 12.5s-12 18.166 -12 29.499z" />
    <glyph glyph-name="gdotaccent" unicode="&#x121;" horiz-adv-x="457" 
d="M22 -94c0 48.667 26.9971 85.002 80.9971 109.002c-34 12.667 -51 35 -51 67c0 30.667 16.667 55.334 50 74.001c-38 30.667 -57 72.667 -57 126v33c0 48.667 16.333 88.334 49 119.001s75.667 46 129 46c45.333 0 84.333 -13 117 -39c20 43.333 42.667 65 68 65
c10.667 0 19.334 -3.16699 26.001 -9.5s10 -13.5 10 -21.5c0 -10 -5.66699 -17.667 -17 -23c-22.667 -6 -40.667 -20 -54 -42c20.667 -24.667 31 -56.334 31 -95.001v-33c0 -48 -17 -87.667 -51 -119s-77.333 -47 -130 -47c-27.333 0 -52 5 -74 15
c-16.667 -10 -25 -21.333 -25 -34s7.66699 -22.5 23 -29.5s34.333 -11.333 57 -13s47.334 -4.83398 74.001 -9.50098s51.334 -10.667 74.001 -18s41.667 -20.333 57 -39s23 -42.334 23 -71.001c0 -47.333 -18.833 -83.5 -56.5 -108.5s-86.5 -37.5 -146.5 -37.5
s-109.5 12.167 -148.5 36.5s-58.5 57.166 -58.5 98.499zM100.997 -84.998c0 -26 11.501 -46.834 34.501 -62.501s53.833 -23.5 92.5 -23.5c37.333 0 67.166 7.83301 89.499 23.5s33.5 36.5 33.5 62.5c0 10.667 -1.83301 20 -5.5 28s-9.5 14.667 -17.5 20
s-16 9.83301 -24 13.5s-18.333 6.66699 -31 9s-23.167 4 -31.5 5s-19.333 2.16699 -33 3.5s-23.167 2.33301 -28.5 3c-52.667 -17.333 -79 -44.666 -79 -81.999zM125.998 283.001c0 -32 8.83203 -58.335 26.499 -79.002s41.834 -31 72.501 -31c29.333 0 53 10.167 71 30.5
s27 46.5 27 78.5v33c0 30.667 -9 56.334 -27 77.001s-42 31 -72 31c-30.667 0 -54.667 -10.167 -72 -30.5s-26 -46.166 -26 -77.499v-32zM191.997 629.999c0 11.333 4 21 12 29s17.667 12 29 12s20.833 -4 28.5 -12s11.5 -17.667 11.5 -29s-4 -21.166 -12 -29.499
s-17.333 -12.5 -28 -12.5c-11.333 0 -21 4.16699 -29 12.5s-12 18.166 -12 29.499z" />
    <glyph glyph-name="Gcommaaccent" unicode="&#x122;" horiz-adv-x="548" 
d="M64 212l-0.000976562 301c0 75.333 19.5 130.5 58.5 165.5s90.5 52.5 154.5 52.5c65.333 0 118 -16.5 158 -49.5s60 -76.167 60 -129.5c0 -15.333 -3.5 -26 -10.5 -32s-17.5 -9 -31.5 -9c-27.333 0 -41.333 9.66699 -42 29c-8.66699 76.667 -52.667 115 -132 115
c-87.333 0 -131 -47.333 -131 -142v-301c0 -94.667 43.667 -142 131 -142c42 0 74.5 11.833 97.5 35.5s34.5 59.167 34.5 106.5v102h-119c-9.33301 0 -16.5 3.5 -21.5 10.5s-7.5 15.167 -7.5 24.5s2.66699 17.5 8 24.5s12.333 10.5 21 10.5h174c9.33301 0 16.5 -3 21.5 -9
s7.5 -13.333 7.5 -22v-141c0 -75.333 -19.667 -130.5 -59 -165.5s-91.666 -52.5 -156.999 -52.5s-117.5 17.5 -156.5 52.5s-58.5 90.167 -58.5 165.5zM192.999 -134c0 10 4.33398 17.333 13.001 22l117 62c5.33301 1.33301 8.66602 2 9.99902 2c8 0 14.833 -3.5 20.5 -10.5
s8.5 -14.833 8.5 -23.5c0 -10.667 -4.66699 -18.667 -14 -24l-113 -59c-4 -2 -8 -3 -12 -3c-8 0 -15 3.5 -21 10.5s-9 14.833 -9 23.5z" />
    <glyph glyph-name="gcommaaccent" unicode="&#x123;" horiz-adv-x="457" 
d="M22 -94c0 48.667 26.9971 85.002 80.9971 109.002c-34 12.667 -51 35 -51 67c0 30.667 16.667 55.334 50 74.001c-38 30.667 -57 72.667 -57 126v33c0 48.667 16.333 88.334 49 119.001s75.667 46 129 46c45.333 0 84.333 -13 117 -39c20 43.333 42.667 65 68 65
c10.667 0 19.334 -3.16699 26.001 -9.5s10 -13.5 10 -21.5c0 -10 -5.66699 -17.667 -17 -23c-22.667 -6 -40.667 -20 -54 -42c20.667 -24.667 31 -56.334 31 -95.001v-33c0 -48 -17 -87.667 -51 -119s-77.333 -47 -130 -47c-27.333 0 -52 5 -74 15
c-16.667 -10 -25 -21.333 -25 -34s7.66699 -22.5 23 -29.5s34.333 -11.333 57 -13s47.334 -4.83398 74.001 -9.50098s51.334 -10.667 74.001 -18s41.667 -20.333 57 -39s23 -42.334 23 -71.001c0 -47.333 -18.833 -83.5 -56.5 -108.5s-86.5 -37.5 -146.5 -37.5
s-109.5 12.167 -148.5 36.5s-58.5 57.166 -58.5 98.499zM100.997 -84.998c0 -26 11.501 -46.834 34.501 -62.501s53.833 -23.5 92.5 -23.5c37.333 0 67.166 7.83301 89.499 23.5s33.5 36.5 33.5 62.5c0 10.667 -1.83301 20 -5.5 28s-9.5 14.667 -17.5 20
s-16 9.83301 -24 13.5s-18.333 6.66699 -31 9s-23.167 4 -31.5 5s-19.333 2.16699 -33 3.5s-23.167 2.33301 -28.5 3c-52.667 -17.333 -79 -44.666 -79 -81.999zM125.998 283.001c0 -32 8.83203 -58.335 26.499 -79.002s41.834 -31 72.501 -31c29.333 0 53 10.167 71 30.5
s27 46.5 27 78.5v33c0 30.667 -9 56.334 -27 77.001s-42 31 -72 31c-30.667 0 -54.667 -10.167 -72 -30.5s-26 -46.166 -26 -77.499v-32zM150.997 617.999c0 10 4.33301 17.333 13 22l117 62c4 1.33301 7.33301 2 10 2c8 0 14.667 -3.5 20 -10.5s8 -14.833 8 -23.5
c0 -11.333 -4.66699 -19.333 -14 -24l-113 -58c-5.33301 -2.66699 -9 -4 -11 -4c-8 0 -15 3.5 -21 10.5s-9 14.833 -9 23.5zM176.997 864.999c0 14 15.001 54.667 45.001 122c4 8.66699 10.667 13 20 13c7.33301 0 14.166 -2.33301 20.499 -7s9.5 -10.667 9.5 -18
c0 -4 -0.666992 -7.33301 -2 -10l-21 -52c21.333 -8.66699 32 -24.667 32 -48c0 -14.667 -5 -27 -15 -37s-22.333 -15 -37 -15c-14 0 -26.167 5 -36.5 15s-15.5 22.333 -15.5 37z" />
    <glyph glyph-name="Hcircumflex" unicode="&#x124;" horiz-adv-x="581" 
d="M71 30v672c0 9.33301 4.16699 16.5 12.5 21.5s18.166 7.5 29.499 7.5s21.166 -2.5 29.499 -7.5s12.5 -12.167 12.5 -21.5v-288h271v288c0 9.33301 4.16699 16.5 12.5 21.5s18.166 7.5 29.499 7.5s21.166 -2.5 29.499 -7.5s12.5 -12.167 12.5 -21.5v-672
c0 -9.33301 -4.16699 -16.666 -12.5 -21.999s-18.166 -8 -29.499 -8s-21.166 2.66699 -29.499 8s-12.5 12.666 -12.5 21.999v314h-271v-314c0 -9.33301 -4.16699 -16.666 -12.5 -21.999s-18.166 -8 -29.499 -8s-21.166 2.66699 -29.499 8s-12.5 12.666 -12.5 21.999z
M154 868c0 12 4.99805 20.667 14.998 26l104 56c6.66699 3.33301 12.334 5 17.001 5c6 0 11.667 -1.66699 17 -5l104 -55c10.667 -6 16 -15.333 16 -28c0 -7.33301 -2.16699 -13.833 -6.5 -19.5s-9.83301 -8.5 -16.5 -8.5c-1.33301 0 -3.33301 0.333008 -6 1
c-1.33301 1.33301 -2.66602 2 -3.99902 2l-104 56l-104 -56c-2.66699 -2 -5.66699 -3 -9 -3c-6 0 -11.333 3 -16 9s-7 12.667 -7 20z" />
    <glyph glyph-name="hcircumflex" unicode="&#x125;" horiz-adv-x="504" 
d="M-35 872c0 12 4.99805 20.667 14.998 26l104 56c6.66699 3.33301 12.334 5 17.001 5c6 0 11.667 -1.66699 17 -5l104 -55c10.667 -6 16 -15.333 16 -28c0 -7.33301 -2.33301 -13.833 -7 -19.5s-10 -8.5 -16 -8.5c-1.33301 0 -3.33301 0.333008 -6 1
c-1.33301 1.33301 -2.66602 2 -3.99902 2l-104 56l-104 -56c-3.33301 -2 -6.33301 -3 -9 -3c-6 0 -11.333 3 -16 9s-7 12.667 -7 20zM59.998 30v701.001c0 8.66699 3.83301 15.667 11.5 21s17.5 8 29.5 8s22 -2.66699 30 -8s12 -12.333 12 -21v-327
c11.333 21.333 28.166 39.333 50.499 54s48.833 22 79.5 22c47.333 0 88.5 -18.833 123.5 -56.5s52.5 -82.834 52.5 -135.501v-258c0 -9.33301 -4.16699 -16.666 -12.5 -21.999s-18.166 -8 -29.499 -8c-10.667 0 -20.167 2.66699 -28.5 8s-12.5 12.666 -12.5 21.999v258
c0 30 -11.333 57 -34 81s-49.334 36 -80.001 36c-28.667 0 -54 -10.833 -76 -32.5s-33 -49.834 -33 -84.501v-258c0 -7.33301 -4.16699 -14.166 -12.5 -20.499s-18.166 -9.5 -29.499 -9.5s-21 3 -29 9s-12 13 -12 21z" />
    <glyph glyph-name="Hbar" unicode="&#x126;" horiz-adv-x="585" 
d="M19 568c0 8.66699 2.33301 16 7 22s11 9 19 9h28v103c0 9.33301 4.16699 16.5 12.5 21.5s18.166 7.5 29.499 7.5s21.166 -2.5 29.499 -7.5s12.5 -12.167 12.5 -21.5v-103h271v103c0 9.33301 4.16699 16.5 12.5 21.5s18.166 7.5 29.499 7.5s21.166 -2.5 29.499 -7.5
s12.5 -12.167 12.5 -21.5v-103h27c8 0 14.333 -3 19 -9s7 -13.333 7 -22c0 -8 -2.33301 -14.833 -7 -20.5s-11 -8.5 -19 -8.5h-27v-509c0 -9.33301 -4.16699 -16.666 -12.5 -21.999s-18.166 -8 -29.499 -8s-21.166 2.66699 -29.499 8s-12.5 12.666 -12.5 21.999v314h-271
v-314c0 -9.33301 -4.16699 -16.666 -12.5 -21.999s-18.166 -8 -29.499 -8s-21.166 2.66699 -29.499 8s-12.5 12.666 -12.5 21.999v509h-28c-8 0 -14.333 2.83301 -19 8.5s-7 12.5 -7 20.5zM157 414h271v125h-271v-125z" />
    <glyph glyph-name="hbar" unicode="&#x127;" horiz-adv-x="504" 
d="M3 603c0 8.66699 2.66699 16.001 8 22.001s12.333 9 21 9h28v97c0 8.66699 3.83301 15.667 11.5 21s17.5 8 29.5 8s22 -2.66699 30 -8s12 -12.333 12 -21v-97h101c8 0 15 -3 21 -9s9 -13.333 9 -22s-3 -15.834 -9 -21.501s-13 -8.5 -21 -8.5h-101v-169
c11.333 21.333 28.166 39.333 50.499 54s48.833 22 79.5 22c47.333 0 88.5 -18.833 123.5 -56.5s52.5 -82.834 52.5 -135.501v-258c0 -9.33301 -4.16699 -16.666 -12.5 -21.999s-18.166 -8 -29.499 -8c-10.667 0 -20.167 2.66699 -28.5 8s-12.5 12.666 -12.5 21.999v258
c0 30 -11.333 57 -34 81s-49.334 36 -80.001 36c-28.667 0 -54 -10.833 -76 -32.5s-33 -49.834 -33 -84.501v-258c0 -7.33301 -4.16699 -14.166 -12.5 -20.499s-18.166 -9.5 -29.499 -9.5s-21 3 -29 9s-12 13 -12 21v543h-28c-8.66699 0 -15.667 2.83301 -21 8.5
s-8 12.834 -8 21.501z" />
    <glyph glyph-name="Itilde" unicode="&#x128;" horiz-adv-x="226" 
d="M-47 887c0 19.333 9.83496 34.334 29.502 45.001s38.834 16 57.501 16c18 0 40.667 -5.5 68 -16.5s49.666 -16.5 66.999 -16.5c16.667 0 32 4.5 46 13.5s23 13.5 27 13.5c7.33301 0 13.166 -3.16699 17.499 -9.5s6.5 -12.5 6.5 -18.5
c0 -20.667 -9.33301 -35.834 -28 -45.501s-37.334 -14.5 -56.001 -14.5c-20 0 -43.333 5.5 -70 16.5s-48.667 16.5 -66 16.5c-16.667 0 -32.5 -4.83301 -47.5 -14.5s-24.5 -14.5 -28.5 -14.5c-7.33301 0 -13 3.16699 -17 9.5s-6 12.833 -6 19.5zM71.002 30.001v672
c0 9.33301 4.16699 16.5 12.5 21.5s18.166 7.5 29.499 7.5s21.166 -2.5 29.499 -7.5s12.5 -12.167 12.5 -21.5v-672c0 -9.33301 -4.16699 -16.666 -12.5 -21.999s-18.166 -8 -29.499 -8s-21.166 2.66699 -29.499 8s-12.5 12.666 -12.5 21.999z" />
    <glyph glyph-name="itilde" unicode="&#x129;" horiz-adv-x="201" 
d="M-59 636c0 19.333 9.83496 34.334 29.502 45.001s38.834 16 57.501 16c18 0 40.667 -5.5 68 -16.5s49.666 -16.5 66.999 -16.5c16.667 0 32 4.5 46 13.5s23 13.5 27 13.5c7.33301 0 13.166 -3.16699 17.499 -9.5s6.5 -12.5 6.5 -18.5
c0 -20.667 -9.33301 -35.834 -28 -45.501s-37.334 -14.5 -56.001 -14.5c-20 0 -43.333 5.5 -70 16.5s-48.667 16.5 -66 16.5c-16.667 0 -32.5 -4.83301 -47.5 -14.5s-24.5 -14.5 -28.5 -14.5c-7.33301 0 -13 3.16699 -17 9.5s-6 12.833 -6 19.5zM59.002 30.001
l-0.000976562 414.999c0 8.66699 4 15.667 12 21s17.667 8 29 8c12 0 22 -2.66699 30 -8s12 -12.333 12 -21v-415c0 -7.33301 -4.16699 -14.166 -12.5 -20.499s-18.166 -9.5 -29.499 -9.5s-21 3 -29 9s-12 13 -12 21z" />
    <glyph glyph-name="Imacron" unicode="&#x12a;" horiz-adv-x="226" 
d="M-23 909c0 8.66699 2.66699 16 8 22s12.333 9 21 9h212c8 0 15 -3 21 -9s9 -13.333 9 -22s-3 -15.834 -9 -21.501s-13 -8.5 -21 -8.5h-212c-8.66699 0 -15.667 2.83301 -21 8.5s-8 12.834 -8 21.501zM71 30v672c0 9.33301 4.16699 16.5 12.5 21.5s18.166 7.5 29.499 7.5
s21.166 -2.5 29.499 -7.5s12.5 -12.167 12.5 -21.5v-672c0 -9.33301 -4.16699 -16.666 -12.5 -21.999s-18.166 -8 -29.499 -8s-21.166 2.66699 -29.499 8s-12.5 12.666 -12.5 21.999z" />
    <glyph glyph-name="imacron" unicode="&#x12b;" horiz-adv-x="201" 
d="M-35 658c0 8.66699 2.66699 16 8 22s12.333 9 21 9h212c8 0 15 -3.16699 21 -9.5s9 -13.5 9 -21.5c0 -8.66699 -3 -15.834 -9 -21.501s-13 -8.5 -21 -8.5h-212c-8.66699 0 -15.667 2.83301 -21 8.5s-8 12.834 -8 21.501zM59 30l-0.000976562 414.999
c0 8.66699 4 15.667 12 21s17.667 8 29 8c12 0 22 -2.66699 30 -8s12 -12.333 12 -21v-415c0 -7.33301 -4.16699 -14.166 -12.5 -20.499s-18.166 -9.5 -29.499 -9.5s-21 3 -29 9s-12 13 -12 21z" />
    <glyph glyph-name="Ibreve" unicode="&#x12c;" horiz-adv-x="226" 
d="M-8 967h51c0 -22 7 -40.667 21 -56s30.333 -23 49 -23s35 7.66699 49 23s21 34 21 56h51c0 -32 -12.167 -60.167 -36.5 -84.5s-52.5 -36.5 -84.5 -36.5s-60.167 12.167 -84.5 36.5s-36.5 52.5 -36.5 84.5zM71 30v672c0 9.33301 4.16699 16.5 12.5 21.5
s18.166 7.5 29.499 7.5s21.166 -2.5 29.499 -7.5s12.5 -12.167 12.5 -21.5v-672c0 -9.33301 -4.16699 -16.666 -12.5 -21.999s-18.166 -8 -29.499 -8s-21.166 2.66699 -29.499 8s-12.5 12.666 -12.5 21.999z" />
    <glyph glyph-name="ibreve" unicode="&#x12d;" horiz-adv-x="201" 
d="M-20 716h51c0 -22 7 -40.667 21 -56s30.333 -23 49 -23s35 7.66699 49 23s21 34 21 56h51c0 -32 -12.167 -60.167 -36.5 -84.5s-52.5 -36.5 -84.5 -36.5s-60.167 12.167 -84.5 36.5s-36.5 52.5 -36.5 84.5zM59 30l-0.000976562 414.999c0 8.66699 4 15.667 12 21
s17.667 8 29 8c12 0 22 -2.66699 30 -8s12 -12.333 12 -21v-415c0 -7.33301 -4.16699 -14.166 -12.5 -20.499s-18.166 -9.5 -29.499 -9.5s-21 3 -29 9s-12 13 -12 21z" />
    <glyph glyph-name="Iogonek" unicode="&#x12e;" horiz-adv-x="226" 
d="M18 -122c0 48 21.6689 91.333 65.002 130c-8 6 -12 13.333 -12 22v672c0 9.33301 4.16699 16.5 12.5 21.5s18.166 7.5 29.499 7.5s21.166 -2.5 29.499 -7.5s12.5 -12.167 12.5 -21.5v-672c0 -13.333 -7.33301 -22.333 -22 -27c-45.333 -38.667 -68 -78 -68 -118
c0 -30 20.333 -45 61 -45c13.333 0 20 -7.33301 20 -22c0 -12.667 -8.66699 -19 -26 -19c-30 0 -54.5 6.66699 -73.5 20s-28.5 33 -28.5 59z" />
    <glyph glyph-name="iogonek" unicode="&#x12f;" horiz-adv-x="201" 
d="M3 -124c0 48.667 22.667 93 68 133c-8 4.66699 -12 11.667 -12 21v415c0 8.66699 4 15.667 12 21s17.667 8 29 8c12 0 22 -2.66699 30 -8s12 -12.333 12 -21v-415c0 -10 -6.33301 -18.333 -19 -25c-48.667 -38 -73 -78.667 -73 -122c0 -30 20.333 -45 61 -45
c13.333 0 20 -7.33301 20 -22c0 -12.667 -8.66699 -19 -26 -19c-30 0 -54.5 6.66699 -73.5 20s-28.5 33 -28.5 59zM48 652c0 12.667 5 23.667 15 33s22.333 14 37 14c14 0 26 -4.66699 36 -14s15 -20.333 15 -33s-5 -23.834 -15 -33.501s-22 -14.5 -36 -14.5
s-26.167 4.83301 -36.5 14.5s-15.5 20.834 -15.5 33.501z" />
    <glyph glyph-name="Idotaccent" unicode="&#x130;" horiz-adv-x="226" 
d="M71 30v672c0 9.33301 4.16699 16.5 12.5 21.5s18.166 7.5 29.499 7.5s21.166 -2.5 29.499 -7.5s12.5 -12.167 12.5 -21.5v-672c0 -9.33301 -4.16699 -16.666 -12.5 -21.999s-18.166 -8 -29.499 -8s-21.166 2.66699 -29.499 8s-12.5 12.666 -12.5 21.999zM72 881
c0 11.333 4 21 12 29s17.667 12 29 12s20.833 -4 28.5 -12s11.5 -17.667 11.5 -29s-4 -21.166 -12 -29.499s-17.333 -12.5 -28 -12.5c-11.333 0 -21 4.16699 -29 12.5s-12 18.166 -12 29.499z" />
    <glyph glyph-name="dotlessi" unicode="&#x131;" horiz-adv-x="201" 
d="M59 30l-0.000976562 414.999c0 8.66699 4 15.667 12 21s17.667 8 29 8c12 0 22 -2.66699 30 -8s12 -12.333 12 -21v-415c0 -7.33301 -4.16699 -14.166 -12.5 -20.499s-18.166 -9.5 -29.499 -9.5s-21 3 -29 9s-12 13 -12 21z" />
    <glyph glyph-name="IJ" unicode="&#x132;" horiz-adv-x="739" 
d="M71 30v672c0 9.33301 4.16699 16.5 12.5 21.5s18.166 7.5 29.499 7.5s21.166 -2.5 29.499 -7.5s12.5 -12.167 12.5 -21.5v-672c0 -9.33301 -4.16699 -16.666 -12.5 -21.999s-18.166 -8 -29.499 -8s-21.166 2.66699 -29.499 8s-12.5 12.666 -12.5 21.999zM240 177
c0 15.333 3.5 25.999 10.5 31.999s17.5 9 31.5 9c28 0 42 -9.66699 42 -29c0 -35.333 11.5 -64 34.5 -86s55.167 -33 96.5 -33c88 0 132 47.333 132 142v443h-130c-9.33301 0 -16.5 3.66699 -21.5 11s-7.5 16.666 -7.5 27.999c0 24.667 9.66699 37 29 37h176
c10 0 18.833 -2.66699 26.5 -8s11.5 -12.666 11.5 -21.999v-489c0 -75.333 -19.5 -130.5 -58.5 -165.5s-90.5 -52.5 -154.5 -52.5c-65.333 0 -118 16.833 -158 50.5s-60 77.834 -60 132.501z" />
    <glyph glyph-name="ij" unicode="&#x133;" horiz-adv-x="393" 
d="M48 652c0 12.667 5 23.667 15 33s22.333 14 37 14c14 0 26 -4.66699 36 -14s15 -20.333 15 -33s-5 -23.834 -15 -33.501s-22 -14.5 -36 -14.5s-26.167 4.83301 -36.5 14.5s-15.5 20.834 -15.5 33.501zM59 30l-0.000976562 414.999c0 8.66699 4 15.667 12 21
s17.667 8 29 8c12 0 22 -2.66699 30 -8s12 -12.333 12 -21v-415c0 -7.33301 -4.16699 -14.166 -12.5 -20.499s-18.166 -9.5 -29.499 -9.5s-21 3 -29 9s-12 13 -12 21zM152.999 -193.001c0 10.667 3.33301 19.5 10 26.5s14.667 10.5 24 10.5c26 0 43 9.66699 51 29
s12 48.333 12 87v485c0 8.66699 3.83301 15.667 11.5 21s17.5 8 29.5 8s22 -2.66699 30 -8s12 -12.333 12 -21v-485c0 -58 -11.333 -104 -34 -138s-57 -51 -103 -51c-28.667 0 -43 12 -43 36zM238.999 651.999c0 12.667 5 23.667 15 33s22.333 14 37 14
c14 0 26 -4.66699 36 -14s15 -20.333 15 -33s-5 -23.834 -15 -33.501s-22 -14.5 -36 -14.5s-26.167 4.83301 -36.5 14.5s-15.5 20.834 -15.5 33.501z" />
    <glyph glyph-name="Jcircumflex" unicode="&#x134;" horiz-adv-x="519" 
d="M20 177c0 15.333 3.5 25.999 10.5 31.999s17.5 9 31.5 9c28 0 42 -9.66699 42 -29c0 -35.333 11.5 -64 34.5 -86s55.167 -33 96.5 -33c88 0 132 47.333 132 142v443h-130c-9.33301 0 -16.5 3.66699 -21.5 11s-7.5 16.666 -7.5 27.999c0 24.667 9.66699 37 29 37h176
c10 0 18.833 -2.66699 26.5 -8s11.5 -12.666 11.5 -21.999v-489c0 -75.333 -19.5 -130.5 -58.5 -165.5s-90.5 -52.5 -154.5 -52.5c-65.333 0 -118 16.833 -158 50.5s-60 77.834 -60 132.501zM124 867.999c0 12 4.99805 20.667 14.998 26l104 56
c6.66699 3.33301 12.334 5 17.001 5c6 0 11.667 -1.66699 17 -5l104 -55c10.667 -6 16 -15.333 16 -28c0 -7.33301 -2.16699 -13.833 -6.5 -19.5s-9.83301 -8.5 -16.5 -8.5c-1.33301 0 -3.33301 0.333008 -6 1c-1.33301 1.33301 -2.66602 2 -3.99902 2l-104 56l-104 -56
c-2.66699 -2 -5.66699 -3 -9 -3c-6 0 -11.333 3 -16 9s-7 12.667 -7 20z" />
    <glyph glyph-name="jcircumflex" unicode="&#x135;" horiz-adv-x="203" 
d="M-37 -193c0 10.667 3.33301 19.5 10 26.5s14.667 10.5 24 10.5c26 0 43 9.66699 51 29s12 48.333 12 87v485c0 8.66699 3.83301 15.667 11.5 21s17.5 8 29.5 8s22 -2.66699 30 -8s12 -12.333 12 -21v-485c0 -58 -11.333 -104 -34 -138s-57 -51 -103 -51
c-28.667 0 -43 12 -43 36zM-34 617c0 12.667 4.99805 21.333 14.998 26l104 56c6.66699 3.33301 12.334 5 17.001 5c6 0 11.667 -1.66699 17 -5l104 -55c10.667 -6 16 -15.333 16 -28c0 -7.33301 -2.16699 -13.833 -6.5 -19.5s-9.83301 -8.5 -16.5 -8.5
c-1.33301 0 -3.33301 0.333008 -6 1c-1.33301 1.33301 -2.66602 2 -3.99902 2l-104 56l-104 -56c-2.66699 -2 -5.66699 -3 -9 -3c-6 0 -11.333 3 -16 9s-7 12.667 -7 20z" />
    <glyph glyph-name="Kcommaaccent" unicode="&#x136;" horiz-adv-x="529" 
d="M71 30l-0.00195312 672.001c0 9.33301 4.16699 16.5 12.5 21.5s18.166 7.5 29.499 7.5s21.166 -2.5 29.499 -7.5s12.5 -12.167 12.5 -21.5v-331l268 348c6 8 14.333 12 25 12s21.334 -4.66699 32.001 -14s16 -19 16 -29c0 -6.66699 -2.33301 -12.667 -7 -18l-204 -255
l238 -360c3.33301 -5.33301 5 -10.333 5 -15c0 -10.667 -5.16699 -20.334 -15.5 -29.001s-21.5 -13 -33.5 -13c-13.333 0 -23.666 5.66699 -30.999 17l-219 329l-74 -93v-221c0 -9.33301 -4.16699 -16.666 -12.5 -21.999s-18.166 -8 -29.499 -8s-21.166 2.66699 -29.499 8
s-12.5 12.666 -12.5 21.999zM181.998 -133.999c0 10 4.33398 17.333 13.001 22l117 62c5.33301 1.33301 8.66602 2 9.99902 2c8 0 14.833 -3.5 20.5 -10.5s8.5 -14.833 8.5 -23.5c0 -10.667 -4.66699 -18.667 -14 -24l-113 -59c-4 -2 -8 -3 -12 -3c-8 0 -15 3.5 -21 10.5
s-9 14.833 -9 23.5z" />
    <glyph glyph-name="kcommaaccent" unicode="&#x137;" horiz-adv-x="467" 
d="M60 30l-0.000976562 700.999c0 8.66699 3.83301 15.667 11.5 21s17.5 8 29.5 8s22 -2.66699 30 -8s12 -12.333 12 -21v-468l228 206c6 4.66699 12 7 18 7c10 0 19.5 -4 28.5 -12s13.5 -17 13.5 -27c0 -8 -3 -14.667 -9 -20l-139 -123l166 -241
c3.33301 -5.33301 5 -10.333 5 -15c0 -10 -5 -19.5 -15 -28.5s-20.333 -13.5 -31 -13.5c-9.33301 0 -17 4.33301 -23 13l-159 233l-83 -74v-138c0 -7.33301 -4.16699 -14.166 -12.5 -20.499s-18.166 -9.5 -29.499 -9.5s-21 3 -29 9s-12 13 -12 21zM147.999 -134.001
c0 10 4.33398 17.333 13.001 22l117 62c5.33301 1.33301 8.66602 2 9.99902 2c8 0 14.833 -3.5 20.5 -10.5s8.5 -14.833 8.5 -23.5c0 -10.667 -4.66699 -18.667 -14 -24l-113 -59c-4 -2 -8 -3 -12 -3c-8 0 -15 3.5 -21 10.5s-9 14.833 -9 23.5z" />
    <glyph glyph-name="kgreenlandic" unicode="&#x138;" horiz-adv-x="466" 
d="M59 30l-0.000976562 414.999c0 8.66699 3.83301 15.667 11.5 21s17.5 8 29.5 8s22 -2.66699 30 -8s12 -12.333 12 -21v-182l228 206c6 4.66699 12 7 18 7c10 0 19.5 -4 28.5 -12s13.5 -17 13.5 -27c0 -8 -3 -14.667 -9 -20l-139 -123l166 -241
c3.33301 -5.33301 5 -10.333 5 -15c0 -10 -5 -19.5 -15 -28.5s-20.333 -13.5 -31 -13.5c-9.33301 0 -17 4.33301 -23 13l-159 233l-83 -74v-138c0 -7.33301 -4.16699 -14.166 -12.5 -20.499s-18.166 -9.5 -29.499 -9.5s-21 3 -29 9s-12 13 -12 21z" />
    <glyph glyph-name="Lacute" unicode="&#x139;" horiz-adv-x="468" 
d="M71 30l0.00195312 672.001c0 9.33301 4.16699 16.5 12.5 21.5s18.166 7.5 29.499 7.5s21.166 -2.5 29.499 -7.5s12.5 -12.167 12.5 -21.5v-626h273c8.66699 0 15.334 -3.83301 20.001 -11.5s7 -16.5 7 -26.5s-2.33301 -18.833 -7 -26.5s-11.334 -11.5 -20.001 -11.5h-319
c-10 0 -18.833 2.66699 -26.5 8s-11.5 12.666 -11.5 21.999zM174.002 869.001c0 10 4.33301 17.333 13 22l117 62c4 1.33301 7.33301 2 10 2c8 0 14.667 -3.5 20 -10.5s8 -14.833 8 -23.5c0 -11.333 -4.66699 -19.333 -14 -24l-113 -58c-5.33301 -2.66699 -9 -4 -11 -4
c-8 0 -15 3.5 -21 10.5s-9 14.833 -9 23.5z" />
    <glyph glyph-name="lacute" unicode="&#x13a;" horiz-adv-x="219" 
d="M37 836c0 10 4.33301 17.333 13 22l117 62c4 1.33301 7.33301 2 10 2c8 0 14.667 -3.5 20 -10.5s8 -14.833 8 -23.5c0 -11.333 -4.66699 -19.333 -14 -24l-113 -58c-5.33301 -2.66699 -9 -4 -11 -4c-8 0 -15 3.5 -21 10.5s-9 14.833 -9 23.5zM68 30l-0.000976562 700.999
c0 8.66699 3.83301 15.667 11.5 21s17.5 8 29.5 8s22 -2.66699 30 -8s12 -12.333 12 -21v-701c0 -7.33301 -4.16699 -14.166 -12.5 -20.499s-18.166 -9.5 -29.499 -9.5s-21 3 -29 9s-12 13 -12 21z" />
    <glyph glyph-name="Lcommaaccent" unicode="&#x13b;" horiz-adv-x="468" 
d="M71 30l0.00195312 672.001c0 9.33301 4.16699 16.5 12.5 21.5s18.166 7.5 29.499 7.5s21.166 -2.5 29.499 -7.5s12.5 -12.167 12.5 -21.5v-626h273c8.66699 0 15.334 -3.83301 20.001 -11.5s7 -16.5 7 -26.5s-2.33301 -18.833 -7 -26.5s-11.334 -11.5 -20.001 -11.5h-319
c-10 0 -18.833 2.66699 -26.5 8s-11.5 12.666 -11.5 21.999zM170.002 -133.999c0 10 4.33398 17.333 13.001 22l117 62c5.33301 1.33301 8.66602 2 9.99902 2c8 0 14.833 -3.5 20.5 -10.5s8.5 -14.833 8.5 -23.5c0 -10.667 -4.66699 -18.667 -14 -24l-113 -59
c-4 -2 -8 -3 -12 -3c-8 0 -15 3.5 -21 10.5s-9 14.833 -9 23.5z" />
    <glyph glyph-name="lcommaaccent" unicode="&#x13c;" horiz-adv-x="219" 
d="M27 -134c0 10 4.33398 17.333 13.001 22l117 62c5.33301 1.33301 8.66602 2 9.99902 2c8 0 14.833 -3.5 20.5 -10.5s8.5 -14.833 8.5 -23.5c0 -10.667 -4.66699 -18.667 -14 -24l-113 -59c-4 -2 -8 -3 -12 -3c-8 0 -15 3.5 -21 10.5s-9 14.833 -9 23.5zM68.001 30
l-0.000976562 700.999c0 8.66699 3.83301 15.667 11.5 21s17.5 8 29.5 8s22 -2.66699 30 -8s12 -12.333 12 -21v-701c0 -7.33301 -4.16699 -14.166 -12.5 -20.499s-18.166 -9.5 -29.499 -9.5s-21 3 -29 9s-12 13 -12 21z" />
    <glyph glyph-name="Lcaron" unicode="&#x13d;" horiz-adv-x="469" 
d="M71 30l0.00195312 672.001c0 9.33301 4.16699 16.5 12.5 21.5s18.166 7.5 29.499 7.5s21.166 -2.5 29.499 -7.5s12.5 -12.167 12.5 -21.5v-626h273c8.66699 0 15.334 -3.83301 20.001 -11.5s7 -16.5 7 -26.5s-2.33301 -18.833 -7 -26.5s-11.334 -11.5 -20.001 -11.5h-319
c-10 0 -18.833 2.66699 -26.5 8s-11.5 12.666 -11.5 21.999zM297.002 689.001c0 14 4.99902 26.168 14.999 36.501s22.333 15.5 37 15.5c14 0 26.167 -5.16699 36.5 -15.5s15.5 -22.5 15.5 -36.5s-15 -54.667 -45 -122c-4 -8.66699 -10.667 -13 -20 -13
c-7.33301 0 -14.166 2.16699 -20.499 6.5s-9.5 10.166 -9.5 17.499c0 2.66699 0.666992 6 2 10l21 52c-21.333 8.66699 -32 25 -32 49z" />
    <glyph glyph-name="lcaron" unicode="&#x13e;" horiz-adv-x="219" 
d="M68 30l-0.000976562 700.999c0 8.66699 3.83301 15.667 11.5 21s17.5 8 29.5 8s22 -2.66699 30 -8s12 -12.333 12 -21v-701c0 -7.33301 -4.16699 -14.166 -12.5 -20.499s-18.166 -9.5 -29.499 -9.5s-21 3 -29 9s-12 13 -12 21zM211.999 688.999
c0 14 4.99902 26.168 14.999 36.501s22.333 15.5 37 15.5c14 0 26.167 -5.16699 36.5 -15.5s15.5 -22.5 15.5 -36.5s-15 -54.667 -45 -122c-4 -8.66699 -10.667 -13 -20 -13c-7.33301 0 -14.166 2.16699 -20.499 6.5s-9.5 10.166 -9.5 17.499c0 2.66699 0.666992 6 2 10
l21 52c-21.333 8.66699 -32 25 -32 49z" />
    <glyph glyph-name="Ldot" unicode="&#x13f;" horiz-adv-x="469" 
d="M71 30l0.00195312 672.001c0 9.33301 4.16699 16.5 12.5 21.5s18.166 7.5 29.499 7.5s21.166 -2.5 29.499 -7.5s12.5 -12.167 12.5 -21.5v-626h273c8.66699 0 15.334 -3.83301 20.001 -11.5s7 -16.5 7 -26.5s-2.33301 -18.833 -7 -26.5s-11.334 -11.5 -20.001 -11.5h-319
c-10 0 -18.833 2.66699 -26.5 8s-11.5 12.666 -11.5 21.999zM290.002 421.001c0 13.333 5.33301 25 16 35s23.667 15 39 15c14.667 0 27.167 -5 37.5 -15s15.5 -21.667 15.5 -35s-5.16699 -25 -15.5 -35s-22.833 -15 -37.5 -15c-15.333 0 -28.333 5 -39 15
s-16 21.667 -16 35z" />
    <glyph glyph-name="ldot" unicode="&#x140;" horiz-adv-x="329" 
d="M68 30l-0.000976562 700.999c0 8.66699 3.83301 15.667 11.5 21s17.5 8 29.5 8s22 -2.66699 30 -8s12 -12.333 12 -21v-701c0 -7.33301 -4.16699 -14.166 -12.5 -20.499s-18.166 -9.5 -29.499 -9.5s-21 3 -29 9s-12 13 -12 21zM214.999 299.999
c0 13.333 5.33301 25 16 35s23.667 15 39 15c14.667 0 27.167 -5 37.5 -15s15.5 -21.667 15.5 -35s-5.16699 -25 -15.5 -35s-22.833 -15 -37.5 -15c-15.333 0 -28.333 5 -39 15s-16 21.667 -16 35z" />
    <glyph glyph-name="Lslash" unicode="&#x141;" horiz-adv-x="474" 
d="M-1 298c0 10.667 4.33496 18.002 13.002 22.002l65 34v348c0 9.33301 4.16699 16.5 12.5 21.5s18.166 7.5 29.499 7.5s21.166 -2.5 29.499 -7.5s12.5 -12.167 12.5 -21.5v-303l87 47c2 1.33301 5.33301 2 10 2c8 0 15.333 -4 22 -12s10 -16.333 10 -25
c0 -11.333 -4.33301 -19 -13 -23l-116 -62v-250h273c8.66699 0 15.334 -3.83301 20.001 -11.5s7 -16.5 7 -26.5s-2.33301 -18.833 -7 -26.5s-11.334 -11.5 -20.001 -11.5h-319c-10 0 -18.833 2.66699 -26.5 8s-11.5 12.666 -11.5 21.999v251l-36 -19
c-4 -2 -7.66699 -3 -11 -3c-8 0 -15.167 4.16699 -21.5 12.5s-9.5 17.166 -9.5 26.499z" />
    <glyph glyph-name="lslash" unicode="&#x142;" horiz-adv-x="310" 
d="M16 298c0 10.667 3.99805 18.001 11.998 22.001l82 44v367c0 8.66699 3.83301 15.667 11.5 21s17.5 8 29.5 8s22 -2.66699 30 -8s12 -12.333 12 -21v-323l61 33c2.66699 1.33301 6 2 10 2c8 0 15.333 -4 22 -12s10 -16.333 10 -25
c0 -10.667 -4.33301 -18.334 -13 -23.001l-90 -48v-305c0 -7.33301 -4.16699 -14.166 -12.5 -20.499s-18.166 -9.5 -29.499 -9.5s-21 3 -29 9s-12 13 -12 21v260l-53 -28c-3.33301 -2 -6.66602 -3 -9.99902 -3c-8 0 -15.167 4.16699 -21.5 12.5s-9.5 17.166 -9.5 26.499z
" />
    <glyph glyph-name="Nacute" unicode="&#x143;" horiz-adv-x="581" 
d="M71 30l-0.000976562 671.999c0 19.333 14 29 42 29c14 0 25.833 -4.16699 35.5 -12.5s19.167 -21.833 28.5 -40.5l249 -487v511c0 9.33301 4.16699 16.5 12.5 21.5s18.166 7.5 29.499 7.5s21.166 -2.5 29.499 -7.5s12.5 -12.167 12.5 -21.5v-672
c0 -9.33301 -4.16699 -16.666 -12.5 -21.999s-18.166 -8 -29.499 -8c-21.333 0 -39 12.667 -53 38l-260 503v-511c0 -9.33301 -4.16699 -16.666 -12.5 -21.999s-18.166 -8 -29.499 -8s-21.166 2.66699 -29.499 8s-12.5 12.666 -12.5 21.999zM199.999 868.999
c0 10 4.33301 17.333 13 22l117 62c4 1.33301 7.33301 2 10 2c8 0 14.667 -3.5 20 -10.5s8 -14.833 8 -23.5c0 -11.333 -4.66699 -19.333 -14 -24l-113 -58c-5.33301 -2.66699 -9 -4 -11 -4c-8 0 -15 3.5 -21 10.5s-9 14.833 -9 23.5z" />
    <glyph glyph-name="nacute" unicode="&#x144;" horiz-adv-x="503" 
d="M59 30v415.001c0 8.66699 3.83301 15.667 11.5 21s17.5 8 29.5 8c10 0 18.833 -2.83301 26.5 -8.5s11.5 -12.5 11.5 -20.5v-41c10.667 21.333 27.834 39.333 51.501 54s51.167 22 82.5 22c47.333 0 88.5 -18.833 123.5 -56.5s52.5 -82.834 52.5 -135.501v-258
c0 -9.33301 -4.16699 -16.666 -12.5 -21.999s-18.166 -8 -29.499 -8c-10.667 0 -20.167 2.66699 -28.5 8s-12.5 12.666 -12.5 21.999v258c0 30 -11.333 57 -34 81s-49.334 36 -80.001 36c-28.667 0 -54 -10.833 -76 -32.5s-33 -49.834 -33 -84.501v-258
c0 -7.33301 -4.33301 -14.166 -13 -20.499s-18.334 -9.5 -29.001 -9.5c-11.333 0 -21 3 -29 9s-12 13 -12 21zM169 618.001c0 10 4.33301 17.333 13 22l117 62c4 1.33301 7.33301 2 10 2c8 0 14.667 -3.5 20 -10.5s8 -14.833 8 -23.5c0 -11.333 -4.66699 -19.333 -14 -24
l-113 -58c-5.33301 -2.66699 -9 -4 -11 -4c-8 0 -15 3.5 -21 10.5s-9 14.833 -9 23.5z" />
    <glyph glyph-name="Ncommaaccent" unicode="&#x145;" horiz-adv-x="581" 
d="M71 30l-0.000976562 671.999c0 19.333 14 29 42 29c14 0 25.833 -4.16699 35.5 -12.5s19.167 -21.833 28.5 -40.5l249 -487v511c0 9.33301 4.16699 16.5 12.5 21.5s18.166 7.5 29.499 7.5s21.166 -2.5 29.499 -7.5s12.5 -12.167 12.5 -21.5v-672
c0 -9.33301 -4.16699 -16.666 -12.5 -21.999s-18.166 -8 -29.499 -8c-21.333 0 -39 12.667 -53 38l-260 503v-511c0 -9.33301 -4.16699 -16.666 -12.5 -21.999s-18.166 -8 -29.499 -8s-21.166 2.66699 -29.499 8s-12.5 12.666 -12.5 21.999zM203.999 -134.001
c0 10 4.33398 17.333 13.001 22l117 62c5.33301 1.33301 8.66602 2 9.99902 2c8 0 14.833 -3.5 20.5 -10.5s8.5 -14.833 8.5 -23.5c0 -10.667 -4.66699 -18.667 -14 -24l-113 -59c-4 -2 -8 -3 -12 -3c-8 0 -15 3.5 -21 10.5s-9 14.833 -9 23.5z" />
    <glyph glyph-name="ncommaaccent" unicode="&#x146;" horiz-adv-x="503" 
d="M59 30v415.001c0 8.66699 3.83301 15.667 11.5 21s17.5 8 29.5 8c10 0 18.833 -2.83301 26.5 -8.5s11.5 -12.5 11.5 -20.5v-41c10.667 21.333 27.834 39.333 51.501 54s51.167 22 82.5 22c47.333 0 88.5 -18.833 123.5 -56.5s52.5 -82.834 52.5 -135.501v-258
c0 -9.33301 -4.16699 -16.666 -12.5 -21.999s-18.166 -8 -29.499 -8c-10.667 0 -20.167 2.66699 -28.5 8s-12.5 12.666 -12.5 21.999v258c0 30 -11.333 57 -34 81s-49.334 36 -80.001 36c-28.667 0 -54 -10.833 -76 -32.5s-33 -49.834 -33 -84.501v-258
c0 -7.33301 -4.33301 -14.166 -13 -20.499s-18.334 -9.5 -29.001 -9.5c-11.333 0 -21 3 -29 9s-12 13 -12 21zM160 -133.999c0 10 4.33398 17.333 13.001 22l117 62c5.33301 1.33301 8.66602 2 9.99902 2c8 0 14.833 -3.5 20.5 -10.5s8.5 -14.833 8.5 -23.5
c0 -10.667 -4.66699 -18.667 -14 -24l-113 -59c-4 -2 -8 -3 -12 -3c-8 0 -15 3.5 -21 10.5s-9 14.833 -9 23.5z" />
    <glyph glyph-name="Ncaron" unicode="&#x147;" horiz-adv-x="581" 
d="M71 30l-0.000976562 671.999c0 19.333 14 29 42 29c14 0 25.833 -4.16699 35.5 -12.5s19.167 -21.833 28.5 -40.5l249 -487v511c0 9.33301 4.16699 16.5 12.5 21.5s18.166 7.5 29.499 7.5s21.166 -2.5 29.499 -7.5s12.5 -12.167 12.5 -21.5v-672
c0 -9.33301 -4.16699 -16.666 -12.5 -21.999s-18.166 -8 -29.499 -8c-21.333 0 -39 12.667 -53 38l-260 503v-511c0 -9.33301 -4.16699 -16.666 -12.5 -21.999s-18.166 -8 -29.499 -8s-21.166 2.66699 -29.499 8s-12.5 12.666 -12.5 21.999zM153.999 954.999
c0 6.66699 2 12.834 6 18.501s9 8.5 15 8.5c5.33301 0 10 -2 14 -6l100 -84l101 84c3.33301 4 8 6 14 6s11 -2.83301 15 -8.5s6 -11.834 6 -18.501c0 -11.333 -5 -20.333 -15 -27l-101 -83c-7.33301 -6 -14 -9 -20 -9c-6.66699 0 -13 3 -19 9l-102 83
c-9.33301 6.66699 -14 15.667 -14 27z" />
    <glyph glyph-name="ncaron" unicode="&#x148;" horiz-adv-x="503" 
d="M59 30v415.001c0 8.66699 3.83301 15.667 11.5 21s17.5 8 29.5 8c10 0 18.833 -2.83301 26.5 -8.5s11.5 -12.5 11.5 -20.5v-41c10.667 21.333 27.834 39.333 51.501 54s51.167 22 82.5 22c47.333 0 88.5 -18.833 123.5 -56.5s52.5 -82.834 52.5 -135.501v-258
c0 -9.33301 -4.16699 -16.666 -12.5 -21.999s-18.166 -8 -29.499 -8c-10.667 0 -20.167 2.66699 -28.5 8s-12.5 12.666 -12.5 21.999v258c0 30 -11.333 57 -34 81s-49.334 36 -80.001 36c-28.667 0 -54 -10.833 -76 -32.5s-33 -49.834 -33 -84.501v-258
c0 -7.33301 -4.33301 -14.166 -13 -20.499s-18.334 -9.5 -29.001 -9.5c-11.333 0 -21 3 -29 9s-12 13 -12 21zM112 704.001c0 6.66699 2 12.834 6 18.501s9 8.5 15 8.5c5.33301 0 10 -2 14 -6l100 -84l101 84c3.33301 4 8 6 14 6s11 -2.83301 15 -8.5s6 -11.834 6 -18.501
c0 -11.333 -5 -20.333 -15 -27l-101 -83c-7.33301 -6 -14 -9 -20 -9c-6.66699 0 -13 3 -19 9l-102 83c-9.33301 6.66699 -14 15.667 -14 27z" />
    <glyph glyph-name="Eng" unicode="&#x14a;" horiz-adv-x="582" 
d="M71 30v672c0 19.333 14 29 42 29c14 0 25.833 -4.16699 35.5 -12.5s19.167 -21.833 28.5 -40.5l249 -487v511c0 9.33301 4.16699 16.5 12.5 21.5s18.166 7.5 29.499 7.5s21.166 -2.5 29.499 -7.5s12.5 -12.167 12.5 -21.5v-742c0 -58 -11.333 -104 -34 -138
s-57 -51 -103 -51c-28.667 0 -43 12 -43 36c0 10.667 3.33301 19.5 10 26.5s14.667 10.5 24 10.5c25.333 0 42 9.66699 50 29s12 48.333 12 87v43c0 9.33301 -3.66699 21 -11 35l-260 503v-511c0 -9.33301 -4.16699 -16.666 -12.5 -21.999s-18.166 -8 -29.499 -8
s-21.166 2.66699 -29.499 8s-12.5 12.666 -12.5 21.999z" />
    <glyph glyph-name="eng" unicode="&#x14b;" horiz-adv-x="503" 
d="M59 30l0.00195312 415.001c0 8.66699 3.83301 15.667 11.5 21s17.5 8 29.5 8c10 0 18.833 -2.83301 26.5 -8.5s11.5 -12.5 11.5 -20.5v-41c10.667 21.333 27.834 39.333 51.501 54s51.167 22 82.5 22c47.333 0 88.5 -18.833 123.5 -56.5s52.5 -82.834 52.5 -135.501v-328
c0 -58 -11.333 -104 -34 -138s-57 -51 -103 -51c-28.667 0 -43 12 -43 36c0 10.667 3.33301 19.5 10 26.5s14.667 10.5 24 10.5c25.333 0 42.166 9.66699 50.499 29s12.5 48.333 12.5 87v328c0 30 -11.333 57 -34 81s-49.334 36 -80.001 36c-28.667 0 -54 -10.833 -76 -32.5
s-33 -49.834 -33 -84.501v-258c0 -7.33301 -4.33301 -14.166 -13 -20.499s-18.334 -9.5 -29.001 -9.5c-11.333 0 -21 3 -29 9s-12 13 -12 21z" />
    <glyph glyph-name="Omacron" unicode="&#x14c;" horiz-adv-x="559" 
d="M64 212v301c0 75.333 19.5 130.5 58.5 165.5s91.167 52.5 156.5 52.5s117.666 -17.5 156.999 -52.5s59 -90.167 59 -165.5v-301c0 -75.333 -19.667 -130.5 -59 -165.5s-91.666 -52.5 -156.999 -52.5s-117.5 17.5 -156.5 52.5s-58.5 90.167 -58.5 165.5zM144 909
c0 8.66699 2.66797 16 8.00098 22s12.333 9 21 9h212c7.33301 0 14.166 -3 20.499 -9s9.5 -13.333 9.5 -22s-3 -15.834 -9 -21.501s-13 -8.5 -21 -8.5h-212c-8.66699 0 -15.667 2.83301 -21 8.5s-8 12.834 -8 21.501zM148.001 212c0 -94.667 43.667 -142 131 -142
c42 0 74.5 11.833 97.5 35.5s34.5 59.167 34.5 106.5v301c0 47.333 -11.5 82.833 -34.5 106.5s-55.5 35.5 -97.5 35.5c-87.333 0 -131 -47.333 -131 -142v-301z" />
    </font>
</defs>
</svg>
