<?xml version="1.0" standalone="no"?>
<!DOCTYPE svg PUBLIC "-//W3C//DTD SVG 1.1//EN" "http://www.w3.org/Graphics/SVG/1.1/DTD/svg11.dtd" >
<svg>
<metadata>
Created by FontForge 20090914 at Mon Mar  6 23:04:30 2017
 By www-data
Copyright (c) 2011 by Jovanny Lemonad. All rights reserved.
</metadata>
<defs>
<font id="Numans-Regular" horiz-adv-x="1311" >
  <font-face 
    font-family="Numans"
    font-weight="400"
    font-stretch="normal"
    units-per-em="2048"
    panose-1="2 0 5 3 0 0 0 2 0 4"
    ascent="1638"
    descent="-410"
    x-height="1096"
    cap-height="1434"
    bbox="-305.727 -553 4864 1853"
    underline-thickness="102"
    underline-position="-103"
    unicode-range="U+0020-U+E000"
  />
<missing-glyph horiz-adv-x="614" 
 />
    <glyph glyph-name=".notdef" horiz-adv-x="614" 
 />
    <glyph glyph-name="space" unicode=" " horiz-adv-x="614" 
 />
    <glyph glyph-name="exclam" unicode="!" horiz-adv-x="635" 
d="M205 1413c0 14 6.66699 21 20 21h185c13.333 0 20 -7 20 -21l-41 -1034c0 -14 -6.66699 -21 -20 -21h-103c-13.333 0 -20 7 -20 21zM211 31v133c0 14.667 3 25.167 9 31.5s16.667 9.5 32 9.5h133c15.333 0 26 -3.16699 32 -9.5s9 -16.833 9 -31.5v-133
c0 -15.333 -3 -26 -9 -32s-16.667 -9 -32 -9h-133c-15.333 0 -26 3 -32 9s-9 16.667 -9 32z" />
    <glyph glyph-name="quotedbl" unicode="&#x22;" horiz-adv-x="696" 
d="M102 1413c0 13.333 7 20.333 21 21h143c13.333 0 20.333 -7 21 -21l-31 -461c0 -13.333 -6.66699 -20 -20 -20h-80c-13.333 0 -20.333 6.66699 -21 20zM410 1413c0 13.333 6.66699 20.333 20 21h143c13.333 0 20.333 -7 21 -21l-31 -461c0 -13.333 -6.66699 -20 -20 -20
h-82c-13.333 0 -20.333 6.66699 -21 20z" />
    <glyph glyph-name="numbersign" unicode="#" horiz-adv-x="1587" 
d="M61 389v103c0 13.333 7 20 21 20h280l107 410h-244c-13.333 0 -20 6.66699 -20 20v102c0 13.333 6.66699 20.333 20 21h281l88 348c4 13.333 14.333 20.333 31 21h123c10.667 0 14 -7 10 -21l-88 -348h428l90 348c4 13.333 14.333 20.333 31 21h122
c10.667 0 14.334 -7 11.001 -21l-90 -348h243c13.333 0 20.333 -7 21 -21v-102c0 -13.333 -7 -20 -21 -20h-280l-107 -410h244c13.333 0 20 -6.66699 20 -20v-103c0 -13.333 -6.66699 -20 -20 -20h-281l-88 -349c-4 -13.333 -14 -20 -30 -20h-123
c-10.667 0 -14.334 6.66699 -11.001 20l89 349h-429l-90 -349c-4 -13.333 -14 -20 -30 -20h-123c-10.667 0 -14 6.66699 -10 20l90 349h-244c-14 0 -21 6.66699 -21 20zM526 512h428l107 410h-428z" />
    <glyph glyph-name="dollar" unicode="$" horiz-adv-x="1382" 
d="M104 365c-2.66699 16.667 4.33398 24.665 21.001 23.998h129c12 0 20.333 -6.66699 25 -20c57.333 -170.667 203.333 -256 438 -256c122.667 0 216.5 21.833 281.5 65.5s97.5 97.834 97.5 162.501s-20.5 116.834 -61.5 156.501s-105.167 71.834 -192.5 96.501l-359 102
c-232 66.667 -348 193 -348 379c0 106.667 42 195.167 126 265.5s199 110.166 345 119.499v158c0 13.333 7 20 21 20h143c13.333 0 20.333 -6.66699 21 -20v-160c130 -16.667 235.167 -58.667 315.5 -126s132.166 -155 155.499 -263c2.66699 -16.667 -4.33301 -25 -21 -25
h-129c-12 0 -20.333 7 -25 21c-57.333 170.667 -193.666 256 -408.999 256c-113.333 0 -201.5 -21.833 -264.5 -65.5s-94.5 -98.334 -94.5 -164.001s20.5 -117.5 61.5 -155.5s105.833 -70 194.5 -96l359 -103c230.667 -65.333 346 -191.666 346 -378.999
c0 -106.667 -43.333 -195 -130 -265s-206.334 -110 -359.001 -120v-157c0 -13.333 -7 -20.333 -21 -21h-143c-13.333 0 -20.333 7 -21 21v159c-142 13.333 -255.333 54 -340 122s-138.667 157.333 -162 268z" />
    <glyph glyph-name="percent" unicode="%" horiz-adv-x="1833" 
d="M180 807c-65.333 68 -98.001 160.833 -98.001 278.5s32.833 210.167 98.5 277.5s152.334 101 260.001 101s194.334 -33.667 260.001 -101s98.5 -159.833 98.5 -277.5s-32.833 -210.167 -98.5 -277.5s-152.334 -101 -260.001 -101s-194.5 33.333 -260.5 100zM439.999 1341
c-58.667 0 -105.667 -21.5 -141 -64.5s-53 -106.833 -53 -191.5s17.667 -148.5 53 -191.5s82.333 -64.5 141 -64.5s105.834 21.5 141.501 64.5s53.5 106.833 53.5 191.5s-17.833 148.5 -53.5 191.5s-82.834 64.5 -141.501 64.5zM470.999 20l707 1393
c6.66699 14 16.667 21 30 21h144c13.333 0 16.666 -7 9.99902 -21l-707 -1393c-6.66699 -13.333 -16.667 -20 -30 -20h-144c-13.333 0 -16.666 6.66699 -9.99902 20zM1392.5 -31c-107.667 0 -194.334 33.833 -260.001 101.5s-98.5 160.167 -98.5 277.5
s32.833 209.833 98.5 277.5s152.334 101.5 260.001 101.5s194.334 -33.833 260.001 -101.5s98.5 -160.167 98.5 -277.5s-32.833 -209.833 -98.5 -277.5s-152.334 -101.5 -260.001 -101.5zM1393 604c-58.667 0 -105.834 -21.5 -141.501 -64.5s-53.5 -106.833 -53.5 -191.5
s17.833 -148.5 53.5 -191.5s82.834 -64.5 141.501 -64.5s105.667 21.5 141 64.5s53 106.833 53 191.5s-17.667 148.5 -53 191.5s-82.333 64.5 -141 64.5z" />
    <glyph glyph-name="ampersand" unicode="&#x26;" horiz-adv-x="1511" 
d="M102 358c0 160 76.6689 291.999 230.002 395.999c28.667 20.667 54.667 35.667 78 45c-4 4 -9.83301 9 -17.5 15s-21 19.667 -40 41s-35.833 43 -50.5 65c-37.333 59.333 -56 118 -56 176c0 114.667 41.667 204.667 125 270s198.666 98 345.999 98
s268.166 -35.833 362.499 -107.5s154.5 -167.5 180.5 -287.5c2.66699 -16.667 -4.33301 -25 -21 -25h-129c-12 0 -20.333 7 -25 21c-26 78 -70.333 140.167 -133 186.5s-134.334 69.5 -215.001 69.5c-204.667 0 -307 -68.333 -307 -205
c0 -39.333 16.333 -83.666 49 -132.999s65.667 -89 99 -119l466 -454l226 245c9.33301 10.667 19.333 10.667 30 0l84 -73c9.33301 -8 10 -17.667 2 -29l-229 -256l285 -277c5.33301 -5.33301 7.33301 -10 6 -14s-4.66602 -6 -9.99902 -6h-191c-16.667 0 -33 6.66699 -49 20
l-154 154c-124 -136.667 -287.667 -205 -491 -205c-130 0 -237.667 35.833 -323 107.5s-128 165.5 -128 281.5zM287.002 357.999c0 -76.667 25.833 -136.667 77.5 -180s121.167 -65 208.5 -65c134 0 253.667 58 359 174l-410 399c-20 -8 -45.5 -23.333 -76.5 -46
s-56.667 -45.5 -77 -68.5s-39 -53.833 -56 -92.5s-25.5 -79 -25.5 -121z" />
    <glyph glyph-name="quotesingle" unicode="'" horiz-adv-x="389" 
d="M102 1413c0 13.333 7 20.333 21 21h143c13.333 0 20.333 -7 21 -21l-31 -461c0 -13.333 -6.66699 -20 -20 -20h-82c-13.333 0 -20.333 6.66699 -21 20z" />
    <glyph glyph-name="parenleft" unicode="(" horiz-adv-x="545" 
d="M360 1446l31 38.999c11.333 13.333 24.333 20 39 20h94c19.333 0 25 -6.66699 17 -20l-29 -45c-56 -108.667 -98.333 -206.167 -127 -292.5s-52.167 -178.333 -70.5 -276s-27.5 -193.667 -27.5 -288s8.83301 -189.5 26.5 -285.5s38.834 -179.333 63.501 -250
c52.667 -150.667 98.334 -258 137.001 -322l27 -43c7.33301 -14 1.66602 -21 -17.001 -21h-94c-14.667 0 -26.834 5.83301 -36.501 17.5s-21 26.667 -34 45s-35.833 57.833 -68.5 118.5s-62 123.834 -88 189.501s-49.333 148.667 -70 249s-31 201 -31 302s10 201 30 300
s44 183.167 72 252.5c52.667 132 104.667 235.333 156 310z" />
    <glyph glyph-name="parenright" unicode=")" horiz-adv-x="545" 
d="M4 -317l29.001 47.0049c10.667 18.667 30.667 60.167 60 124.5s55 129.666 77 195.999s42.167 148.166 60.5 245.499s27.5 193.166 27.5 287.499s-8.83301 189.666 -26.5 285.999s-38.834 179.833 -63.501 250.5c-50.667 144.667 -96.334 252 -137.001 322l-27 43
c-8 13.333 -2.66699 20 16 20h95c14.667 0 26.834 -5.83301 36.501 -17.5s21 -26.667 34 -45s35.833 -57.833 68.5 -118.5s62 -123.834 88 -189.501s49.167 -148.667 69.5 -249s30.5 -201 30.5 -302s-9.83301 -201 -29.5 -300s-43.5 -183.5 -71.5 -253.5
c-54 -134.667 -106.333 -237.667 -157 -309l-30 -38c-11.333 -14 -24.333 -21 -39 -21h-95c-18 0 -23.333 7 -16 21z" />
    <glyph glyph-name="asterisk" unicode="*" horiz-adv-x="930" 
d="M88 887c-8 13.333 -5.33301 22.666 8 27.999l205 119l-205 119c-10.667 5.33301 -13.334 15 -8.00098 29l62 104c8 14 17.333 16.667 28 8l205 -118v237c0 14 6.66699 21 20 21h123c14 0 21 -7 21 -21v-237l205 118c10.667 8.66699 20 6 28 -8l62 -104
c5.33301 -14 2.66602 -23.667 -8.00098 -29l-207 -119l207 -119c13.333 -5.33301 16 -14.666 8 -27.999l-62 -107c-5.33301 -12 -14.666 -14 -27.999 -6l-205 119v-238c0 -13.333 -7 -20 -21 -20h-123c-13.333 0 -20 6.66699 -20 20v238l-205 -119
c-13.333 -8 -22.666 -6 -27.999 6z" />
    <glyph glyph-name="plus" unicode="+" horiz-adv-x="1196" 
d="M82 645v103c0 13.333 6.66699 20 20 20h424v424c0 13.333 7 20 21 20h102c13.333 0 20.333 -6.66699 21 -20v-424h424c13.333 0 20 -6.66699 20 -20v-103c0 -13.333 -6.66699 -20 -20 -20h-424v-424c0 -13.333 -7 -20.333 -21 -21h-102c-13.333 0 -20.333 7 -21 21v424
h-424c-13.333 0 -20 6.66699 -20 20z" />
    <glyph glyph-name="comma" unicode="," horiz-adv-x="502" 
d="M143 164c0 27.333 13.667 41 41 41h133c15.333 0 26 -3.16699 32 -9.5s9 -16.833 9 -31.5v-123c0 -24.667 -6.66699 -48.667 -20 -72l-113 -194h-82l95 215h-54c-14.667 0 -25.167 3 -31.5 9s-9.5 16.667 -9.5 32v133z" />
    <glyph glyph-name="hyphen" unicode="-" horiz-adv-x="1032" 
d="M82 604v103c0 13.333 6.66699 20 20 20h828c13.333 0 20 -6.66699 20 -20v-103c0 -13.333 -6.66699 -20 -20 -20h-828c-13.333 0 -20 6.66699 -20 20z" />
    <glyph glyph-name="period" unicode="." horiz-adv-x="502" 
d="M143 164c0 27.333 13.667 41 41 41h133c15.333 0 26 -3.16699 32 -9.5s9 -16.833 9 -31.5v-133c0 -15.333 -3 -26 -9 -32s-16.667 -9 -32 -9h-133c-14.667 0 -25.167 3 -31.5 9s-9.5 16.667 -9.5 32v133z" />
    <glyph glyph-name="slash" unicode="/" horiz-adv-x="879" 
d="M45 20l603.999 1393c6.66699 14 17 21 31 21h143c14 0 17.667 -7 11 -21l-605 -1393c-6.66699 -13.333 -16.667 -20 -30 -20h-144c-13.333 0 -16.666 6.66699 -9.99902 20z" />
    <glyph glyph-name="zero" unicode="0" horiz-adv-x="1434" 
d="M717 -31c-178.667 0 -322.334 65.5 -431.001 196.5s-163 314.667 -163 551s54.333 420 163 551s252.334 196.5 431.001 196.5s322.334 -65.5 431.001 -196.5s163 -314.667 163 -551s-54.333 -420 -163 -551s-252.334 -196.5 -431.001 -196.5zM717 1321
c-120 0 -218.333 -50.833 -295 -152.5s-115 -252.167 -115 -451.5s38.333 -349.833 115 -451.5s175 -152.5 295 -152.5s218.167 50.833 294.5 152.5s114.5 252.167 114.5 451.5s-38.167 349.833 -114.5 451.5s-174.5 152.5 -294.5 152.5z" />
    <glyph glyph-name="one" unicode="1" horiz-adv-x="766" 
d="M27 1108c-7.33301 10.667 -5.99902 20.334 4.00098 29.001l305 235c2.66699 1.33301 10.167 7.16602 22.5 17.499s20.5 16.833 24.5 19.5l20 10c21.333 10 40 15 56 15h82c13.333 0 20 -7 20 -21v-1393c0 -13.333 -6.66699 -20 -20 -20h-144
c-13.333 0 -20 6.66699 -20 20v1178l-258 -178c-12.667 -8 -22.334 -6.66699 -29.001 4z" />
    <glyph glyph-name="two" unicode="2" horiz-adv-x="1290" 
d="M84 1069c26 122.667 88.502 219.165 187.502 289.498s228.667 105.5 389 105.5s287 -37.167 380 -111.5s139.5 -180.5 139.5 -318.5c0 -92.667 -29.833 -175.167 -89.5 -247.5s-131.834 -131.833 -216.501 -178.5l-256 -134
c-206 -103.333 -312.333 -213.666 -319 -330.999h868c13.333 0 20.333 -6.66699 21 -20v-103c0 -13.333 -7 -20 -21 -20h-1032c-13.333 0 -20 6.66699 -20 20v93c0 70.667 16 135.334 48 194.001s74 108.5 126 149.5s109.333 79.5 172 115.5l188 104
c62.667 32.667 120 66 172 100s94 74 126 120s48 95.333 48 148c0 90 -30.667 158.667 -92 206s-144.333 71 -249 71s-190.334 -22.833 -257.001 -68.5s-113 -108.167 -139 -187.5c-4 -13.333 -12.333 -20.333 -25 -21h-129c-16 0 -22.667 8.33301 -20 25z" />
    <glyph glyph-name="three" unicode="3" horiz-adv-x="1335" 
d="M104 365c-2.66699 16.667 4.33008 24.6641 20.9971 23.9971h129c12 0 20.333 -6.66699 25 -20c26 -79.333 72.333 -141.833 139 -187.5s153.334 -68.5 260.001 -68.5s191.667 22.833 255 68.5s95 111.834 95 198.501s-30 154.167 -90 202.5s-146 72.5 -258 72.5h-184
c-13.333 0 -20.333 7 -21 21v102c0 13.333 7 20.333 21 21h174c98 0 175.333 22.5 232 67.5s85 109.167 85 192.5s-30.333 147.833 -91 193.5s-139.5 68.5 -236.5 68.5s-178 -23.167 -243 -69.5s-110.167 -108.5 -135.5 -186.5c-4 -13.333 -12.333 -20.333 -25 -21h-129
c-16.667 0 -23.667 8.33301 -21 25c26 121.333 87.5 217.5 184.5 288.5s222 106.5 375 106.5s275.5 -36.167 367.5 -108.5s138 -172.5 138 -300.5c0 -78 -21.167 -145.667 -63.5 -203s-107.166 -95.666 -194.499 -114.999c98 -19.333 172.333 -61 223 -125
s76 -141.667 76 -233c0 -128.667 -47.333 -229.167 -142 -301.5s-223.167 -108.5 -385.5 -108.5s-293.166 35.333 -392.499 106s-162 167.334 -188 290.001z" />
    <glyph glyph-name="four" unicode="4" horiz-adv-x="1319" 
d="M41 328v102c0 30 20.333 71 61 123l666 819c32.667 41.333 66.667 62 102 62h144c13.333 0 20 -7 20 -21v-962h203c13.333 0 20 -7 20 -21v-102c0 -14 -6.66699 -21 -20 -21h-203v-287c0 -13.333 -6.66699 -20 -20 -20h-144c-13.333 0 -20 6.66699 -20 20v287h-789
c-13.333 0 -20 7 -20 21zM225 451h625v768z" />
    <glyph glyph-name="five" unicode="5" horiz-adv-x="1384" 
d="M166 365c-2.66699 16.667 3.99902 24.668 19.999 24.001h129c12 0 20.333 -6.66699 25 -20c26 -78 71.333 -140.167 136 -186.5s149.334 -69.5 254.001 -69.5s188.667 28 252 84s95 137.5 95 244.5s-32.333 188.167 -97 243.5s-158.667 83 -282 83
c-76.667 0 -162 -21 -256 -63c-48 -19.333 -85.333 -29 -112 -29h-103c-13.333 0 -20 6.66699 -20 20v717c0 13.333 6.66699 20.333 20 21h940c13.333 0 20.333 -7 21 -21v-102c0 -13.333 -7 -20.333 -21 -21h-776v-450c95.333 48 201.333 71.667 318 71
c177.333 0 313.833 -40.833 409.5 -122.5s143.5 -197.667 143.5 -348s-47.833 -266.5 -143.5 -348.5s-232.167 -123 -409.5 -123c-142 0 -261.5 35.667 -358.5 107s-158.5 167.666 -184.5 288.999z" />
    <glyph glyph-name="six" unicode="6" horiz-adv-x="1331" 
d="M123 502l0.000976562 450.003c0 158.667 49.167 283.667 147.5 375s230.166 137 395.499 137c135.333 0 250 -32.667 344 -98s153.333 -157.333 178 -276c2.66699 -16.667 -4.33301 -25 -21 -25h-129c-12 0 -20 6.66699 -24 20c-24.667 75.333 -68 133.5 -130 174.5
s-140.167 61.5 -234.5 61.5s-175 -32.833 -242 -98.5s-100.5 -155.834 -100.5 -270.501v-164c9.33301 10.667 23 24 41 40s59 37.333 123 64s132.333 40 205 40c161.333 0 290.333 -42.333 387 -127s145 -202.834 145 -354.501s-48.333 -269.834 -145 -354.501
s-226 -127 -388 -127s-294.5 47.5 -397.5 142.5s-154.5 225.167 -154.5 390.5zM411.501 700.003c-69.667 -58.667 -104.5 -138.832 -104.5 -240.499s34.5 -184.834 103.5 -249.501s155.5 -97 259.5 -97s189 29 255 87s99 141.5 99 250.5s-33.167 192.5 -99.5 250.5
s-151 87 -254 87s-189.333 -29.333 -259 -88z" />
    <glyph glyph-name="seven" unicode="7" horiz-adv-x="1094" 
d="M20 1311l-0.000976562 102c0 14 7 21 21 21h991c14 0 21 -7 21 -21v-92c0 -27.333 -9.66699 -65 -29 -113l-543 -1188c-6.66699 -13.333 -16.667 -20 -30 -20h-144c-13.333 0 -16.666 6.66699 -9.99902 20l580 1270h-836c-14 0 -21 7 -21 21z" />
    <glyph glyph-name="eight" unicode="8" horiz-adv-x="1372" 
d="M123 379c0 87.333 26.6689 163.832 80.002 229.499s125.666 108.5 216.999 128.5c-87.333 19.333 -151.833 57.666 -193.5 114.999s-62.5 125 -62.5 203c0 130 45 230.667 135 302s219 107 387 107s297 -35.833 387 -107.5s135 -172.167 135 -301.5
c0 -78 -20.833 -145.667 -62.5 -203s-106.167 -95.666 -193.5 -114.999c91.333 -20.667 163.666 -63.667 216.999 -129s80 -141.666 80 -228.999c0 -130 -48 -230.833 -144 -302.5s-235.5 -107.5 -418.5 -107.5s-322.667 35.833 -419 107.5s-144.5 172.5 -144.5 302.5z
M402.502 583.499c-63.667 -47.667 -95.5 -115.5 -95.5 -203.5s32.5 -154.5 97.5 -199.5s158.833 -67.5 281.5 -67.5s216.5 22.5 281.5 67.5s97.5 111.5 97.5 199.5s-31.833 155.833 -95.5 203.5s-158.167 71.5 -283.5 71.5s-219.833 -23.833 -283.5 -71.5zM436.002 1252.5
c-58.667 -45.667 -88 -110.5 -88 -194.5s29.333 -148.167 88 -192.5s142 -66.5 250 -66.5s191.333 22.167 250 66.5s88 108.5 88 192.5s-29.333 148.833 -88 194.5s-142 68.5 -250 68.5s-191.333 -22.833 -250 -68.5z" />
    <glyph glyph-name="nine" unicode="9" horiz-adv-x="1331" 
d="M123 983c0 151.333 48.5 269.334 145.5 354.001s226.333 127 388 127s294 -47.333 397 -142s154.5 -224.667 154.5 -390v-451c0 -158.667 -49.167 -283.667 -147.5 -375s-229.833 -137 -394.5 -137c-135.333 0 -250.166 32.833 -344.499 98.5
s-153.833 157.834 -178.5 276.501c-2.66699 16.667 4.33301 25 21 25h129c12 0 20 -7 24 -21c24.667 -75.333 68.167 -133.333 130.5 -174s140.666 -61 234.999 -61s174.833 32.667 241.5 98s100 155.333 100 270v164c-9.33301 -10.667 -23 -23.834 -41 -39.501
s-59 -36.834 -123 -63.501s-132.333 -40 -205 -40c-161.333 0 -290.333 42.333 -387 127s-145 202.667 -145 354zM307 983.001c0 -109.333 33.1689 -193 99.502 -251s151.166 -87 254.499 -87s189.666 29.333 258.999 88s104 139 104 241s-34.5 185.333 -103.5 250
s-155.333 97 -259 97s-188.667 -29 -255 -87s-99.5 -141.667 -99.5 -251z" />
    <glyph glyph-name="colon" unicode=":" horiz-adv-x="502" 
d="M143 164c0 27.333 13.667 41 41 41h133c15.333 0 26 -3.16699 32 -9.5s9 -16.833 9 -31.5v-133c0 -15.333 -3 -26 -9 -32s-16.667 -9 -32 -9h-133c-14.667 0 -25.167 3 -31.5 9s-9.5 16.667 -9.5 32v133zM143 1065c0 27.333 13.667 41 41 41h133
c15.333 0 26 -3.16699 32 -9.5s9 -16.833 9 -31.5v-133c0 -15.333 -3 -26 -9 -32s-16.667 -9 -32 -9h-133c-14.667 0 -25.167 3 -31.5 9s-9.5 16.667 -9.5 32v133z" />
    <glyph glyph-name="semicolon" unicode=";" horiz-adv-x="502" 
d="M143 164c0 27.333 13.667 41 41 41h133c15.333 0 26 -3.16699 32 -9.5s9 -16.833 9 -31.5v-123c0 -24.667 -6.66699 -48.667 -20 -72l-113 -194h-82l95 215h-54c-14.667 0 -25.167 3 -31.5 9s-9.5 16.667 -9.5 32v133zM143 1065c0 27.333 13.667 41 41 41h133
c15.333 0 26 -3.16699 32 -9.5s9 -16.833 9 -31.5v-133c0 -15.333 -3 -26 -9 -32s-16.667 -9 -32 -9h-133c-14.667 0 -25.167 3 -31.5 9s-9.5 16.667 -9.5 32v133z" />
    <glyph glyph-name="less" unicode="&#x3c;" horiz-adv-x="1075" 
d="M41 502v61c0 45.333 20.333 76 61 92l850 359c13.333 4 20.333 0.666992 21 -10v-134c0 -16.667 -7 -26.667 -21 -30l-727 -308l727 -307c13.333 -4 20.333 -14 21 -30v-134c0 -10.667 -7 -14 -21 -10l-850 359c-40.667 17.333 -61 48 -61 92z" />
    <glyph glyph-name="equal" unicode="=" horiz-adv-x="1032" 
d="M82 420v102c0 13.333 6.66699 20.333 20 21h828c13.333 0 20 -7 20 -21v-102c0 -13.333 -6.66699 -20.333 -20 -21h-828c-13.333 0.666992 -20 7.66699 -20 21zM82 788v103c0 13.333 6.66699 20 20 20h828c13.333 0 20 -6.66699 20 -20v-103
c0 -13.333 -6.66699 -20 -20 -20h-828c-13.333 0 -20 6.66699 -20 20z" />
    <glyph glyph-name="greater" unicode="&#x3e;" horiz-adv-x="1075" 
d="M102 61v134.001c0 16.667 7 26.667 21 30l727 307l-727 308c-13.333 4 -20.333 14 -21 30v134c0 10.667 7 14 21 10l850 -359c40.667 -16.667 61 -47.334 61 -92.001v-61c0 -44 -20.333 -74.667 -61 -92l-850 -359c-14 -4 -21 -0.666992 -21 10z" />
    <glyph glyph-name="question" unicode="?" horiz-adv-x="1221" 
d="M43 1069c26 122.667 88.499 219.168 187.499 289.501s228.667 105.5 389 105.5s287 -37.167 380 -111.5s139.5 -180.5 139.5 -318.5c0 -58.667 -11.667 -112.5 -35 -161.5s-52.333 -88.5 -87 -118.5s-72.5 -60.167 -113.5 -90.5s-78.833 -56.833 -113.5 -79.5
c-81.333 -51.333 -122 -113 -122 -185v-20c0 -14 -7 -21 -21 -21h-143c-14 0 -21 7 -21 21v20c0 62 16.167 117.167 48.5 165.5s71.5 88.166 117.5 119.499l139 96c46.667 31.333 86 69.333 118 114s48 94.667 48 150c0 90.667 -30.667 159.5 -92 206.5
s-144.166 70.5 -248.499 70.5s-190 -22.833 -257 -68.5s-113.5 -108.167 -139.5 -187.5c-4 -14 -12 -21 -24 -21h-130c-16 0 -22.667 8.33301 -20 25zM466.999 31.001v133c0 14.667 3 25.167 9 31.5s16.667 9.5 32 9.5h133c15.333 0 26 -3.16699 32 -9.5s9 -16.833 9 -31.5
v-133c0 -15.333 -3 -26 -9 -32s-16.667 -9 -32 -9h-133c-15.333 0 -26 3 -32 9s-9 16.667 -9 32z" />
    <glyph glyph-name="at" unicode="@" horiz-adv-x="1720" 
d="M102 716.5c0 218.333 72.168 397.501 216.501 537.501s325.333 210 543 210s398.167 -72.333 541.5 -217s215 -335 215 -571c0 -140.667 -25 -245.834 -75 -315.501s-113.667 -104.5 -191 -104.5c-110.667 0 -186.667 41 -228 123l-8 20
c-40 -60 -102.333 -102.333 -187 -127c-34.667 -10.667 -71.334 -16 -110.001 -16c-114.667 0 -203 25 -265 75s-93 117.167 -93 201.5s31 151.5 93 201.5s150.333 75 265 75h266c0 79.333 -21.5 141.833 -64.5 187.5s-96.5 68.5 -160.5 68.5c-100 0 -175 -44.333 -225 -133
c-6.66699 -13.333 -15 -20.333 -25 -21h-108c-18 0 -25 8.33301 -21 25c56 174.667 182.333 262 379 262c113.333 0 206.5 -35.833 279.5 -107.5s109.5 -165.5 109.5 -281.5v-256c0 -109.333 34.333 -164 103 -164c31.333 0 57.833 22.167 79.5 66.5
s32.5 117.833 32.5 220.5c0 202 -55.167 361.667 -165.5 479s-256 176 -437 176s-327.167 -56.333 -438.5 -169s-167 -261.167 -167 -445.5s55.667 -332.833 167 -445.5s257 -169 437 -169c82 0 157 13.667 225 41c14 2.66699 21 -4 21 -20v-92c0 -16.667 -7 -27 -21 -31
c-61.333 -20.667 -136.333 -31 -225 -31c-217.333 0 -398 70 -542 210s-216 319.167 -216 537.5zM625.001 532.501c0 -43.667 16.333 -78.501 49 -104.501s74.167 -39 124.5 -39s91.333 5.5 123 16.5s57 24.333 76 40s35.833 31.834 50.5 48.501c24.667 30 37 49.667 37 59
v123h-266c-64 0 -112.333 -13 -145 -39s-49 -60.833 -49 -104.5z" />
    <glyph glyph-name="A" unicode="A" horiz-adv-x="1458" 
d="M63 20l542.998 1352c16.667 40.667 47.334 61.334 92.001 62.001h62c45.333 0 76 -20.667 92 -62l543 -1352c2 -4 3 -7 3 -9c0 -7.33301 -6.66699 -11 -20 -11h-147c-13.333 0 -23.666 6.66699 -30.999 20l-143 349h-656l-143 -349c-6.66699 -13.333 -17 -20 -31 -20
h-147c-12.667 0 -19 3.66699 -19 11c-0.666992 2 0 5 2 9zM452.998 511.999h553l-277 686z" />
    <glyph glyph-name="B" unicode="B" horiz-adv-x="1485" 
d="M205 20v1393c0 14 6.66699 21 20 21h543c166.667 0 293.667 -33.833 381 -101.5s131 -163.834 131 -288.501c0 -72 -20.5 -136.333 -61.5 -193s-102.5 -94.667 -184.5 -114c112 -18.667 194.667 -58.834 248 -120.501s80 -134.167 80 -217.5
c0 -128 -43.333 -226.5 -130 -295.5s-214 -103.5 -382 -103.5h-625c-13.333 0 -20 6.66699 -20 20zM1178 399.002c0 170.667 -109.333 256 -328 256h-461v-512h461c218.667 0 328 85.333 328 256zM389 799.002h399c94.667 0 169.667 20.833 225 62.5s83 102.667 83 183
s-28.667 141.333 -86 183s-138 62.5 -242 62.5h-379v-491z" />
    <glyph glyph-name="C" unicode="C" horiz-adv-x="1507" 
d="M310.5 167c-125 132 -187.498 315 -187.498 549s62.167 417.167 186.5 549.5s283.833 198.5 478.5 198.5c168 0 304.333 -36.167 409 -108.5s170 -174.5 196 -306.5c2.66699 -16.667 -4.33301 -25 -21 -25h-129c-12 0 -20 6.66699 -24 20
c-57.333 184 -201 276.333 -431 277c-138 0 -252.667 -50.833 -344 -152.5s-137 -252.167 -137 -451.5s46.167 -349.833 138.5 -451.5s210.166 -152.5 353.499 -152.5c229.333 0 372.666 92 429.999 276c4 13.333 12 20.333 24 21h129c14 0 21 -6 21 -18
c0 -59.333 -19.667 -117.333 -59 -174c-114 -166 -295.667 -249 -545 -249c-200.667 0 -363.5 66 -488.5 198z" />
    <glyph glyph-name="D" unicode="D" horiz-adv-x="1505" 
d="M205 20v1393c0 13.333 6.66699 20.333 20 21h471c212.667 0 383.667 -63.833 513 -191.5s194 -302.834 194 -525.501s-64.5 -397.834 -193.5 -525.501s-300.167 -191.5 -513.5 -191.5h-471c-13.333 0 -20 6.66699 -20 20zM389 143.002h307
c155.333 0 281.333 48.833 378 146.5s145 240 145 427s-48.167 329.333 -144.5 427s-222.5 146.5 -378.5 146.5h-307v-1147z" />
    <glyph glyph-name="E" unicode="E" horiz-adv-x="1319" 
d="M205 20v1393c0 14 6.66699 21 20 21h992c13.333 0 20 -7 20 -21v-102c0 -14 -6.66699 -21 -20 -21h-828v-491h684c14 0 21 -7 21 -21v-102c0 -14 -7 -21 -21 -21h-684v-512h828c13.333 0 20 -6.66699 20 -20v-103c0 -13.333 -6.66699 -20 -20 -20h-992
c-13.333 0 -20 6.66699 -20 20z" />
    <glyph glyph-name="F" unicode="F" horiz-adv-x="1298" 
d="M205 20v1393c0 13.333 6.66699 20.333 20 21h992c13.333 0 20 -7 20 -21v-102c0 -13.333 -6.66699 -20.333 -20 -21h-828v-532h684c13.333 0 20.333 -7 21 -21v-102c0 -13.333 -7 -20.333 -21 -21h-684v-594c0 -13.333 -6.66699 -20 -20 -20h-144
c-13.333 0 -20 6.66699 -20 20z" />
    <glyph glyph-name="G" unicode="G" horiz-adv-x="1577" 
d="M788 1464c168 0 304.334 -36.166 409.001 -108.499s170 -174.5 196 -306.5c2.66699 -16.667 -4.33301 -25 -21 -25h-129c-12 0 -20 6.66699 -24 20c-57.333 184.667 -201 277 -431 277c-137.333 0 -251.833 -50.833 -343.5 -152.5s-137.5 -251.834 -137.5 -450.501
s45.167 -349.167 135.5 -451.5s201.666 -153.5 333.999 -153.5s240.833 42.667 325.5 128s127 196 127 332v21h-418c-13.333 0 -20 6.66699 -20 20v103c0 13.333 6.66699 20 20 20h582c13.333 0 20 -6.66699 20 -20v-697c0 -13.333 -6.66699 -20 -20 -20h-113
c-12 0 -18.667 6.66699 -20 20l-21 185c-14 -23.333 -35.667 -49.666 -65 -78.999s-60 -54.333 -92 -75s-75.333 -39.5 -130 -56.5s-112.667 -25.5 -174 -25.5c-190.667 0 -347.5 66.333 -470.5 199s-184.5 315.667 -184.5 549s62.167 416.166 186.5 548.499
s283.833 198.5 478.5 198.5z" />
    <glyph glyph-name="H" unicode="H" horiz-adv-x="1577" 
d="M205 20v1393c0 14 6.66699 21 20 21h144c13.333 0 20 -7 20 -21v-635h799v635c0 14 6.66699 21 20 21h144c13.333 0 20 -7 20 -21v-1393c0 -13.333 -6.66699 -20 -20 -20h-144c-13.333 0 -20 6.66699 -20 20v615h-799v-615c0 -13.333 -6.66699 -20 -20 -20h-144
c-13.333 0 -20 6.66699 -20 20z" />
    <glyph glyph-name="I" unicode="I" horiz-adv-x="594" 
d="M205 20v1393c0 14 6.66699 21 20 21h144c13.333 0 20 -7 20 -21v-1393c0 -13.333 -6.66699 -20 -20 -20h-144c-13.333 0 -20 6.66699 -20 20z" />
    <glyph glyph-name="J" unicode="J" horiz-adv-x="1024" 
d="M41 45l-0.000976562 100c0 16.667 6.66699 22.334 20 17.001c82 -32.667 175 -49 279 -49s182.5 26.167 235.5 78.5s79.5 135.166 79.5 248.499v850h-471c-13.333 0 -20 7 -20 21v102c0 13.333 6.66699 20.333 20 21h635c13.333 0 20.333 -7 21 -21v-973
c0 -146 -41.667 -261 -125 -345s-205.666 -126 -366.999 -126c-109.333 0 -205 16.333 -287 49c-13.333 7.33301 -20 16.333 -20 27z" />
    <glyph glyph-name="K" unicode="K" horiz-adv-x="1419" 
d="M205 20l0.00195312 1393c0 13.333 6.66699 20.333 20 21h144c13.333 0 20 -7 20 -21v-625h154c122.667 0 218 51.333 286 154l308 471c9.33301 13.333 19.333 20.333 30 21h168c22 0 27.667 -8.33301 17 -25l-318 -487c-79.333 -121.333 -161.333 -189.666 -246 -204.999
c98 -15.333 187 -83.666 267 -204.999l317 -487c3.33301 -5.33301 5.16602 -10.833 5.49902 -16.5s-6.83398 -8.5 -21.501 -8.5h-168c-10.667 0 -21 6.66699 -31 20l-307 472c-68 102.667 -163.667 153.667 -287 153h-174v-625c0 -13.333 -6.66699 -20 -20 -20h-144
c-13.333 0 -20 6.66699 -20 20z" />
    <glyph glyph-name="L" unicode="L" horiz-adv-x="1237" 
d="M205 20v1393c0 14 6.66699 21 20 21h144c13.333 0 20 -7 20 -21v-1270h807c14 0 21 -6.66699 21 -20v-103c0 -13.333 -7 -20 -21 -20h-971c-13.333 0 -20 6.66699 -20 20z" />
    <glyph glyph-name="M" unicode="M" horiz-adv-x="1976" 
d="M205 20v1393c0 13.333 6.66699 20.333 20 21h144c39.333 0 70 -20.667 92 -62l528 -1005l527 1005c22 40.667 52.667 61.334 92 62.001h143c13.333 0 20.333 -7 21 -21v-1393c0 -13.333 -7 -20 -21 -20h-143c-13.333 0 -20.333 6.66699 -21 20v1106l-471 -890
c-22 -40.667 -52.667 -61.334 -92 -62.001h-72c-39.333 0 -70 20.667 -92 62l-471 890v-1106c0 -13.333 -6.66699 -20 -20 -20h-144c-13.333 0 -20 6.66699 -20 20z" />
    <glyph glyph-name="N" unicode="N" horiz-adv-x="1618" 
d="M205 20v1393c0 14 6.66699 21 20 21h144c40.667 0 74.667 -20.667 102 -62l758 -1126v1167c0 14 6.66699 21 20 21h144c13.333 0 20 -7 20 -21v-1393c0 -13.333 -6.66699 -20 -20 -20h-144c-40.667 -0 -74.667 20.333 -102 61l-758 1127v-1168
c0 -13.333 -6.66699 -20 -20 -20h-144c-13.333 0 -20 6.66699 -20 20z" />
    <glyph glyph-name="O" unicode="O" horiz-adv-x="1577" 
d="M309 168c-124 132.667 -186 315.667 -186 549s62.167 416.166 186.5 548.499s284 198.5 479 198.5s354.667 -66.167 479 -198.5s186.5 -315.166 186.5 -548.499s-62.167 -416.333 -186.5 -549s-284 -199 -479 -199s-354.833 66.333 -479.5 199zM788.5 1321
c-137.667 0 -252.334 -50.833 -344.001 -152.5s-137.5 -252.167 -137.5 -451.5s45.833 -349.833 137.5 -451.5s206.334 -152.5 344.001 -152.5s252.334 50.833 344.001 152.5s137.5 252.167 137.5 451.5s-45.833 349.833 -137.5 451.5s-206.334 152.5 -344.001 152.5z" />
    <glyph glyph-name="P" unicode="P" horiz-adv-x="1454" 
d="M205 20v1393c0 13.333 6.66699 20.333 20 21h594c170.667 0 302.167 -41 394.5 -123s138.5 -201.5 138.5 -358.5s-46.167 -276.5 -138.5 -358.5s-223.833 -123 -394.5 -123h-430v-451c0 -13.333 -6.66699 -20 -20 -20h-144c-13.333 0 -20 6.66699 -20 20zM389 614h430
c108 0 193 28 255 84s93 140.667 93 254s-31 198 -93 254s-147 84 -255 84h-430v-676z" />
    <glyph glyph-name="Q" unicode="Q" horiz-adv-x="1577" 
d="M1454 717c0 -272 -90.667 -473.333 -272 -604h374c14 0 21 -7 21 -21v-102c0 -14 -7 -21 -21 -21h-768c-194.667 0 -354.167 66.333 -478.5 199s-186.5 315.667 -186.5 549s62.167 416.166 186.5 548.499s284 198.5 479 198.5s354.667 -66.167 479 -198.5
s186.5 -315.166 186.5 -548.499zM788.5 1321c-137.667 0 -252.334 -50.833 -344.001 -152.5s-137.5 -252.167 -137.5 -451.5s45.833 -349.833 137.5 -451.5s206.334 -152.5 344.001 -152.5s252.334 50.833 344.001 152.5s137.5 252.167 137.5 451.5
s-45.833 349.833 -137.5 451.5s-206.334 152.5 -344.001 152.5z" />
    <glyph glyph-name="R" unicode="R" horiz-adv-x="1460" 
d="M205 20l-0.000976562 1393c0 13.333 6.66699 20.333 20 21h574c168 0 298.667 -38.667 392 -116s140 -185.666 140 -324.999c0 -100 -35.833 -186.333 -107.5 -259s-172.167 -119.334 -301.5 -140.001c38 -9.33301 72.333 -26 103 -50s52.834 -44.833 66.501 -62.5
s32.167 -45.167 55.5 -82.5l246 -374c3.33301 -5.33301 5 -10.833 5 -16.5s-7.33301 -8.5 -22 -8.5h-168c-10.667 0 -20.667 6.66699 -30 20l-246 379c-65.333 102.667 -161 154 -287 154h-256v-533c0 -13.333 -6.66699 -20 -20 -20h-144c-13.333 0 -20 6.66699 -20 20z
M388.999 696h410.002c105.333 0 189.666 25.667 252.999 77s95 124.833 95 220.5s-31.833 169 -95.5 220s-147.834 76.5 -252.501 76.5h-410v-594z" />
    <glyph glyph-name="S" unicode="S" horiz-adv-x="1382" 
d="M104 371c0 12 6.99902 17.9961 20.999 17.9961h129c12 0 20.333 -6.66699 25 -20c57.333 -170.667 203.333 -256 438 -256c122.667 0 216.5 21.833 281.5 65.5s97.5 97.834 97.5 162.501s-20.5 116.834 -61.5 156.501s-105.167 71.834 -192.5 96.501l-359 102
c-232 66.667 -348 193 -348 379c0 114.667 48.833 208.167 146.5 280.5s228.5 108.5 392.5 108.5s296.5 -35.167 397.5 -105.5s164.5 -166.833 190.5 -289.5c2.66699 -16.667 -4.33301 -25 -21 -25h-129c-12 0 -20.333 7 -25 21c-57.333 170.667 -193.666 256 -408.999 256
c-113.333 0 -201.5 -21.833 -264.5 -65.5s-94.5 -98.334 -94.5 -164.001s20.5 -117.5 61.5 -155.5s105.833 -70 194.5 -96l359 -103c230.667 -65.333 346 -191.666 346 -378.999c0 -116 -50.167 -209.833 -150.5 -281.5s-237.833 -107.5 -412.5 -107.5s-314 35 -418 105
c-52 34.667 -97.5 78.834 -136.5 132.501s-58.5 108.5 -58.5 164.5z" />
    <glyph glyph-name="T" unicode="T" horiz-adv-x="1290" 
d="M41 1311v102c0 13.333 6.66699 20.333 20 21h1168c13.333 0 20 -7 20 -21v-102c0 -13.333 -6.66699 -20.333 -20 -21h-502v-1270c0 -13.333 -6.66699 -20 -20 -20h-144c-13.333 0 -20 6.66699 -20 20v1270h-482c-13.333 0.666992 -20 7.66699 -20 21z" />
    <glyph glyph-name="U" unicode="U" horiz-adv-x="1556" 
d="M184 573l-0.00195312 840c0 13.333 7 20.333 21 21h143c13.333 0 20.333 -7 21 -21v-840c0 -151.333 38.167 -265.833 114.5 -343.5s174.5 -116.5 294.5 -116.5s218.333 38.833 295 116.5s115 192.167 115 343.5v840c0 13.333 6.66699 20.333 20 21h144
c13.333 0 20 -7 20 -21v-840c0 -187.333 -54.667 -334.833 -164 -442.5s-252.666 -161.5 -429.999 -161.5s-320.666 53.833 -429.999 161.5s-164 255.167 -164 442.5z" />
    <glyph glyph-name="V" unicode="V" horiz-adv-x="1458" 
d="M63 1413c-2 4 -2.66602 7.33301 -1.99902 10c0 7.33301 6.33301 11 19 11h147c13.333 0 23.666 -7 30.999 -21l471 -1177l471 1177c6.66699 13.333 17 20.333 31 21h147c18.667 0 24.334 -7 17.001 -21l-543 -1352c-16.667 -40.667 -47.334 -61 -92.001 -61h-62
c-45.333 -0 -76 20.333 -92 61z" />
    <glyph glyph-name="W" unicode="W" horiz-adv-x="2093" 
d="M63 1413c-1.33301 3.33301 -2.00098 6.33301 -2.00098 9c0 8 6.33301 12 19 12h139c16.667 0 27 -7 31 -21l362 -1167l318 1126c4 16.667 13.833 31.167 29.5 43.5s33.167 18.5 52.5 18.5h71c19.333 0 36.833 -6.16699 52.5 -18.5s25.5 -26.833 29.5 -43.5l316 -1126
l362 1167c4 13.333 14.333 20.333 31 21h139c16.667 0 22.334 -7 17.001 -21l-424 -1352c-13.333 -40.667 -44.333 -61 -93 -61h-61c-24.667 0 -45.167 6.16699 -61.5 18.5s-26.5 26.5 -30.5 42.5l-313 1115l-312 -1115c-4 -16.667 -14.167 -31 -30.5 -43
s-36.833 -18 -61.5 -18h-61c-48 -0 -79 20.333 -93 61z" />
    <glyph glyph-name="X" unicode="X" horiz-adv-x="1380" 
d="M82 0c-16 0 -22.667 3.66699 -20 11c0 2.66699 1.33301 5.66699 4 9l516 697l-516 696c-2.66699 3.33301 -4 6.33301 -4 9c0 7.33301 6.66699 11.333 20 12h158c16.667 0 30.334 -7 41.001 -21l409 -553l410 553c10.667 13.333 24.334 20.333 41.001 21h157
c14 0 21 -4 21 -12c0 -2.66699 -1.33301 -5.66699 -4 -9l-518 -696l518 -697c2.66699 -3.33301 4 -6.33301 4 -9c0 -7.33301 -7 -11 -21 -11h-157c-16.667 0 -30.334 6.66699 -41.001 20l-410 551l-409 -551c-10.667 -13.333 -24.334 -20 -41.001 -20h-158z" />
    <glyph glyph-name="Y" unicode="Y" horiz-adv-x="1393" 
d="M1331 1434c14 0 21 -5 21 -15c0 -2.66699 -1.33301 -4.66699 -4 -6l-560 -932v-461c0 -13.333 -6.66699 -20 -20 -20h-143c-14 0 -21 6.66699 -21 20v461l-559 932c-1.33301 1.33301 -2 3.33301 -2 6v6c4 6 10 9 18 9h150c18 0 31.667 -7 41 -21l444 -739l445 739
c9.33301 14 23 21 41 21h149z" />
    <glyph glyph-name="Z" unicode="Z" horiz-adv-x="1321" 
d="M102 20v71.999c0 27.333 17.333 65 52 113l839 1085h-870c-14 0 -21 7 -21 21v102c0 14 7 21 21 21h1075c14 0 21 -7 21 -21v-72c0 -27.333 -17.333 -64.666 -52 -111.999l-841 -1086h872c14 0 21 -6.66699 21 -20v-103c0 -13.333 -7 -20 -21 -20h-1075
c-14 0 -21 6.66699 -21 20z" />
    <glyph glyph-name="bracketleft" unicode="[" horiz-adv-x="684" 
d="M205 -317v1802c0 13.333 6.66699 20 20 20h439c13.333 0 20 -6.66699 20 -20v-103c0 -13.333 -6.66699 -20 -20 -20h-275v-1557h275c13.333 0 20 -6.66699 20 -20v-102c0 -13.333 -6.66699 -20.333 -20 -21h-439c-13.333 0.666992 -20 7.66699 -20 21z" />
    <glyph glyph-name="backslash" unicode="\" horiz-adv-x="879" 
d="M45 1413c-6.66699 14 -3.33301 21 10 21h144c13.333 0 23.333 -7 30 -21l605 -1393c6.66699 -13.333 3 -20 -11 -20h-143c-14 0 -24.333 6.66699 -31 20z" />
    <glyph glyph-name="bracketright" unicode="]" horiz-adv-x="725" 
d="M0 -215c0 13.333 6.66699 20 20 20h316v1557h-316c-13.333 0 -20 6.66699 -20 20v103c0 13.333 6.66699 20 20 20h480c13.333 0 20 -6.66699 20 -20v-1802c0 -14 -6.66699 -21 -20 -21h-480c-13.333 0 -20 7 -20 21v102z" />
    <glyph glyph-name="asciicircum" unicode="^" horiz-adv-x="1135" 
d="M86 758l379.002 655c6.66699 14 17 21 31 21h143c13.333 0 23.666 -7 30.999 -21l379 -655c9.33301 -14 5.66602 -21 -11.001 -21h-143c-10.667 0 -21 7 -31 21l-297 514l-297 -514c-9.33301 -14 -19.333 -21 -30 -21h-144c-16 0 -19.333 7 -10 21z" />
    <glyph glyph-name="underscore" unicode="_" horiz-adv-x="819" 
d="M0 -123c0 13.333 6.66699 20.333 20 21h779c13.333 0 20 -7 20 -21v-102c0 -13.333 -6.66699 -20.333 -20 -21h-779c-13.333 0 -20 7 -20 21v102z" />
    <glyph glyph-name="grave" unicode="`" horiz-adv-x="367" 
d="M4 1413c-9.33301 14 -6.00098 21 9.99902 21h185c13.333 0 23.333 -7 30 -21l133 -266c7.33301 -14 4 -21 -10 -21h-102c-9.33301 0 -19.666 7 -30.999 21z" />
    <glyph glyph-name="a" unicode="a" horiz-adv-x="1290" 
d="M123 317.5c0 107.667 39.499 192.666 118.499 254.999s189.5 93.5 331.5 93.5h349v10c0 204.667 -102.667 307 -308 307c-64 0 -118.5 -15.333 -163.5 -46s-75.833 -70 -92.5 -118c-4 -13.333 -12 -20 -24 -20h-129c-15.333 0 -22.333 6.66699 -21 20
c10.667 92.667 54.667 167 132 223s176.666 84 297.999 84c158.667 0 280.334 -39.167 365.001 -117.5s127 -189.166 127 -332.499v-656c0 -13.333 -7 -20 -21 -20h-112c-13.333 0 -21 6.66699 -23 20l-18 113c-8 -12.667 -25.667 -30.167 -53 -52.5
s-54.666 -40.5 -81.999 -54.5c-72 -38 -153.333 -57 -244 -57c-132.667 0 -237.5 31.167 -314.5 93.5s-115.5 147.333 -115.5 255zM306.999 316.999c0 -66.667 22.166 -117.33 66.499 -151.997s107.5 -52 189.5 -52c44 0 86.5 7.5 127.5 22.5s74.667 32.667 101 53
s49.833 41.166 70.5 62.499s35.834 39.166 45.501 53.499s14.5 22.166 14.5 23.499v194h-349c-177.333 0 -266 -68.333 -266 -205z" />
    <glyph glyph-name="b" unicode="b" horiz-adv-x="1341" 
d="M205 92l0.000976562 1321c0 13.333 6.66699 20.333 20 21h144c13.333 0 20 -7 20 -21v-348c88.667 40.667 191 61 307 61c154 0 279.667 -49.833 377 -149.5s146 -242.334 146 -428.001s-48.833 -328.667 -146.5 -429s-226.5 -150.5 -386.5 -150.5
c-87.333 0 -171.333 10.333 -252 31s-139.334 41 -176.001 61zM389.001 174.001c0 -1.33301 11.668 -6.83301 35.001 -16.5s58.166 -19.5 104.499 -29.5s92.166 -15 137.499 -15c113.333 0 203 36.5 269 109.5s99 181.833 99 326.5s-32.667 253.167 -98 325.5
s-150.666 108.5 -255.999 108.5s-202.333 -20.333 -291 -61v-748z" />
    <glyph glyph-name="c" unicode="c" horiz-adv-x="1282" 
d="M269 119.5c-97.333 100.333 -145.996 243.667 -145.996 430s48.833 329 146.5 428s220.167 148.5 367.5 148.5s262.666 -30.333 345.999 -91s138 -145 164 -253c4 -16.667 -3 -24.667 -21 -24h-129c-9.33301 0 -17.333 6.66699 -24 20
c-62.667 136.667 -168.667 205 -318 205c-104 0 -188 -36.167 -252 -108.5s-96 -180.5 -96 -324.5s32.167 -252.833 96.5 -326.5s143.166 -110.5 236.499 -110.5s165.666 17 216.999 51s93.333 85 126 153c6.66699 13.333 15 20.333 25 21h129
c14.667 0 21.667 -5.33301 21 -16c0 -2.66699 -0.333008 -5.66699 -1 -9c-26 -109.333 -81.333 -194 -166 -254s-201.834 -90 -351.501 -90s-273.167 50.167 -370.5 150.5z" />
    <glyph glyph-name="d" unicode="d" horiz-adv-x="1341" 
d="M264.5 117.5c-94.333 99 -141.5 242 -141.5 429s48.5 330.333 145.5 430s222.5 149.5 376.5 149.5c52 0 103.667 -5 155 -15s89 -20 113 -30l39 -16v348c0 13.333 7 20.333 21 21h143c13.333 0 20.333 -7 21 -21v-1393c0 -13.333 -7 -20 -21 -20h-112
c-13.333 0 -21 6.66699 -23 20l-18 113c-8 -11.333 -25.167 -28.5 -51.5 -51.5s-51.5 -41.5 -75.5 -55.5c-62 -38 -132.333 -57 -211 -57c-146 0 -266.167 49.5 -360.5 148.5zM405.5 874.5c-65.667 -72.333 -98.5 -180.501 -98.5 -324.501s30 -252.833 90 -326.5
s139.333 -110.5 238 -110.5c93.333 0 180.333 46 261 138c37.333 42.667 56 68.334 56 77.001v594c-88.667 40.667 -185.5 61 -290.5 61s-190.333 -36.167 -256 -108.5z" />
    <glyph glyph-name="e" unicode="e" 
d="M269.5 118.5c-97.667 101 -146.5 244.668 -146.5 431.001s48.833 329 146.5 428s225.334 148.5 383.001 148.5s286.334 -50.5 386.001 -151.5s149.5 -234.833 149.5 -401.5v-51c0 -27.333 -13.667 -41 -41 -41h-838c11.333 -124 48 -216.667 110 -278
s140.667 -92 236 -92c150.667 0 260 61.333 328 184c8 13.333 16.333 20 25 20h129c17.333 0 24 -8 20 -24c-27.333 -98.667 -83.333 -177.334 -168 -236.001s-201.334 -88 -350.001 -88s-271.834 50.5 -369.501 151.5zM309 625.001h695
c-6 107.333 -42.667 193.833 -110 259.5s-147.5 98.5 -240.5 98.5s-170.833 -30.333 -233.5 -91s-99.667 -149.667 -111 -267z" />
    <glyph glyph-name="f" unicode="f" horiz-adv-x="942" 
d="M184 20v994c0 136.667 41 245.834 123 327.501s198 122.5 348 122.5c109.333 0 198.333 -16.333 267 -49c13.333 -6.66699 20 -15.334 20 -26.001v-101c0 -16.667 -6.66699 -22 -20 -16c-68 32.667 -150 49 -246 49c-204.667 0 -307 -102.333 -307 -307v-72h417
c13.333 0 20.333 -6.66699 21 -20v-103c0 -13.333 -7 -20 -21 -20h-417v-779c0 -13.333 -7 -20 -21 -20h-143c-14 0 -21 6.66699 -21 20z" />
    <glyph glyph-name="g" unicode="g" horiz-adv-x="1321" 
d="M270.5 213c-98.333 94 -147.501 222.333 -147.501 385s49.5 291.334 148.5 386.001s226.833 142 383.5 142c87.333 0 171.333 -10.167 252 -30.5s138.667 -40.833 174 -61.5l56 -30v-881c0 -328 -170.667 -492 -512 -492c-131.333 0 -236.666 27.667 -315.999 83
s-124.333 130.333 -135 225c-1.33301 13.333 5.66699 20 21 20h129c12 0 20 -6.66699 24 -20c16.667 -49.333 48.5 -89 95.5 -119s107.5 -45 181.5 -45c113.333 0 196.166 27.667 248.499 83s78.5 143.666 78.5 264.999v10c-88.667 -40.667 -191 -61 -307 -61
c-151.333 0 -276.166 47 -374.499 141zM408.499 881.5c-67.667 -67.667 -101.499 -162.498 -101.499 -284.498s33.5 -216.167 100.5 -282.5s152.333 -99.5 256 -99.5s199.834 20.333 288.501 61v646c0 1.33301 -11.5 6.66602 -34.5 15.999s-57.833 19.166 -104.5 29.499
s-92.334 15.5 -137.001 15.5c-110.667 0 -199.834 -33.833 -267.501 -101.5z" />
    <glyph glyph-name="h" unicode="h" horiz-adv-x="1393" 
d="M205 20l0.00195312 1393c0 14 6.66699 21 20 21h144c13.333 0 20 -7 20 -21v-440c5.33301 8 21.666 23.333 48.999 46s53.666 41 78.999 55c64.667 34.667 138 52 220 52c138 0 251 -42.667 339 -128s132 -203 132 -353v-625c0 -13.333 -6.66699 -20 -20 -20h-144
c-13.333 0 -20 6.66699 -20 20v625c0 108 -28 191.333 -84 250s-127 88 -213 88c-60 0 -118.333 -16.667 -175 -50s-98 -64.666 -124 -93.999s-39 -46.333 -39 -51v-768c0 -13.333 -6.66699 -20 -20 -20h-144c-13.333 0 -20 6.66699 -20 20z" />
    <glyph glyph-name="i" unicode="i" horiz-adv-x="584" 
d="M184 1393c0 27.333 13.667 41 41 41h133c15.333 0 26 -3.16699 32 -9.5s9 -16.833 9 -31.5v-133c0 -15.333 -3 -26 -9 -32s-16.667 -9 -32 -9h-133c-14.667 0 -25.167 3 -31.5 9s-9.5 16.667 -9.5 32v133zM199 20v1055c0 14 6.66699 21 20 21h143c14 0 21 -7 21 -21
v-1055c0 -13.333 -7 -20 -21 -20h-143c-13.333 0 -20 6.66699 -20 20z" />
    <glyph glyph-name="j" unicode="j" horiz-adv-x="651" 
d="M-184 -201c0 16.667 6.66602 22.333 19.999 17c68 -27.333 136.333 -41 205 -41c150 0 225 102.333 225 307v993c0 13.333 7 20.333 21 21h143c13.333 0 20.333 -7 21 -21v-993c0 -142 -35.167 -252.667 -105.5 -332s-165.166 -119 -284.499 -119
c-70.667 0 -136 10.333 -196 31l-29 10c-13.333 6.66699 -20 15.667 -20 27v100zM251.999 1260v133c0 15.333 3 26 9 32s16.667 9 32 9h133c15.333 0 26 -3.16699 32 -9.5s9 -16.833 9 -31.5v-133c0 -15.333 -3 -26 -9 -32s-16.667 -9 -32 -9h-133c-15.333 0 -26 3 -32 9
s-9 16.667 -9 32z" />
    <glyph glyph-name="k" unicode="k" horiz-adv-x="1243" 
d="M205 20l-0.000976562 1393c0 13.333 6.66699 20.333 20 21h144c13.333 0 20 -7 20 -21v-788h103c112 0 200.667 51 266 153l186 297c9.33301 13.333 19.666 20.333 30.999 21h158c20.667 0 25.334 -8.33301 14.001 -25l-195 -313
c-70.667 -113.333 -156 -178.333 -256 -195c104 -15.333 196.333 -87 277 -215l203 -323c4 -6 5.83301 -11.667 5.5 -17s-7.16602 -8 -20.499 -8h-157c-10.667 0 -21 6.66699 -31 20l-195 308c-65.333 102.667 -154 153.667 -266 153h-123v-461
c0 -13.333 -6.66699 -20 -20 -20h-144c-13.333 0 -20 6.66699 -20 20z" />
    <glyph glyph-name="l" unicode="l" horiz-adv-x="594" 
d="M205 20v1393c0 14 6.66699 21 20 21h144c13.333 0 20 -7 20 -21v-1393c0 -13.333 -6.66699 -20 -20 -20h-144c-13.333 0 -20 6.66699 -20 20z" />
    <glyph glyph-name="m" unicode="m" horiz-adv-x="2028" 
d="M205 20l0.00195312 1055c0 14 6.66699 21 20 21h113c13.333 0 20.666 -7 21.999 -21l19 -112l16.5 17c7 7.33301 21.667 20.666 44 39.999s45.833 36 70.5 50c64 37.333 134.667 56 212 56s146 -18.667 206 -56s105.667 -90.333 137 -159c19.333 28.667 43 57 71 85
s70.667 56.667 128 86s117.333 44 180 44c121.333 0 218.166 -40.833 290.499 -122.5s108.5 -197.834 108.5 -348.501v-635c0 -13.333 -6.66699 -20 -20 -20h-144c-13.333 0 -20 6.66699 -20 20v635c0 108 -21.167 189.667 -63.5 245s-93.5 83 -153.5 83
s-116.333 -18.5 -169 -55.5s-92 -71.833 -118 -104.5s-39 -51 -39 -55v-748c0 -13.333 -6.66699 -20 -20 -20h-144c-13.333 0 -20 6.66699 -20 20v635c0 108 -21.167 189.667 -63.5 245s-93.5 83 -153.5 83s-116.333 -18.5 -169 -55.5s-92 -71.833 -118 -104.5
s-39 -51 -39 -55v-748c0 -13.333 -6.66699 -20 -20 -20h-144c-13.333 0 -20 6.66699 -20 20z" />
    <glyph glyph-name="n" unicode="n" horiz-adv-x="1393" 
d="M205 20l-0.00195312 1055c0 14 6.66699 21 20 21h113c13.333 0 20.666 -7 21.999 -21l19 -112c8 11.333 25.333 28.5 52 51.5s52.667 41.5 78 55.5c65.333 37.333 141.333 56 228 56c138 0 251 -42.667 339 -128s132 -203 132 -353v-625c0 -13.333 -6.66699 -20 -20 -20
h-144c-13.333 0 -20 6.66699 -20 20v625c0 108 -28 191.333 -84 250s-127 88 -213 88c-39.333 0 -78.166 -7.5 -116.499 -22.5s-70.166 -32.667 -95.499 -53s-47.666 -41.166 -66.999 -62.499c-39.333 -42 -59 -67.667 -59 -77v-748c0 -13.333 -6.66699 -20 -20 -20h-144
c-13.333 0 -20 6.66699 -20 20z" />
    <glyph glyph-name="o" unicode="o" 
d="M269.5 119.5c-97.667 100.333 -146.5 243.666 -146.5 429.999s48.833 329 146.5 428s226.334 148.5 386.001 148.5s288.334 -49.5 386.001 -148.5s146.5 -241.667 146.5 -428s-48.833 -329.666 -146.5 -429.999s-226.334 -150.5 -386.001 -150.5
s-288.334 50.167 -386.001 150.5zM403.5 874.5c-64.333 -72.333 -96.5 -180.5 -96.5 -324.5s32.167 -252.833 96.5 -326.5s148.333 -110.5 252 -110.5s187.667 36.833 252 110.5s96.5 182.5 96.5 326.5s-32.167 252.167 -96.5 324.5s-148.333 108.5 -252 108.5
s-187.667 -36.167 -252 -108.5z" />
    <glyph glyph-name="p" unicode="p" horiz-adv-x="1341" 
d="M205 -317l0.00195312 1392c0 13.333 6.66699 20.333 20 21h113c13.333 0 20.666 -7 21.999 -21l19 -112c7.33301 11.333 24.166 28.5 50.499 51.5s51.5 41.5 75.5 55.5c62 37.333 132.667 56 212 56c146 0 266.167 -49.5 360.5 -148.5s141.5 -241.833 141.5 -428.5
s-48.5 -330 -145.5 -430s-222.833 -150 -377.5 -150c-52 0 -103.5 5.16699 -154.5 15.5s-89.5 20.833 -115.5 31.5l-37 15v-348c0 -13.333 -6.66699 -20.333 -20 -21h-144c-13.333 0.666992 -20 7.66699 -20 21zM389.002 174c88.667 -40.667 185.668 -61 291.001 -61
s190.666 36.167 255.999 108.5s98 180.5 98 324.5s-30 252.833 -90 326.5s-139 110.5 -237 110.5c-95.333 0 -182.333 -46 -261 -138c-38 -44 -57 -69.667 -57 -77v-594z" />
    <glyph glyph-name="q" unicode="q" horiz-adv-x="1341" 
d="M268.5 119c-97 100 -145.5 242.834 -145.5 428.501s48.833 328.5 146.5 428.5s226.167 150 385.5 150c87.333 0 171.333 -10.167 252 -30.5s138.667 -40.833 174 -61.5l56 -30v-1321c0 -13.333 -7 -20.333 -21 -21h-143c-13.333 0 -20.333 7 -21 21v348
c-88.667 -40.667 -191 -61.334 -307 -62.001c-154 0 -279.5 50 -376.5 150zM406.5 873.501c-66.333 -73 -99.5 -181.831 -99.5 -326.498s32.833 -253.167 98.5 -325.5s151.167 -108.5 256.5 -108.5s202 20.333 290 61v748c0 1.33301 -11.5 6.66602 -34.5 15.999
s-57.833 19.166 -104.5 29.499s-92.334 15.5 -137.001 15.5c-113.333 0 -203.166 -36.5 -269.499 -109.5z" />
    <glyph glyph-name="r" unicode="r" horiz-adv-x="963" 
d="M205 20l0.00292969 1055c0 14 6.66699 21 20 21h113c13.333 0 20.666 -7 21.999 -21l19 -174l16 23c7.33301 9.33301 24.166 26.666 50.499 51.999s55.666 47.166 87.999 65.499s75 35.333 128 51s108.833 23.5 167.5 23.5h82c14 0 21 -6.66699 21 -20v-123
c0 -14 -7 -21 -21 -21h-61c-66.667 0 -128 -8.5 -184 -25.5s-100.667 -37.5 -134 -61.5c-67.333 -49.333 -111 -93.333 -131 -132l-12 -26v-687c0 -13.333 -6.66699 -20 -20 -20h-144c-13.333 0 -20 6.66699 -20 20z" />
    <glyph glyph-name="s" unicode="s" horiz-adv-x="1210" 
d="M104 293c-0.666992 3.33301 -0.99707 5.99805 -0.99707 7.99805c0 10.667 7.33301 16 22 16h129c8 0 16.333 -6.66699 25 -20c68 -122.667 187.333 -184 358 -184c96.667 0 168.667 14.333 216 43s71 64.667 71 108s-16.167 78.833 -48.5 106.5
s-87.833 50.834 -166.5 69.501l-256 62c-218.667 53.333 -328 159 -328 317c0 90 40.667 163.667 122 221s193 86 335 86s256.667 -29.333 344 -88s144.666 -137 171.999 -235c4 -16.667 -3 -25 -21 -25h-129c-8 0 -16 7 -24 21c-68 122.667 -180.667 184 -338 184
c-91.333 0 -160.333 -14.667 -207 -44s-70 -65.5 -70 -108.5s16.167 -78.167 48.5 -105.5s87.833 -50.666 166.5 -69.999l256 -61c218.667 -52 328 -158 328 -318c0 -90 -41.333 -163.667 -124 -221s-198.334 -86 -347.001 -86s-267.834 29 -357.501 87
s-148.167 137 -175.5 237z" />
    <glyph glyph-name="t" unicode="t" horiz-adv-x="963" 
d="M205 420v993.001c0 14 6.66699 21 20 21h144c13.333 0 20 -7 20 -21v-317h418c13.333 0 20 -7 20 -21v-102c0 -14 -6.66699 -21 -20 -21h-418v-532c0 -101.333 23.5 -177.833 70.5 -229.5s112.167 -77.5 195.5 -77.5c73.333 0 139 10 197 30l29 11
c13.333 5.33301 20 -0.333984 20 -17.001v-100c0 -11.333 -6.66699 -20.333 -20 -27c-68.667 -27.333 -150.667 -41 -246 -41c-131.333 0 -235.833 41.333 -313.5 124s-116.5 191.667 -116.5 327z" />
    <glyph glyph-name="u" unicode="u" horiz-adv-x="1413" 
d="M205 451v624.001c0 13.333 6.66699 20.333 20 21h144c13.333 0 20 -7 20 -21v-624c0 -108 28 -191.333 84 -250s127 -88 213 -88c39.333 0 78.166 7.5 116.499 22.5s70.166 32.667 95.499 53s48 41.166 68 62.499c38.667 42 58 67.667 58 77v747
c0 13.333 6.66699 20.333 20 21h144c13.333 0 20 -7 20 -21v-1055c0 -13.333 -6.66699 -20 -20 -20h-113c-13.333 0 -20.666 6.66699 -21.999 20l-19 113c-8.66699 -13.333 -26.167 -31 -52.5 -53s-52.166 -40 -77.499 -54c-66.667 -38 -142.667 -57 -228 -57
c-138 0 -251 42.833 -339 128.5s-132 203.5 -132 353.5z" />
    <glyph glyph-name="v" unicode="v" horiz-adv-x="1253" 
d="M63 1075c-2 4 -2.66797 7.33301 -2.00098 10c0 7.33301 6.33301 11 19 11h137c13.333 0 23.666 -7 30.999 -21l379 -870l379 870c6.66699 13.333 16.667 20.333 30 21h138c12.667 0 19 -3.66699 19 -11c0 -2.66699 -1 -6 -3 -10l-440 -1014
c-19.333 -40.667 -46.666 -61 -81.999 -61h-82c-35.333 -0 -62.666 20.333 -81.999 61z" />
    <glyph glyph-name="w" unicode="w" horiz-adv-x="1790" 
d="M63 1075c-1.33301 2.66699 -2 5.33398 -2 8.00098c0 8.66699 6.33301 13 19 13h139c16.667 0 27 -7 31 -21l276 -829l256 788c14 41.333 41.333 62 82 62h62c40.667 0 68 -20.667 82 -62l256 -788l276 829c4 14 14.333 21 31 21h139c12.667 0 19 -4.33301 19 -13
c0 -2.66699 -1 -5.33398 -3 -8.00098l-340 -1014c-8 -21.333 -17.5 -36.833 -28.5 -46.5s-28.5 -14.5 -52.5 -14.5h-72c-42.667 -0 -70 20.333 -82 61l-256 789l-256 -789c-12 -40.667 -39.333 -61 -82 -61h-72c-24 -0 -41.5 4.83301 -52.5 14.5s-20.833 25.167 -29.5 46.5z
" />
    <glyph glyph-name="x" unicode="x" horiz-adv-x="1161" 
d="M82 0c-10.667 0 -16.668 2.83301 -18.001 8.5s-0.666016 9.5 2.00098 11.5l411 527l-411 528c-2 2 -3.33301 4.33301 -4 7c0 9.33301 6.66699 14 20 14h147c16.667 0 30.334 -7 41.001 -21l310 -397l311 397c10.667 13.333 24.334 20.333 41.001 21h147
c13.333 0 20 -4.66699 20 -14c0 -2.66699 -1 -5 -3 -7l-414 -528l414 -527c2 -2 3 -4.33301 3 -7c0 -8.66699 -6.66699 -13 -20 -13h-147c-16.667 0 -30.334 6.66699 -41.001 20l-311 396l-310 -396c-10.667 -13.333 -24.334 -20 -41.001 -20h-147z" />
    <glyph glyph-name="y" unicode="y" horiz-adv-x="1180" 
d="M43 1075c-1.33301 2.66699 -2.00098 5.33301 -2.00098 8c0 8.66699 6 13 18 13h138c16 0 26 -7 30 -21l228 -655c30 -84.667 64.333 -145.167 103 -181.5s91.667 -54.5 159 -54.5l235 891c4 14 14.333 21 31 21h137c12.667 0 19 -4.33301 19 -13
c0 -2.66699 -0.666992 -5.33398 -2 -8.00098l-273 -1034c-38 -143.333 -88.5 -247.5 -151.5 -312.5s-145.5 -97.5 -247.5 -97.5c-71.333 0 -137 10.333 -197 31l-28 10c-14 7.33301 -21 16.333 -21 27v100c0 16.667 7 22.334 21 17.001c68 -27.333 134.833 -41 200.5 -41
s115.834 19 150.501 57s64.334 107.667 89.001 209c-106.667 0 -189.334 28 -248.001 84s-112.667 155 -162 297z" />
    <glyph glyph-name="z" unicode="z" horiz-adv-x="1143" 
d="M102 20v93.001c0 14.667 4.33301 26 13 34l690 805h-682c-14 0 -21 7 -21 21v102c0 14 7 21 21 21h897c13.333 0 20 -7 20 -21v-92c0 -14.667 -4 -26.334 -12 -35.001l-694 -805h686c13.333 0 20 -6.66699 20 -20v-103c0 -13.333 -6.66699 -20 -20 -20h-897
c-14 0 -21 6.66699 -21 20z" />
    <glyph glyph-name="braceleft" unicode="{" horiz-adv-x="725" 
d="M41 532v103.003c0 13.333 6.66699 20 20 20c60.667 0 110 19.833 148 59.5s57 98.5 57 176.5v235c0 120.667 36.833 214 110.5 280s173.5 99 299.5 99h29c13.333 0 20 -6.66699 20 -20v-103c0 -13.333 -6.66699 -20 -20 -20h-29c-70 0 -125 -19.5 -165 -58.5
s-60 -98.167 -60 -177.5v-235c0 -76.667 -18.167 -143.334 -54.5 -200.001s-83.166 -92.334 -140.499 -107.001c57.333 -15.333 104.166 -51.333 140.499 -108s54.5 -123.334 54.5 -200.001v-235c0 -79.333 20 -138.5 60 -177.5s95 -58.5 165 -58.5h29
c13.333 0 20 -6.66699 20 -20v-102c0 -14 -6.66699 -21 -20 -21h-29c-126 0 -225.833 33.167 -299.5 99.5s-110.5 159.5 -110.5 279.5v235c0 78 -19 136.833 -57 176.5s-87.333 59.5 -148 59.5c-13.333 0 -20 6.66699 -20 20z" />
    <glyph glyph-name="bar" unicode="|" horiz-adv-x="594" 
d="M205 -317v1730c0 14 6.66699 21 20 21h144c13.333 0 20 -7 20 -21v-1730c0 -14 -6.66699 -21 -20 -21h-144c-13.333 0 -20 7 -20 21z" />
    <glyph glyph-name="braceright" unicode="}" horiz-adv-x="725" 
d="M0 -215c0 13.333 6.66699 19.9971 20 19.9971h29c70 0 125 19.5 165 58.5s60 98.167 60 177.5v235c0 76.667 18.167 143.334 54.5 200.001s83.166 92.667 140.499 108c-57.333 14.667 -104.166 50.334 -140.499 107.001s-54.5 123.334 -54.5 200.001v235
c0 79.333 -20 138.5 -60 177.5s-95 58.5 -165 58.5h-29c-13.333 0 -20 6.66699 -20 20v103c0 13.333 6.66699 20 20 20h29c126 0 225.833 -33 299.5 -99s110.5 -159.333 110.5 -280v-235c0 -78 19 -136.833 57 -176.5s87.333 -59.5 148 -59.5c13.333 0 20 -6.66699 20 -20
v-103c0 -13.333 -6.66699 -20 -20 -20c-60.667 0 -110 -19.833 -148 -59.5s-57 -98.5 -57 -176.5v-235c0 -120 -36.833 -213.167 -110.5 -279.5s-173.5 -99.5 -299.5 -99.5h-29c-13.333 0 -20 7 -20 21v102z" />
    <glyph glyph-name="asciitilde" unicode="~" horiz-adv-x="1126" 
d="M82 547c5.33301 92.667 34.667 164.667 88 216s119.666 77 198.999 77c49.333 0 97.833 -13.667 145.5 -41s92 -54.666 133 -81.999s77.167 -41 108.5 -41s58.833 13 82.5 39s39.834 57.333 48.501 94c4 13.333 12 20 24 20h113c13.333 0 20 -8 20 -24
c-5.33301 -92.667 -34.5 -164.667 -87.5 -216s-119.167 -77 -198.5 -77c-49.333 0 -97.833 13.667 -145.5 41s-92 54.666 -133 81.999s-77.167 41 -108.5 41s-59 -13 -83 -39s-40 -57.333 -48 -94c-4 -13.333 -12.333 -20.333 -25 -21h-113c-13.333 0 -20 8.33301 -20 25z
" />
    <glyph glyph-name="uni00A0" unicode="&#xa0;" horiz-adv-x="0" 
 />
    <glyph glyph-name="exclamdown" unicode="&#xa1;" horiz-adv-x="512" 
d="M143 -317l41 1034c0 13.333 7 20 21 20h102c13.333 0 20.333 -6.66699 21 -20l41 -1034c0 -13.333 -7 -20.333 -21 -21h-184c-14 0.666992 -21 7.66699 -21 21zM150 932v133c0 15.333 3 26 9 32s16.333 9 31 9h134c15.333 0 26 -3.16699 32 -9.5s9 -16.833 9 -31.5v-133
c0 -15.333 -3.16699 -26 -9.5 -32s-16.833 -9 -31.5 -9h-134c-15.333 0 -25.833 3 -31.5 9s-8.5 16.667 -8.5 32z" />
    <glyph glyph-name="cent" unicode="&#xa2;" horiz-adv-x="1282" 
d="M241.5 150.5c-79 99 -118.497 232.168 -118.497 399.501s39.5 299.5 118.5 396.5s186.167 154.833 321.5 173.5v160c0 13.333 7 20 21 20h143c13.333 0 20.333 -6.66699 21 -20v-160c108 -13.333 195.667 -49 263 -107s112.666 -135 135.999 -231
c4 -16.667 -3 -24.667 -21 -24h-129c-9.33301 0 -17.333 6.66699 -24 20c-62.667 136.667 -168.667 205 -318 205c-104 0 -188 -36.167 -252 -108.5s-96 -180.5 -96 -324.5s32.167 -252.833 96.5 -326.5s143.166 -110.5 236.499 -110.5s165.666 17 216.999 51
s93.333 85 126 153c6.66699 13.333 15 20.333 25 21h129c18 0 24.667 -8.33301 20 -25c-48 -200.667 -184.333 -313.334 -409 -338.001v-159c0 -13.333 -7 -20.333 -21 -21h-143c-13.333 0 -20.333 7 -21 21v159c-135.333 18 -242.5 76.5 -321.5 175.5z" />
    <glyph glyph-name="sterling" unicode="&#xa3;" horiz-adv-x="1217" 
d="M82 20l-0.000976562 103c0 13.333 6.66699 20 20 20c123.333 0 185 89 185 267v266h-144c-13.333 0 -20 6.66699 -20 20v103c0 13.333 6.66699 20 20 20h144v195c0 136.667 40.833 245.834 122.5 327.501s197.834 122.5 348.501 122.5c109.333 0 198 -16.333 266 -49
c13.333 -6.66699 20 -15.334 20 -26.001v-101c0 -16 -6.66699 -21.333 -20 -16c-68 32.667 -150 49 -246 49c-204.667 0 -307 -102.333 -307 -307v-195h369c13.333 0 20 -6.66699 20 -20v-103c0 -13.333 -6.66699 -20 -20 -20h-369v-266c0 -116 -30.667 -205 -92 -267h776
c14 0 21 -6.66699 21 -20v-103c0 -13.333 -7 -20 -21 -20h-1053c-13.333 0 -20 6.66699 -20 20z" />
    <glyph glyph-name="currency" unicode="&#xa4;" horiz-adv-x="1444" 
d="M61 369v82c0 13.333 7 20 21 20h133v123h-133c-14 0 -21 6.66699 -21 20v82c0 14 7 21 21 21h133v696c0 14 7 21 21 21h593c168 0 298.833 -37.667 392.5 -113s140.5 -177.833 140.5 -307.5s-46.833 -232 -140.5 -307s-224.5 -112.5 -392.5 -112.5h-430v-123h523
c13.333 0 20 -6.66699 20 -20v-82c0 -14 -6.66699 -21 -20 -21h-523v-328c0 -13.333 -6.66699 -20 -20 -20h-143c-14 0 -21 6.66699 -21 20v328h-133c-14 0 -21 7 -21 21zM399 717l430 -0.00195312c102.667 0 186.5 27.333 251.5 82s97.5 122.834 97.5 204.501
s-32.5 149.834 -97.5 204.501s-148.833 82 -251.5 82h-430v-573z" />
    <glyph glyph-name="yen" unicode="&#xa5;" 
d="M61 1434h144c17.333 0 31 -7 41 -21l409 -676l410 676c9.33301 14 23 21 41 21h143c8.66699 0 14.667 -2.5 18 -7.5s3 -9.5 -1 -13.5l-457 -747h246c13.333 0 20 -7 20 -21v-82c0 -13.333 -6.66699 -20 -20 -20h-307v-123h307c13.333 0 20 -7 20 -21v-82
c0 -13.333 -6.66699 -20 -20 -20h-307v-277c0 -13.333 -7 -20 -21 -20h-143c-14 0 -21 6.66699 -21 20v277h-307c-13.333 0 -20 6.66699 -20 20v82c0 14 6.66699 21 20 21h307v123h-307c-13.333 0 -20 6.66699 -20 20v82c0 14 6.66699 21 20 21h244l-455 747
c-4 4 -4.33301 8.5 -1 13.5s9 7.5 17 7.5z" />
    <glyph glyph-name="brokenbar" unicode="&#xa6;" horiz-adv-x="594" 
d="M205 -317v716c0 14 6.66699 21 20 21h144c13.333 0 20 -7 20 -21v-716c0 -14 -6.66699 -21 -20 -21h-144c-13.333 0 -20 7 -20 21zM205 696v717c0 14 6.66699 21 20 21h144c13.333 0 20 -7 20 -21v-717c0 -13.333 -6.66699 -20 -20 -20h-144
c-13.333 0 -20 6.66699 -20 20z" />
    <glyph glyph-name="section" unicode="&#xa7;" horiz-adv-x="1274" 
d="M145 -45c-4 16.667 3.00195 25 21.002 25h129c8 0 16 -7 24 -21c33.333 -60 76.833 -105.667 130.5 -137s126.5 -47 218.5 -47c184 0 276 64.667 276 194c0 45.333 -18.333 84 -55 116s-96.667 61.667 -180 89l-226 72c-116 36.667 -201.333 83.667 -256 141
s-82 133.5 -82 228.5s46 175.833 138 242.5l16 12l-16.5 10.5c-7 4.33301 -19.333 14 -37 29s-33.5 31.167 -47.5 48.5c-35.333 46.667 -53 99.334 -53 158.001c0 109.333 40 194.666 120 255.999s193.667 92 341 92s264.333 -29 351 -87s143.667 -136.667 171 -236
c4.66699 -16.667 -2 -25 -20 -25h-129c-8 0 -16.333 7 -25 21c-32.667 60 -76 105.667 -130 137s-126.667 47 -218 47c-184 0 -276 -65 -276 -195c0 -44.667 18.333 -83 55 -115s96.667 -61.667 180 -89l226 -72c116 -36.667 201.167 -83.667 255.5 -141
s81.5 -133.5 81.5 -228.5s-45.667 -175.833 -137 -242.5l-16 -13c4 -2.66699 9.33301 -6 16 -10s19 -13.5 37 -28.5s34 -31.167 48 -48.5c34.667 -45.333 52 -98 52 -158c0 -109.333 -39.833 -194.833 -119.5 -256.5s-193.334 -92.5 -341.001 -92.5s-264.834 29 -351.501 87
s-143.667 137 -171 237zM330.002 614c0 -57.333 19.833 -103 59.5 -137s98.167 -63.333 175.5 -88l287 -92c23.333 18.667 44.5 45.834 63.5 81.501s28.5 69.834 28.5 102.501c0 57.333 -19.833 103.166 -59.5 137.499s-98.167 63.833 -175.5 88.5l-287 92
c-23.333 -18.667 -44.5 -45.834 -63.5 -81.501s-28.5 -70.167 -28.5 -103.5z" />
    <glyph glyph-name="dieresis" unicode="&#xa8;" horiz-adv-x="635" 
d="M0 1270v133c0 14.667 3 25.167 9 31.5s16.667 9.5 32 9.5h133c15.333 0 26 -3.16699 32 -9.5s9 -16.833 9 -31.5v-133c0 -15.333 -3 -26 -9 -32s-16.667 -9 -32 -9h-133c-15.333 0 -26 3 -32 9s-9 16.667 -9 32zM594 1444c27.333 0 41 -13.667 41 -41v-133
c0 -15.333 -3.16699 -26 -9.5 -32s-16.833 -9 -31.5 -9h-133c-15.333 0 -26 3 -32 9s-9 16.667 -9 32v133c0 14.667 3 25.167 9 31.5s16.667 9.5 32 9.5h133z" />
    <glyph glyph-name="copyright" unicode="&#xa9;" horiz-adv-x="1720" 
d="M102 716.5c0 218.333 72.167 397.5 216.5 537.5s325 210 542 210s397.5 -70 541.5 -210s216 -319.167 216 -537.5s-72 -397.5 -216 -537.5s-324.5 -210 -541.5 -210s-397.667 70 -542 210s-216.5 319.167 -216.5 537.5zM256 716.5c0 -184.333 55.667 -332.833 167 -445.5
s257 -169 437 -169s325.667 56.333 437 169s167 261.167 167 445.5s-55.667 332.833 -167 445.5s-257 169 -437 169s-325.667 -56.333 -437 -169s-167 -261.167 -167 -445.5zM440 727c0 146 38.665 261 115.998 345s178.666 126 303.999 126c196.667 0 323 -87.333 379 -262
c4 -16.667 -2.66699 -25 -20 -25h-109c-9.33301 0 -17.666 7 -24.999 21c-50.667 88.667 -125.667 133 -225 133c-75.333 0 -136.833 -29.333 -184.5 -88s-71.5 -142 -71.5 -250s24 -191.333 72 -250s109.333 -88 184 -88c106.667 0 185.334 44.333 236.001 133
c6.66699 13.333 14.667 20.333 24 21h109c18 0 24.667 -8.33301 20 -25c-56 -174.667 -185.667 -262 -389 -262c-125.333 0 -226.666 42 -303.999 126s-116 199 -116 345z" />
    <glyph glyph-name="ordfeminine" unicode="&#xaa;" horiz-adv-x="973" 
d="M430 1157l236.003 -0.000976562v10c0 62 -13 106.5 -39 133.5s-67.667 40.5 -125 40.5c-80.667 0 -137.334 -30.667 -170.001 -92c-8.66699 -13.333 -17 -20 -25 -20h-102c-18 0 -25 6.66699 -21 20c15.333 67.333 50.666 120 105.999 158s131.166 57 227.499 57
s172.333 -26.167 228 -78.5s83.5 -125.166 83.5 -218.499v-419c0 -14 -6.66699 -21 -20 -21h-92c-14 0 -21.667 7 -23 21l-18 71c-6.66699 -8 -16.5 -18.167 -29.5 -30.5s-41 -29 -84 -50s-87.167 -31.5 -132.5 -31.5c-94 0 -165.333 20 -214 60s-73 94.833 -73 164.5
s24.333 124.667 73 165s120 60.5 214 60.5zM430.003 828.999c54.667 0 101.5 11.668 140.5 35.001s64.667 44.166 77 62.499s18.5 30.5 18.5 36.5v71h-236c-82 0 -123 -34.167 -123 -102.5s41 -102.5 123 -102.5z" />
    <glyph glyph-name="guillemotleft" unicode="&#xab;" horiz-adv-x="1038" 
d="M61 504v57c0 22 13.667 43.333 41 64l338 338c13.333 13.333 27 20 41 20h185c12 0 19.333 -2.66699 22 -8s0.666992 -11 -6 -17l-426 -426l426 -426c6.66699 -5.33301 8.66699 -10.666 6 -15.999s-10 -8 -22 -8h-185c-13.333 0 -27 6.66699 -41 20l-338 338
c-27.333 23.333 -41 44.666 -41 63.999zM471 504v57.001c0 22 13.667 43.333 41 64l236 235c13.333 13.333 26.666 20.333 39.999 21h185c12 0 19.333 -2.83301 22 -8.5s0.666992 -11.167 -6 -16.5l-323 -324l323 -323c6.66699 -5.33301 8.66699 -10.833 6 -16.5
s-10 -8.5 -22 -8.5h-185c-13.333 0 -26.666 7 -39.999 21l-236 235c-27.333 23.333 -41 44.666 -41 63.999z" />
    <glyph glyph-name="logicalnot" unicode="&#xac;" horiz-adv-x="1032" 
d="M82 604v103c0 13.333 6.66699 20 20 20h828c13.333 0 20 -6.66699 20 -20v-379c0 -13.333 -6.66699 -20.333 -20 -21h-103c-13.333 0 -20 7 -20 21v256h-705c-13.333 0 -20 6.66699 -20 20z" />
    <glyph glyph-name="uni00AD" unicode="&#xad;" horiz-adv-x="1032" 
d="M82 604v103c0 13.333 6.66699 20 20 20h828c13.333 0 20 -6.66699 20 -20v-103c0 -13.333 -6.66699 -20 -20 -20h-828c-13.333 0 -20 6.66699 -20 20z" />
    <glyph glyph-name="registered" unicode="&#xae;" horiz-adv-x="1720" 
d="M102 716.5c0 218.333 72.167 397.5 216.5 537.5s325 210 542 210s397.5 -70 541.5 -210s216 -319.167 216 -537.5s-72 -397.5 -216 -537.5s-324.5 -210 -541.5 -210s-397.667 70 -542 210s-216.5 319.167 -216.5 537.5zM256 716.5c0 -184.333 55.667 -332.833 167 -445.5
s257 -169 437 -169s325.667 56.333 437 169s167 261.167 167 445.5s-55.667 332.833 -167 445.5s-257 169 -437 169s-325.667 -56.333 -437 -169s-167 -261.167 -167 -445.5zM502 297v859.999c0 13.333 6.66699 20.333 20 21h348c114.667 0 203.167 -26.667 265.5 -80
s93.5 -117.5 93.5 -192.5s-26 -135.833 -78 -182.5s-114.667 -72.667 -188 -78c36.667 -9.33301 66.5 -24.666 89.5 -45.999s47.5 -50.333 73.5 -87l144 -211c10.667 -16.667 5 -25 -17 -25h-147c-10.667 0 -21 7 -31 21l-143 215c-36.667 54.667 -88 82 -154 82h-112v-297
c0 -13.333 -7 -20.333 -21 -21h-123c-13.333 0.666992 -20 7.66699 -20 21zM666 726.999h204.001c60 0 107.5 15.333 142.5 46s52.5 68.5 52.5 113.5s-17.833 82.5 -53.5 112.5s-82.834 45 -141.501 45h-204v-317z" />
    <glyph glyph-name="macron" unicode="&#xaf;" horiz-adv-x="573" 
d="M0 1321v92c0 14 6.66699 21 20 21h533c13.333 0 20 -7 20 -21v-92c0 -14 -6.66699 -21 -20 -21h-533c-13.333 0 -20 7 -20 21z" />
    <glyph glyph-name="degree" unicode="&#xb0;" horiz-adv-x="881" 
d="M180 864c-65.333 66 -98 150.167 -98 252.5s33.167 185.833 99.5 250.5s152.666 97 258.999 97s192.666 -32.333 258.999 -97s99.5 -148.167 99.5 -250.5s-33.167 -186 -99.5 -251s-152.666 -97.5 -258.999 -97.5s-193.166 32 -260.499 96zM440 1331
c-61.333 0 -110.666 -19.5 -147.999 -58.5s-56 -91.167 -56 -156.5s18.667 -117.5 56 -156.5s86.666 -58.5 147.999 -58.5s110.833 19.5 148.5 58.5s56.5 91.167 56.5 156.5s-18.833 117.5 -56.5 156.5s-87.167 58.5 -148.5 58.5z" />
    <glyph glyph-name="plusminus" unicode="&#xb1;" horiz-adv-x="1196" 
d="M82 113v102c0 13.333 6.66699 20.333 20 21h424v389h-424c-13.333 0 -20 6.66699 -20 20v103c0 13.333 6.66699 20 20 20h424v424c0 13.333 7 20 21 20h102c13.333 0 20.333 -6.66699 21 -20v-424h424c13.333 0 20 -6.66699 20 -20v-103c0 -13.333 -6.66699 -20 -20 -20
h-424v-389h424c13.333 0 20 -7 20 -21v-102c0 -13.333 -6.66699 -20.333 -20 -21h-992c-13.333 0.666992 -20 7.66699 -20 21z" />
    <glyph glyph-name="twosuperior" unicode="&#xb2;" horiz-adv-x="934" 
d="M145 1249c15.333 67.333 50.667 119.999 106 157.999s130.833 57 226.5 57s171.834 -22.833 228.501 -68.5s85 -104 85 -175s-24.667 -126.333 -74 -166s-103.333 -66.334 -162 -80.001s-112.667 -30.667 -162 -51s-74 -44.833 -74 -73.5h451c14 0 21 -7 21 -21v-81
c0 -14 -7 -21 -21 -21h-594c-13.333 0 -20 7 -20 21v71c0 50.667 16 93.334 48 128.001s71.167 61 117.5 79s92.5 34 138.5 48c111.333 34.667 167 79.334 167 134.001c0 88.667 -54.667 133 -164 133c-80.667 0 -137.334 -30.667 -170.001 -92
c-8 -13.333 -16.333 -20 -25 -20h-102c-18 0 -25 6.66699 -21 20z" />
    <glyph glyph-name="threesuperior" unicode="&#xb3;" horiz-adv-x="924" 
d="M125 922c-4 13.333 2.66895 20.0029 20.002 20.0029h103c8 0 16 -6.66699 24 -20c33.333 -62 93.666 -93 180.999 -93c108.667 0 163 34.333 163 103c0 26 -10.167 47.833 -30.5 65.5s-47.5 26.5 -81.5 26.5h-144c-13.333 0 -20 6.66699 -20 20v82c0 14 6.66699 21 20 21
h134c74.667 0 112 30.667 112 92c0 68 -54.667 102 -164 102c-80 0 -136.667 -30.667 -170 -92c-8 -13.333 -16 -20 -24 -20h-103c-17.333 0 -24 6.66699 -20 20c14.667 67.333 49.667 120 105 158s131.5 57 228.5 57s173.167 -19.667 228.5 -59s83 -91.333 83 -156
c0 -40.667 -12 -75.334 -36 -104.001s-56.333 -48.667 -97 -60c42 -10.667 76.333 -30.334 103 -59.001s40 -63.334 40 -104.001c0 -64.667 -27.667 -116.667 -83 -156s-132.333 -59 -231 -59c-196.667 0 -310.334 71.667 -341.001 215z" />
    <glyph glyph-name="acute" unicode="&#xb4;" horiz-adv-x="367" 
d="M4 1147l132.999 266c6.66699 14 17 21 31 21h184c16.667 0 20 -7 10 -21l-215 -266c-10.667 -14 -20.667 -21 -30 -21h-103c-13.333 0 -16.666 7 -9.99902 21z" />
    <glyph glyph-name="mu" unicode="&#xb5;" horiz-adv-x="1413" 
d="M205 -317l0.000976562 1392c0 14 6.66699 21 20 21h144c13.333 0 20 -7 20 -21v-522c0 -132.667 31.5 -239.167 94.5 -319.5s137.5 -120.5 223.5 -120.5c94.667 0 181.667 46 261 138c37.333 44 56 69.667 56 77v747c0 14 6.66699 21 20 21h144c13.333 0 20 -7 20 -21
v-1055c0 -13.333 -6.66699 -20 -20 -20h-113c-13.333 0 -20.666 6.66699 -21.999 20l-19 113c-8.66699 -12.667 -25.834 -30.167 -51.501 -52.5s-50.5 -40.666 -74.5 -54.999s-55.333 -27.333 -94 -39s-77.834 -17.5 -117.501 -17.5s-77.667 5.16699 -114 15.5
s-65.833 22.833 -88.5 37.5c-39.333 26.667 -70.333 54.667 -93 84l-12 17v-440c0 -14 -6.66699 -21 -20 -21h-144c-13.333 0 -20 7 -20 21z" />
    <glyph glyph-name="mu" unicode="&#x3bc;" horiz-adv-x="1413" 
d="M205 -317l0.000976562 1392c0 14 6.66699 21 20 21h144c13.333 0 20 -7 20 -21v-522c0 -132.667 31.5 -239.167 94.5 -319.5s137.5 -120.5 223.5 -120.5c94.667 0 181.667 46 261 138c37.333 44 56 69.667 56 77v747c0 14 6.66699 21 20 21h144c13.333 0 20 -7 20 -21
v-1055c0 -13.333 -6.66699 -20 -20 -20h-113c-13.333 0 -20.666 6.66699 -21.999 20l-19 113c-8.66699 -12.667 -25.834 -30.167 -51.501 -52.5s-50.5 -40.666 -74.5 -54.999s-55.333 -27.333 -94 -39s-77.834 -17.5 -117.501 -17.5s-77.667 5.16699 -114 15.5
s-65.833 22.833 -88.5 37.5c-39.333 26.667 -70.333 54.667 -93 84l-12 17v-440c0 -14 -6.66699 -21 -20 -21h-144c-13.333 0 -20 7 -20 21z" />
    <glyph glyph-name="paragraph" unicode="&#xb6;" horiz-adv-x="1339" 
d="M61 993.5c0 131 45.5 237.167 136.5 318.5s216.167 122 375.5 122h705c13.333 0 20 -7 20 -21v-102c0 -13.333 -6.66699 -20.333 -20 -21h-193v-1605c0 -13.333 -6.66699 -20.333 -20 -21h-143c-13.333 0 -20.333 7 -21 21v1605h-123v-1605
c0 -13.333 -6.66699 -20.333 -20 -21h-144c-13.333 0 -20 7 -20 21v868h-21c-160 0 -285.333 40.667 -376 122s-136 187.5 -136 318.5z" />
    <glyph glyph-name="periodcentered" unicode="&#xb7;" horiz-adv-x="625" 
d="M420 651c0 -27.333 -13.667 -41 -41 -41h-133c-15.333 0 -26 3.16699 -32 9.5s-9 16.833 -9 31.5v133c0 15.333 3 26 9 32s16.667 9 32 9h133c14.667 0 25.167 -3 31.5 -9s9.5 -16.667 9.5 -32v-133z" />
    <glyph glyph-name="cedilla" unicode="&#xb8;" horiz-adv-x="420" 
d="M0 -348c0 13.333 6.66797 20 20.001 20h134c81.333 0 122 24 122 72s-34 72 -102 72h-123c-13.333 0 -20 6.66699 -20 20v215c0 14 6.66699 21 20 21h103c13.333 0 20 -7 20 -21v-123c79.333 0 140.166 -17.333 182.499 -52s63.5 -79 63.5 -133s-22.5 -98 -67.5 -132
s-111.167 -51 -198.5 -51h-134c-13.333 0 -20 6.66699 -20 20v72z" />
    <glyph glyph-name="onesuperior" unicode="&#xb9;" horiz-adv-x="655" 
d="M88 1200c-6.66699 11.333 -5.33301 21 4 29l242 194c16 14 31 21 45 21h92c14 0 21 -7 21 -21v-675c0 -14 -7 -21 -21 -21h-123c-13.333 0 -20 7 -20 21v481l-154 -105c-12 -8 -22.333 -7.33301 -31 2z" />
    <glyph glyph-name="ordmasculine" unicode="&#xba;" horiz-adv-x="1004" 
d="M502 707c-108 0 -194.833 33.667 -260.5 101s-98.5 159.833 -98.5 277.5s32.833 210.167 98.5 277.5s152.5 101 260.5 101s194.667 -33.667 260 -101s98 -159.833 98 -277.5s-32.667 -210.167 -98 -277.5s-152 -101 -260 -101zM502 1341
c-58.667 0 -105.834 -21.5 -141.501 -64.5s-53.5 -106.833 -53.5 -191.5s17.833 -148.5 53.5 -191.5s82.834 -64.5 141.501 -64.5s105.667 21.5 141 64.5s53 106.833 53 191.5s-17.667 148.5 -53 191.5s-82.333 64.5 -141 64.5z" />
    <glyph glyph-name="guillemotright" unicode="&#xbb;" horiz-adv-x="1038" 
d="M43 192.5c-2.66699 5.66699 -0.666992 11.167 6 16.5l324 323l-324 324c-6.66699 5.33301 -8.66699 10.833 -6 16.5s10.334 8.5 23.001 8.5h184c13.333 0 27 -7 41 -21l235 -235c27.333 -20.667 41 -42 41 -64v-57l-41 -64l-235 -235
c-13.333 -13.333 -27 -20.333 -41 -21h-184c-12.667 0 -20.334 2.83301 -23.001 8.5zM350 90c-2.66699 5.33301 -0.666992 10.667 6 16l426 426l-426 426c-6.66699 5.33301 -8.66699 10.833 -6 16.5s10.334 8.5 23.001 8.5h184c13.333 0 27 -6.66699 41 -20l338 -338
c27.333 -20.667 41 -42 41 -64v-57l-41 -64l-338 -338c-13.333 -13.333 -27 -20 -41 -20h-184c-12.667 0 -20.334 2.66699 -23.001 8z" />
    <glyph glyph-name="onequarter" unicode="&#xbc;" horiz-adv-x="1618" 
d="M68 1200c-7.33301 11.333 -6 21 4 29l241 194c16.667 14 31.667 21 45 21h93c13.333 0 20 -7 20 -21v-675c0 -14 -6.66699 -21 -20 -21h-123c-14 0 -21 7 -21 21v481l-153 -105c-12.667 -8 -23 -7.33301 -31 2zM317 20l707 1393c6.66699 14 17 21 31 21h143
c14 0 17.333 -7 10 -21l-706 -1393c-6.66699 -13.333 -17 -20 -31 -20h-143c-14 0 -17.667 6.66699 -11 20zM819 143v72.001c0 31.333 10.333 58.666 31 81.999l399 389c19.333 20.667 43.333 31 72 31h72c13.333 0 20 -7 20 -21v-450h82c14 0 21 -7 21 -21v-82
c0 -13.333 -7 -20 -21 -20h-82v-103c0 -13.333 -6.66699 -20 -20 -20h-123c-14 0 -21 6.66699 -21 20v103h-409c-14 0 -21 6.66699 -21 20zM983 246.001h266v256z" />
    <glyph glyph-name="onehalf" unicode="&#xbd;" horiz-adv-x="1679" 
d="M68 1200c-6.66699 10.667 -5.33301 20.333 4 29l241 194c16.667 13.333 31.667 20.333 45 21h93c13.333 0 20 -7 20 -21v-675c0 -13.333 -6.66699 -20.333 -20 -21h-123c-13.333 0 -20.333 7 -21 21v481l-153 -105c-12 -8 -22.333 -7.33301 -31 2zM317.001 19.999
l707.001 1393c6.66699 13.333 17 20.333 31 21h143c13.333 0 16.666 -7 9.99902 -21l-706 -1393c-6.66699 -13.333 -17 -20 -31 -20h-143c-14 0 -17.667 6.66699 -11 20zM932.002 521.999c15.333 66.667 50.499 119.167 105.499 157.5s130.333 57.5 226 57.5
s171.834 -22.833 228.501 -68.5s85 -104 85 -175s-24.5 -126.333 -73.5 -166s-102.833 -66.167 -161.5 -79.5c-157.333 -36.667 -236 -78.334 -236 -125.001h450c13.333 0 20.333 -7 21 -21v-82c0 -13.333 -7 -20 -21 -20h-593c-13.333 0 -20.333 6.66699 -21 20v72
c0 50.667 16 93.334 48 128.001s71.333 61 118 79s93.334 34.333 140.001 49c110 34 165 78.333 165 133c0 88.667 -54.667 133 -164 133c-80.667 0 -137.334 -30.667 -170.001 -92c-8 -13.333 -16 -20 -24 -20h-103c-17.333 0 -24 6.66699 -20 20z" />
    <glyph glyph-name="threequarters" unicode="&#xbe;" horiz-adv-x="1774" 
d="M84 922c-4 13.333 2.66699 20.0029 20 20.0029h103c8 0 16 -6.66699 24 -20c33.333 -62 93.666 -93 180.999 -93c108.667 0 163 34.333 163 103c0 26 -10.167 47.833 -30.5 65.5s-47.5 26.5 -81.5 26.5h-144c-13.333 0 -20 6.66699 -20 20v82c0 14 6.66699 21 20 21h134
c74.667 0 112 30.667 112 92c0 68 -54.667 102 -164 102c-80 0 -136.667 -30.667 -170 -92c-8 -13.333 -16 -20 -24 -20h-103c-17.333 0 -24 6.66699 -20 20c14.667 67.333 49.667 120 105 158s131.5 57 228.5 57s173.167 -19.667 228.5 -59s83 -91.333 83 -156
c0 -40.667 -12 -75.334 -36 -104.001s-56.333 -48.667 -97 -60c42 -10.667 76.333 -30.334 103 -59.001s40 -63.334 40 -104.001c0 -64.667 -27.667 -116.667 -83 -156s-132.666 -59 -231.999 -59c-196 0 -309.333 71.667 -340 215zM473 20.0029l707 1393
c6.66699 14 16.667 21 30 21h144c13.333 0 16.666 -7 9.99902 -21l-707 -1393c-6.66699 -13.333 -16.667 -20 -30 -20h-144c-13.333 0 -16.666 6.66699 -9.99902 20zM975 143.003v72.001c0 31.333 10.333 58.666 31 81.999l399 389c19.333 20.667 43.333 31 72 31h71
c14 0 21 -7 21 -21v-450h82c13.333 0 20 -7 20 -21v-82c0 -13.333 -6.66699 -20 -20 -20h-82v-103c0 -13.333 -7 -20 -21 -20h-123c-13.333 0 -20 6.66699 -20 20v103h-410c-13.333 0 -20 6.66699 -20 20zM1139 246.004h266v256z" />
    <glyph glyph-name="questiondown" unicode="&#xbf;" horiz-adv-x="1221" 
d="M82 61c0 59.333 11.668 113.497 35.001 162.497s52.333 88.5 87 118.5s72.5 60 113.5 90s78.833 56.333 113.5 79c81.333 53.333 122 115 122 185v21c0 13.333 6.66699 20 20 20h144c13.333 0 20 -6.66699 20 -20v-21c0 -61.333 -16 -116.166 -48 -164.499
s-71.333 -88.166 -118 -119.499l-139 -97c-110.667 -74 -166 -159 -166 -255s30.833 -167.5 92.5 -214.5s144.667 -70.5 249 -70.5s190 22.833 257 68.5s113.5 108.167 139.5 187.5c4 13.333 12 20 24 20h129c16.667 0 23.667 -8 21 -24
c-26 -123.333 -88.5 -220.166 -187.5 -290.499s-228.833 -105.5 -389.5 -105.5s-287.334 37.333 -380.001 112s-139 180.667 -139 318zM713.001 1106c27.333 0 41 -13.667 41 -41v-133c0 -15.333 -3.16699 -26 -9.5 -32s-16.833 -9 -31.5 -9h-133c-15.333 0 -26 3 -32 9
s-9 16.667 -9 32v133c0 14.667 3 25.167 9 31.5s16.667 9.5 32 9.5h133z" />
    <glyph glyph-name="Agrave" unicode="&#xc0;" horiz-adv-x="1458" 
d="M63 20l542.998 1352c16.667 40.667 47.334 61.334 92.001 62.001h62c45.333 0 76 -20.667 92 -62l543 -1352c6.66699 -13.333 1 -20 -17 -20h-147c-13.333 0 -23.666 6.66699 -30.999 20l-143 349h-656l-143 -349c-6.66699 -13.333 -17 -20 -31 -20h-147
c-18 0 -23.667 6.66699 -17 20zM427.998 1812c-9.33301 13.333 -6.00195 20.333 9.99805 21h185c13.333 0 23.333 -7 30 -21l133 -266c6.66699 -13.333 3.33398 -20 -9.99902 -20h-102c-9.33301 0 -19.666 6.66699 -30.999 20zM452.996 511.999h553l-277 686z" />
    <glyph glyph-name="Aacute" unicode="&#xc1;" horiz-adv-x="1458" 
d="M63 20l542.998 1352c16.667 40.667 47.334 61.334 92.001 62.001h62c45.333 0 76 -20.667 92 -62l543 -1352c6.66699 -13.333 1 -20 -17 -20h-147c-13.333 0 -23.666 6.66699 -30.999 20l-143 349h-656l-143 -349c-6.66699 -13.333 -17 -20 -31 -20h-147
c-18 0 -23.667 6.66699 -17 20zM452.998 511.999h553l-277 686zM671.998 1546l132.999 266c6.66699 13.333 17 20.333 31 21h184c16.667 0 20 -7 10 -21l-215 -266c-10.667 -13.333 -21 -20 -31 -20h-102c-13.333 0 -16.666 6.66699 -9.99902 20z" />
    <glyph glyph-name="Acircumflex" unicode="&#xc2;" horiz-adv-x="1458" 
d="M63 20l542.998 1352c16.667 40.667 47.334 61.334 92.001 62.001h62c45.333 0 76 -20.667 92 -62l543 -1352c6.66699 -13.333 1 -20 -17 -20h-147c-13.333 0 -23.666 6.66699 -30.999 20l-143 349h-656l-143 -349c-6.66699 -13.333 -17 -20 -31 -20h-147
c-18 0 -23.667 6.66699 -17 20zM427.998 1526l146.999 225c28 40.667 55.333 61 82 61h144c23.333 0 40 -6.33301 50 -19l32 -42l147 -225c9.33301 -13.333 6 -20.333 -10 -21h-98c-9.33301 0 -21 7 -35 21l-158 164l-158 -164c-13.333 -13.333 -24.666 -20.333 -33.999 -21
h-99c-16 0.666992 -19.333 7.66699 -10 21zM452.997 511.999h553l-277 686z" />
    <glyph glyph-name="Atilde" unicode="&#xc3;" horiz-adv-x="1458" 
d="M63 20l542.998 1352c16.667 40.667 47.334 61.334 92.001 62.001h62c45.333 0 76 -20.667 92 -62l543 -1352c6.66699 -13.333 1 -20 -17 -20h-147c-13.333 0 -23.666 6.66699 -30.999 20l-143 349h-656l-143 -349c-6.66699 -13.333 -17 -20 -31 -20h-147
c-18 0 -23.667 6.66699 -17 20zM411.998 1550c19.333 168 83.999 252 193.999 252c48 0 104 -33 168 -99c22 -22.667 41 -34 57 -34c38 0 64 34.333 78 103c1.33301 13.333 9.66602 20 24.999 20h82c16.667 0 23.334 -8.33301 20.001 -25
c-19.333 -168 -84 -251.667 -194 -251c-48 0 -104 33 -168 99c-22 22.667 -41.333 34 -58 34c-38 0 -63.667 -34.333 -77 -103c-1.33301 -13.333 -9.66602 -20 -24.999 -20h-82c-16 -0.666992 -22.667 7.33301 -20 24zM452.997 511.999h553l-277 686z" />
    <glyph glyph-name="Adieresis" unicode="&#xc4;" horiz-adv-x="1458" 
d="M63 20l542.998 1352c16.667 40.667 47.334 61.334 92.001 62.001h62c45.333 0 76 -20.667 92 -62l543 -1352c6.66699 -13.333 1 -20 -17 -20h-147c-13.333 0 -23.666 6.66699 -30.999 20l-143 349h-656l-143 -349c-6.66699 -13.333 -17 -20 -31 -20h-147
c-18 0 -23.667 6.66699 -17 20zM411.998 1567v133c0 15.333 3 26 9 32s16.667 9 32 9h133c15.333 0 26 -3.16699 32 -9.5s9 -16.833 9 -31.5v-133c0 -15.333 -3.16699 -26 -9.5 -32s-16.833 -9 -31.5 -9h-133c-15.333 0 -26 3 -32 9s-9 16.667 -9 32zM452.998 511.999h553
l-277 686zM830.998 1567v133c0 15.333 3.16699 26 9.5 32s16.833 9 31.5 9h134c15.333 0 26 -3.16699 32 -9.5s9 -16.833 9 -31.5v-133c0 -15.333 -3.16699 -26 -9.5 -32s-16.833 -9 -31.5 -9h-134c-15.333 0 -26 3 -32 9s-9 16.667 -9 32z" />
    <glyph glyph-name="Aring" unicode="&#xc5;" horiz-adv-x="1458" 
d="M63 20l532.997 1332c-76.667 39.333 -115 104 -115 194c0 66.667 22.833 121 68.5 163s104.834 63 177.501 63s131.834 -20.833 177.501 -62.5s68.5 -96.167 68.5 -163.5c0 -90 -37.667 -154.667 -113 -194l535 -1332c6.66699 -13.333 1 -20 -17 -20h-147
c-13.333 0 -23.666 6.66699 -30.999 20l-143 349h-656l-143 -349c-6.66699 -13.333 -17 -20 -31 -20h-147c-18 0 -23.667 6.66699 -17 20zM452.997 512h553l-277 686zM613.997 1546c0 -31.333 11 -57.833 33 -79.5s48.667 -32.5 80 -32.5s58 10.833 80 32.5
s33 48.167 33 79.5s-11 58 -33 80s-48.667 33 -80 33s-58 -11 -80 -33s-33 -48.667 -33 -80z" />
    <glyph glyph-name="AE" unicode="&#xc6;" horiz-adv-x="1997" 
d="M4 20l748 1352c21.333 41.333 58 62 110 62h1032c14 0 21 -7 21 -21v-102c0 -14 -7 -21 -21 -21h-745v-491h602c14 0 21 -7 21 -21v-102c0 -14 -7 -21 -21 -21h-602v-512h745c14 0 21 -6.66699 21 -20v-103c0 -13.333 -7 -20 -21 -20h-909c-13.333 0 -20 6.66699 -20 20
v349h-572l-192 -349c-8.66699 -13.333 -19 -20 -31 -20h-150c-18.667 0 -24 6.66699 -16 20zM471 512h494v778h-62z" />
    <glyph glyph-name="Ccedilla" unicode="&#xc7;" horiz-adv-x="1507" 
d="M286 194.5c-108.667 129.667 -162.995 307.501 -162.995 533.501s62.167 405.167 186.5 537.5s283.833 198.5 478.5 198.5c168 0 304.333 -36.167 409 -108.5s170 -174.5 196 -306.5c2.66699 -16.667 -4.33301 -25 -21 -25h-129c-12 0 -20 6.66699 -24 20
c-57.333 184 -201 276.333 -431 277c-138 0 -252.667 -50.833 -344 -152.5s-137 -252.167 -137 -451.5s46.167 -349.833 138.5 -451.5s210.166 -152.5 353.499 -152.5c229.333 0 372.666 92 429.999 276c4 13.333 12 20.333 24 21h129c16.667 0 23.667 -8.33301 21 -25
c-24.667 -122.667 -83.834 -219.834 -177.501 -291.501s-215.5 -112.5 -365.5 -122.5v-53c79.333 0 140.166 -17.333 182.499 -52s63.5 -79 63.5 -133s-22.5 -98.167 -67.5 -132.5s-111.167 -51.5 -198.5 -51.5h-133c-13.333 0 -20.333 7 -21 21v72c0 13.333 7 20 21 20h133
c82 0 123 23.833 123 71.5s-34.333 71.5 -103 71.5h-123c-13.333 0 -20 7 -20 21v147c-178.667 18 -322.334 91.833 -431.001 221.5z" />
    <glyph glyph-name="Egrave" unicode="&#xc8;" horiz-adv-x="1319" 
d="M205 20v1393c0 14 6.66699 21 20 21h992c13.333 0 20 -7 20 -21v-102c0 -14 -6.66699 -21 -20 -21h-828v-491h684c14 0 21 -7 21 -21v-102c0 -14 -7 -21 -21 -21h-684v-512h828c13.333 0 20 -6.66699 20 -20v-103c0 -13.333 -6.66699 -20 -20 -20h-992
c-13.333 0 -20 6.66699 -20 20zM440 1812c-9.33301 14 -5.66699 21 11 21h184c13.333 0 23.666 -7 30.999 -21l133 -266c6.66699 -13.333 3 -20 -11 -20h-102c-9.33301 0 -19.666 6.66699 -30.999 20z" />
    <glyph glyph-name="Eacute" unicode="&#xc9;" horiz-adv-x="1319" 
d="M205 20v1393c0 14 6.66699 21 20 21h992c13.333 0 20 -7 20 -21v-102c0 -14 -6.66699 -21 -20 -21h-828v-491h684c14 0 21 -7 21 -21v-102c0 -14 -7 -21 -21 -21h-684v-512h828c13.333 0 20 -6.66699 20 -20v-103c0 -13.333 -6.66699 -20 -20 -20h-992
c-13.333 0 -20 6.66699 -20 20zM623 1546l133 266c6.66699 14 16.667 21 30 21h185c16 0 19.333 -7 10 -21l-215 -266c-10.667 -13.333 -21 -20 -31 -20h-102c-14 0 -17.333 6.66699 -10 20z" />
    <glyph glyph-name="Ecircumflex" unicode="&#xca;" horiz-adv-x="1319" 
d="M205 20v1393c0 14 6.66699 21 20 21h992c13.333 0 20 -7 20 -21v-102c0 -14 -6.66699 -21 -20 -21h-828v-491h684c14 0 21 -7 21 -21v-102c0 -14 -7 -21 -21 -21h-684v-512h828c13.333 0 20 -6.66699 20 -20v-103c0 -13.333 -6.66699 -20 -20 -20h-992
c-13.333 0 -20 6.66699 -20 20zM420 1546l146.999 226l25 32c14.667 19.333 33.667 29 57 29h144c23.333 0 40 -6.5 50 -19.5l31 -41.5l148 -226c9.33301 -13.333 6 -20 -10 -20h-99c-9.33301 0 -20.666 6.66699 -33.999 20l-158 164l-158 -164
c-13.333 -13.333 -25 -20 -35 -20h-98c-16 0 -19.333 6.66699 -10 20z" />
    <glyph glyph-name="Edieresis" unicode="&#xcb;" horiz-adv-x="1319" 
d="M205 20v1393c0 14 6.66699 21 20 21h992c13.333 0 20 -7 20 -21v-102c0 -14 -6.66699 -21 -20 -21h-828v-491h684c14 0 21 -7 21 -21v-102c0 -14 -7 -21 -21 -21h-684v-512h828c13.333 0 20 -6.66699 20 -20v-103c0 -13.333 -6.66699 -20 -20 -20h-992
c-13.333 0 -20 6.66699 -20 20zM444 1556c-27.333 0 -41 13.667 -41 41v134c0 27.333 13.667 41 41 41h134c26.667 0 40 -13.667 40 -41v-134c0 -27.333 -13.333 -41 -40 -41h-134zM864 1556c-27.333 0 -41 13.667 -41 41v134c0 27.333 13.667 41 41 41h133
c15.333 0 26 -3.16699 32 -9.5s9 -16.833 9 -31.5v-134c0 -14.667 -3 -25.167 -9 -31.5s-16.667 -9.5 -32 -9.5h-133z" />
    <glyph glyph-name="Igrave" unicode="&#xcc;" horiz-adv-x="582" 
d="M4 1812c-9.33301 14 -6.00098 21 9.99902 21h185c13.333 0 23.333 -7 30 -21l133 -266c7.33301 -13.333 4 -20 -10 -20h-102c-9.33301 0 -19.666 6.66699 -30.999 20zM192.999 20v1393c0 14 6.66699 21 20 21h143c14 0 21 -7 21 -21v-1393c0 -13.333 -7 -20 -21 -20h-143
c-13.333 0 -20 6.66699 -20 20z" />
    <glyph glyph-name="Iacute" unicode="&#xcd;" horiz-adv-x="582" 
d="M205 20v1393c0 14 6.66699 21 20 21h144c13.333 0 20 -7 20 -21v-1393c0 -13.333 -6.66699 -20 -20 -20h-144c-13.333 0 -20 6.66699 -20 20zM219 1546l132.998 266c6.66699 14 17 21 31 21h184c16.667 0 20.334 -7 11.001 -21l-216 -266
c-10.667 -13.333 -20.667 -20 -30 -20h-103c-13.333 0 -16.666 6.66699 -9.99902 20z" />
    <glyph glyph-name="Icircumflex" unicode="&#xce;" horiz-adv-x="610" 
d="M4 1526l147.998 225c18.667 27.333 33.834 44.333 45.501 51s23.5 10 35.5 10h144c23.333 0 40 -6.33301 50 -19l32 -42l147 -225c9.33301 -13.333 6 -20.333 -10 -21h-98c-9.33301 0 -21 7 -35 21l-158 164l-158 -164c-13.333 -13.333 -24.666 -20.333 -33.999 -21h-99
c-16 0.666992 -19.333 7.66699 -10 21zM212.998 20v1393c0 13.333 6.66699 20.333 20 21h144c13.333 0 20 -7 20 -21v-1393c0 -13.333 -6.66699 -20 -20 -20h-144c-13.333 0 -20 6.66699 -20 20z" />
    <glyph glyph-name="Idieresis" unicode="&#xcf;" horiz-adv-x="594" 
d="M154 1741c27.333 0 41 -13.667 41 -41v-133c0 -15.333 -3.16699 -26 -9.5 -32s-16.833 -9 -31.5 -9h-134c-14.667 0 -25 3 -31 9s-9 16.667 -9 32v133c0 27.333 13.333 41 40 41h134zM205 20v1393c0 14 6.66699 21 20 21h144c13.333 0 20 -7 20 -21v-1393
c0 -13.333 -6.66699 -20 -20 -20h-144c-13.333 0 -20 6.66699 -20 20zM399 1700c0 27.333 13.667 41 41 41h133c15.333 0 26 -3.16699 32 -9.5s9 -16.833 9 -31.5v-133c0 -15.333 -3 -26 -9 -32s-16.667 -9 -32 -9h-133c-14.667 0 -25.167 3 -31.5 9s-9.5 16.667 -9.5 32
v133z" />
    <glyph glyph-name="Eth" unicode="&#xd0;" horiz-adv-x="1505" 
d="M20 666v102.002c0 13.333 7 20 21 20h164v625c0 13.333 6.66699 20.333 20 21h471c212.667 0 383.667 -63.833 513 -191.5s194 -302.834 194 -525.501s-64.5 -397.834 -193.5 -525.501s-300.167 -191.5 -513.5 -191.5h-471c-13.333 0 -20 6.66699 -20 20v625h-164
c-14 0.666992 -21 7.66699 -21 21zM389 143.002h307c155.333 0 281.333 48.833 378 146.5s145 240 145 427s-48.167 329.333 -144.5 427s-222.5 146.5 -378.5 146.5h-307v-502h246c13.333 0 20 -6.66699 20 -20v-102c0 -13.333 -6.66699 -20.333 -20 -21h-246v-502z" />
    <glyph glyph-name="Ntilde" unicode="&#xd1;" horiz-adv-x="1618" 
d="M205 20v1393c0 14 6.66699 21 20 21h144c40.667 0 74.667 -20.667 102 -62l758 -1126v1167c0 14 6.66699 21 20 21h144c13.333 0 20 -7 20 -21v-1393c0 -13.333 -6.66699 -20 -20 -20h-144c-40.667 -0 -74.667 20.333 -102 61l-758 1127v-1168
c0 -13.333 -6.66699 -20 -20 -20h-144c-13.333 0 -20 6.66699 -20 20zM514 1550c19.333 168 84.3311 252 194.998 252c48.667 0 104.334 -33 167.001 -99c22 -22.667 41.333 -34 58 -34c38 0 64 34.333 78 103c1.33301 13.333 9.33301 20 24 20h82
c16.667 0 23.667 -8.33301 21 -25c-19.333 -167.333 -84.333 -251 -195 -251c-48 0 -104 33 -168 99c-22 22.667 -41 34 -57 34c-38 0 -64 -34.333 -78 -103c-1.33301 -13.333 -9.66602 -20 -24.999 -20h-81c-16.667 0 -23.667 8 -21 24z" />
    <glyph glyph-name="Ograve" unicode="&#xd2;" horiz-adv-x="1577" 
d="M309 168c-124 132.667 -186 315.667 -186 549s62.167 416.166 186.5 548.499s284 198.5 479 198.5s354.667 -66.167 479 -198.5s186.5 -315.166 186.5 -548.499s-62.167 -416.333 -186.5 -549s-284 -199 -479 -199s-354.833 66.333 -479.5 199zM788.5 1321
c-137.667 0 -252.334 -50.833 -344.001 -152.5s-137.5 -252.167 -137.5 -451.5s45.833 -349.833 137.5 -451.5s206.334 -152.5 344.001 -152.5s252.334 50.833 344.001 152.5s137.5 252.167 137.5 451.5s-45.833 349.833 -137.5 451.5s-206.334 152.5 -344.001 152.5z
M487 1812c-9.33301 14 -5.66797 21 10.999 21h184c13.333 0 23.666 -7 30.999 -21l133 -266c6.66699 -13.333 3.33398 -20 -9.99902 -20h-103c-9.33301 0 -19.666 6.66699 -30.999 20z" />
    <glyph glyph-name="Oacute" unicode="&#xd3;" horiz-adv-x="1577" 
d="M309 168c-124 132.667 -186 315.667 -186 549s62.167 416.166 186.5 548.499s284 198.5 479 198.5s354.667 -66.167 479 -198.5s186.5 -315.166 186.5 -548.499s-62.167 -416.333 -186.5 -549s-284 -199 -479 -199s-354.833 66.333 -479.5 199zM788.5 1321
c-137.667 0 -252.334 -50.833 -344.001 -152.5s-137.5 -252.167 -137.5 -451.5s45.833 -349.833 137.5 -451.5s206.334 -152.5 344.001 -152.5s252.334 50.833 344.001 152.5s137.5 252.167 137.5 451.5s-45.833 349.833 -137.5 451.5s-206.334 152.5 -344.001 152.5z
M711 1546l133 266c6.66699 14 16.667 21 30 21h185c16 0 19.333 -7 10 -21l-215 -266c-10.667 -13.333 -21 -20 -31 -20h-102c-14 0 -17.333 6.66699 -10 20z" />
    <glyph glyph-name="Ocircumflex" unicode="&#xd4;" horiz-adv-x="1577" 
d="M309 168c-124 132.667 -186 315.667 -186 549s62.167 416.166 186.5 548.499s284 198.5 479 198.5s354.667 -66.167 479 -198.5s186.5 -315.166 186.5 -548.499s-62.167 -416.333 -186.5 -549s-284 -199 -479 -199s-354.833 66.333 -479.5 199zM788.5 1321
c-137.667 0 -252.334 -50.833 -344.001 -152.5s-137.5 -252.167 -137.5 -451.5s45.833 -349.833 137.5 -451.5s206.334 -152.5 344.001 -152.5s252.334 50.833 344.001 152.5s137.5 252.167 137.5 451.5s-45.833 349.833 -137.5 451.5s-206.334 152.5 -344.001 152.5z
M487 1546l148 226c20 27.333 35.5 44.333 46.5 51s22.833 10 35.5 10h143c22.667 0 39.334 -6.5 50.001 -19.5s21.334 -26.833 32.001 -41.5l148 -226c9.33301 -13.333 5.66602 -20 -11.001 -20h-98c-9.33301 0 -21 6.66699 -35 20l-158 164l-157 -164
c-14 -13.333 -25.667 -20 -35 -20h-98c-16.667 0 -20.334 6.66699 -11.001 20z" />
    <glyph glyph-name="Otilde" unicode="&#xd5;" horiz-adv-x="1577" 
d="M309 168c-124 132.667 -186 315.667 -186 549s62.167 416.166 186.5 548.499s284 198.5 479 198.5s354.667 -66.167 479 -198.5s186.5 -315.166 186.5 -548.499s-62.167 -416.333 -186.5 -549s-284 -199 -479 -199s-354.833 66.333 -479.5 199zM788.5 1321
c-137.667 0 -252.334 -50.833 -344.001 -152.5s-137.5 -252.167 -137.5 -451.5s45.833 -349.833 137.5 -451.5s206.334 -152.5 344.001 -152.5s252.334 50.833 344.001 152.5s137.5 252.167 137.5 451.5s-45.833 349.833 -137.5 451.5s-206.334 152.5 -344.001 152.5z
M455 1581c18.667 168 83.334 252 194.001 252c32.667 0 63.334 -11.333 92.001 -34s54 -44.834 76 -66.501s41 -32.5 57 -32.5c38.667 0 64.667 34 78 102c1.33301 14 9.66602 21 24.999 21h82c16 0 22.667 -8.33301 20 -25c-18.667 -168 -83.334 -252 -194.001 -252
c-32.667 0 -63.334 11.333 -92.001 34s-54 44.834 -76 66.501s-41.333 32.5 -58 32.5c-38 0 -63.667 -34 -77 -102c-1.33301 -14 -9.66602 -21 -24.999 -21h-82c-16 0 -22.667 8.33301 -20 25z" />
    <glyph glyph-name="Odieresis" unicode="&#xd6;" horiz-adv-x="1577" 
d="M309 168c-124 132.667 -186 315.667 -186 549s62.167 416.166 186.5 548.499s284 198.5 479 198.5s354.667 -66.167 479 -198.5s186.5 -315.166 186.5 -548.499s-62.167 -416.333 -186.5 -549s-284 -199 -479 -199s-354.833 66.333 -479.5 199zM788.5 1321
c-137.667 0 -252.334 -50.833 -344.001 -152.5s-137.5 -252.167 -137.5 -451.5s45.833 -349.833 137.5 -451.5s206.334 -152.5 344.001 -152.5s252.334 50.833 344.001 152.5s137.5 252.167 137.5 451.5s-45.833 349.833 -137.5 451.5s-206.334 152.5 -344.001 152.5z
M471 1608v133c0 14.667 3 25.167 9 31.5s16.667 9.5 32 9.5h133c15.333 0 26 -3.16699 32 -9.5s9 -16.833 9 -31.5v-133c0 -15.333 -3 -26 -9 -32s-16.667 -9 -32 -9h-133c-15.333 0 -26 3 -32 9s-9 16.667 -9 32zM1065 1782c27.333 0 41 -13.667 41 -41v-133
c0 -15.333 -3.16699 -26 -9.5 -32s-16.833 -9 -31.5 -9h-133c-15.333 0 -26 3 -32 9s-9 16.667 -9 32v133c0 14.667 3 25.167 9 31.5s16.667 9.5 32 9.5h133z" />
    <glyph glyph-name="multiply" unicode="&#xd7;" horiz-adv-x="981" 
d="M88 367c-8 9.33301 -8 19.333 0 30l301 299l-301 299c-8 10 -8 19.667 0 29l74 74c9.33301 9.33301 18.666 9.33301 27.999 0l299 -301l302 301c9.33301 9.33301 18.666 9.33301 27.999 0l72 -74c9.33301 -9.33301 9.33301 -19 0 -29l-299 -299l299 -299
c9.33301 -10.667 9.33301 -20.667 0 -30l-72 -72c-9.33301 -9.33301 -18.666 -9.33301 -27.999 0l-302 299l-299 -299c-9.33301 -9.33301 -18.666 -9.33301 -27.999 0z" />
    <glyph glyph-name="Oslash" unicode="&#xd8;" horiz-adv-x="1577" 
d="M123 717c0 233.333 62.167 416.167 186.5 548.5s283.833 198.5 478.5 198.5c102.667 0 195.667 -18.333 279 -55l18 35c7.33301 13.333 17.666 20 30.999 20h144c13.333 0 16.666 -6.66699 9.99902 -20l-64 -121c165.333 -136.667 248 -338.667 248 -606
c0 -233.333 -62.167 -416.333 -186.5 -549s-284.166 -199 -479.499 -199c-102 0 -194.667 18.667 -278 56l-18 -35c-7.33301 -14 -17.666 -21 -30.999 -21h-144c-16 0 -19.333 7 -10 21l64 119c-165.333 133.333 -248 336 -248 608zM451 258.001l544 1016
c-65.333 31.333 -134.333 47 -207 47c-137.333 0 -251.833 -50.833 -343.5 -152.5s-137.5 -252.167 -137.5 -451.5s48 -352.333 144 -459zM582 158.001c61.333 -30 130 -45 206 -45c138 0 252.833 50.833 344.5 152.5s137.5 252.167 137.5 451.5s-48 352.333 -144 459z" />
    <glyph glyph-name="Ugrave" unicode="&#xd9;" horiz-adv-x="1556" 
d="M184 573l-0.00195312 840c0 13.333 7 20.333 21 21h143c13.333 0 20.333 -7 21 -21v-840c0 -151.333 38.167 -265.833 114.5 -343.5s174.5 -116.5 294.5 -116.5s218.333 38.833 295 116.5s115 192.167 115 343.5v840c0 13.333 6.66699 20.333 20 21h144
c13.333 0 20 -7 20 -21v-840c0 -187.333 -54.667 -334.833 -164 -442.5s-252.666 -161.5 -429.999 -161.5s-320.666 53.833 -429.999 161.5s-164 255.167 -164 442.5zM517.998 1792c-9.33301 13.333 -6.00098 20 9.99902 20h185c13.333 0 23.333 -6.66699 30 -20l134 -266
c6.66699 -13.333 3 -20.333 -11 -21h-102c-9.33301 0 -19.666 7 -30.999 21z" />
    <glyph glyph-name="Uacute" unicode="&#xda;" horiz-adv-x="1556" 
d="M184 573l-0.00195312 840c0 13.333 7 20.333 21 21h143c13.333 0 20.333 -7 21 -21v-840c0 -151.333 38.167 -265.833 114.5 -343.5s174.5 -116.5 294.5 -116.5s218.333 38.833 295 116.5s115 192.167 115 343.5v840c0 13.333 6.66699 20.333 20 21h144
c13.333 0 20 -7 20 -21v-840c0 -187.333 -54.667 -334.833 -164 -442.5s-252.666 -161.5 -429.999 -161.5s-320.666 53.833 -429.999 161.5s-164 255.167 -164 442.5zM679.998 1526l132.999 266c6.66699 13.333 17 20 31 20h184c16.667 0 20 -6.66699 10 -20l-215 -266
c-10.667 -13.333 -20.667 -20.333 -30 -21h-103c-13.333 0.666992 -16.666 7.66699 -9.99902 21z" />
    <glyph glyph-name="Ucircumflex" unicode="&#xdb;" horiz-adv-x="1556" 
d="M184 573l-0.00195312 840c0 13.333 7 20.333 21 21h143c13.333 0 20.333 -7 21 -21v-840c0 -151.333 38.167 -265.833 114.5 -343.5s174.5 -116.5 294.5 -116.5s218.333 38.833 295 116.5s115 192.167 115 343.5v840c0 13.333 6.66699 20.333 20 21h144
c13.333 0 20 -7 20 -21v-840c0 -187.333 -54.667 -334.833 -164 -442.5s-252.666 -161.5 -429.999 -161.5s-320.666 53.833 -429.999 161.5s-164 255.167 -164 442.5zM476.998 1526l147.998 225c18.667 27.333 33.834 44.333 45.501 51s23.834 10 36.501 10h143
c23.333 0 40 -6.33301 50 -19l32 -42l147 -225c9.33301 -13.333 6 -20.333 -10 -21h-98c-9.33301 0 -21 7 -35 21l-158 164l-157 -164c-13.333 -13.333 -25 -20.333 -35 -21h-99c-16 0.666992 -19.333 7.66699 -10 21z" />
    <glyph glyph-name="Udieresis" unicode="&#xdc;" horiz-adv-x="1556" 
d="M184 573l-0.00195312 840c0 13.333 7 20.333 21 21h143c13.333 0 20.333 -7 21 -21v-840c0 -151.333 38.167 -265.833 114.5 -343.5s174.5 -116.5 294.5 -116.5s218.333 38.833 295 116.5s115 192.167 115 343.5v840c0 13.333 6.66699 20.333 20 21h144
c13.333 0 20 -7 20 -21v-840c0 -187.333 -54.667 -334.833 -164 -442.5s-252.666 -161.5 -429.999 -161.5s-320.666 53.833 -429.999 161.5s-164 255.167 -164 442.5zM460.998 1567v133c0 15.333 3 26 9 32s16.667 9 32 9h133c15.333 0 26 -3.16699 32 -9.5
s9 -16.833 9 -31.5v-133c0 -15.333 -3.16699 -26 -9.5 -32s-16.833 -9 -31.5 -9h-133c-15.333 0 -26 3 -32 9s-9 16.667 -9 32zM880.998 1567v133c0 15.333 3 26 9 32s16.667 9 32 9h133c15.333 0 26 -3.16699 32 -9.5s9 -16.833 9 -31.5v-133
c0 -15.333 -3.16699 -26 -9.5 -32s-16.833 -9 -31.5 -9h-133c-15.333 0 -26 3 -32 9s-9 16.667 -9 32z" />
    <glyph glyph-name="Yacute" unicode="&#xdd;" horiz-adv-x="1352" 
d="M41 1434h149c18 0 31.667 -7 41 -21l445 -739l444 739c10 14 23.667 21 41 21h150c8 0 13.667 -2.5 17 -7.5s3 -9.5 -1 -13.5l-559 -932v-461c0 -13.333 -6.66699 -20 -20 -20h-144c-13.333 0 -20 6.66699 -20 20v461l-559 932c-4.66699 4 -5.16699 8.5 -1.5 13.5
s9.5 7.5 17.5 7.5zM598 1526l132.999 266c6.66699 13.333 17 20 31 20h184c16.667 0 20 -6.66699 10 -20l-215 -266c-10.667 -14 -20.667 -21 -30 -21h-103c-13.333 0 -16.666 7 -9.99902 21z" />
    <glyph glyph-name="Thorn" unicode="&#xde;" horiz-adv-x="1393" 
d="M205 20v1393c0 14 6.66699 21 20 21h144c13.333 0 20 -7 20 -21v-194h369c172 0 303.667 -42 395 -126s137 -209.333 137 -376s-45.667 -292 -137 -376s-223 -126 -395 -126h-369v-195c0 -13.333 -6.66699 -20 -20 -20h-144c-13.333 0 -20 6.66699 -20 20zM389 358h369
c108 0 193 29 255 87s93 148.5 93 271.5s-31 213.5 -93 271.5s-147 87 -255 87h-369v-717z" />
    <glyph glyph-name="germandbls" unicode="&#xdf;" horiz-adv-x="1434" 
d="M205 20l0.00195312 932.005c0 164 42.333 290.333 127 379s204.5 133 359.5 133s273 -30.333 354 -91s121.5 -143 121.5 -247c0 -52.667 -10.5 -98.834 -31.5 -138.501s-44.5 -69.167 -70.5 -88.5c-68 -50.667 -102 -95.334 -102 -134.001s14 -71.334 42 -98.001
s62 -50.667 102 -72l120.5 -67.5c40.333 -23.667 74.5 -55.334 102.5 -95.001s42 -84.834 42 -135.501c0 -100 -35.5 -179.667 -106.5 -239s-165.5 -89 -283.5 -89s-216.333 25 -295 75s-130.334 119.333 -155.001 208c-4 16 3 24 21 24h129c8 0 16.333 -6.66699 25 -20
c57.333 -95.333 142.666 -143 255.999 -143c73.333 0 129.166 15.667 167.499 47s57.5 68.833 57.5 112.5s-14 78.834 -42 105.501s-62.167 50.5 -102.5 71.5s-80.666 43.5 -120.999 67.5s-74.5 55.833 -102.5 95.5s-42 82.334 -42 128.001s10.667 86.167 32 121.5
s45 63.666 71 84.999c68 56 102 112.333 102 169c0 136.667 -95.667 205 -287 205c-94 0 -168.667 -31.333 -224 -94s-83 -154.334 -83 -275.001v-932c0 -13.333 -6.66699 -20 -20 -20h-144c-13.333 0 -20 6.66699 -20 20z" />
    <glyph glyph-name="agrave" unicode="&#xe0;" horiz-adv-x="1290" 
d="M123 317.5c0 107.667 39.499 192.666 118.499 254.999s189.5 93.5 331.5 93.5h349v10c0 204.667 -102.667 307 -308 307c-64 0 -118.5 -15.333 -163.5 -46s-75.833 -70 -92.5 -118c-4 -13.333 -12 -20 -24 -20h-129c-15.333 0 -22.333 6.66699 -21 20
c10.667 92.667 54.667 167 132 223s176.666 84 297.999 84c158.667 0 280.334 -39.167 365.001 -117.5s127 -189.166 127 -332.499v-656c0 -13.333 -7 -20 -21 -20h-112c-13.333 0 -21 6.66699 -23 20l-18 113c-8 -12.667 -25.667 -30.167 -53 -52.5
s-54.666 -40.5 -81.999 -54.5c-72 -38 -153.333 -57 -244 -57c-132.667 0 -237.5 31.167 -314.5 93.5s-115.5 147.333 -115.5 255zM306.999 316.999c0 -66.667 22.166 -117.33 66.499 -151.997s107.5 -52 189.5 -52c44 0 86.5 7.5 127.5 22.5s74.667 32.667 101 53
s49.833 41.166 70.5 62.499s35.834 39.166 45.501 53.499s14.5 22.166 14.5 23.499v194h-349c-177.333 0 -266 -68.333 -266 -205zM353.998 1503c-9.33301 13.333 -5.66699 20.333 11 21h184c13.333 0 23.666 -7 30.999 -21l133 -266c6.66699 -13.333 3 -20 -11 -20h-102
c-9.33301 0 -19.666 6.66699 -30.999 20z" />
    <glyph glyph-name="aacute" unicode="&#xe1;" horiz-adv-x="1290" 
d="M123 317.5c0 107.667 39.499 192.666 118.499 254.999s189.5 93.5 331.5 93.5h349v10c0 204.667 -102.667 307 -308 307c-64 0 -118.5 -15.333 -163.5 -46s-75.833 -70 -92.5 -118c-4 -13.333 -12 -20 -24 -20h-129c-15.333 0 -22.333 6.66699 -21 20
c10.667 92.667 54.667 167 132 223s176.666 84 297.999 84c158.667 0 280.334 -39.167 365.001 -117.5s127 -189.166 127 -332.499v-656c0 -13.333 -7 -20 -21 -20h-112c-13.333 0 -21 6.66699 -23 20l-18 113c-8 -12.667 -25.667 -30.167 -53 -52.5
s-54.666 -40.5 -81.999 -54.5c-72 -38 -153.333 -57 -244 -57c-132.667 0 -237.5 31.167 -314.5 93.5s-115.5 147.333 -115.5 255zM306.999 316.999c0 -66.667 22.166 -117.33 66.499 -151.997s107.5 -52 189.5 -52c44 0 86.5 7.5 127.5 22.5s74.667 32.667 101 53
s49.833 41.166 70.5 62.499s35.834 39.166 45.501 53.499s14.5 22.166 14.5 23.499v194h-349c-177.333 0 -266 -68.333 -266 -205zM577.998 1239l132.999 266c6.66699 13.333 16.667 20.333 30 21h185c16.667 0 20 -7 10 -21l-215 -266c-10.667 -13.333 -21 -20 -31 -20
h-102c-13.333 0 -16.666 6.66699 -9.99902 20z" />
    <glyph glyph-name="acircumflex" unicode="&#xe2;" horiz-adv-x="1290" 
d="M123 317.5c0 107.667 39.499 192.666 118.499 254.999s189.5 93.5 331.5 93.5h349v10c0 204.667 -102.667 307 -308 307c-64 0 -118.5 -15.333 -163.5 -46s-75.833 -70 -92.5 -118c-4 -13.333 -12 -20 -24 -20h-129c-15.333 0 -22.333 6.66699 -21 20
c10.667 92.667 54.667 167 132 223s176.666 84 297.999 84c158.667 0 280.334 -39.167 365.001 -117.5s127 -189.166 127 -332.499v-656c0 -13.333 -7 -20 -21 -20h-112c-13.333 0 -21 6.66699 -23 20l-18 113c-8 -12.667 -25.667 -30.167 -53 -52.5
s-54.666 -40.5 -81.999 -54.5c-72 -38 -153.333 -57 -244 -57c-132.667 0 -237.5 31.167 -314.5 93.5s-115.5 147.333 -115.5 255zM306.999 316.999c0 -66.667 22.166 -117.33 66.499 -151.997s107.5 -52 189.5 -52c44 0 86.5 7.5 127.5 22.5s74.667 32.667 101 53
s49.833 41.166 70.5 62.499s35.834 39.166 45.501 53.499s14.5 22.166 14.5 23.499v194h-349c-177.333 0 -266 -68.333 -266 -205zM312.998 1239l148.001 225c18 26.667 33 43.667 45 51s24.333 11 37 11h143c22 0 38.5 -6.5 49.5 -19.5s21.833 -27.167 32.5 -42.5l147 -225
c9.33301 -13.333 6 -20 -10 -20h-98c-9.33301 0 -21 6.66699 -35 20l-158 164l-157 -164c-13.333 -13.333 -25 -20 -35 -20h-98c-16.667 0 -20.334 6.66699 -11.001 20z" />
    <glyph glyph-name="atilde" unicode="&#xe3;" horiz-adv-x="1290" 
d="M123 317.5c0 107.667 39.499 192.666 118.499 254.999s189.5 93.5 331.5 93.5h349v10c0 204.667 -102.667 307 -308 307c-64 0 -118.5 -15.333 -163.5 -46s-75.833 -70 -92.5 -118c-4 -13.333 -12 -20 -24 -20h-129c-15.333 0 -22.333 6.66699 -21 20
c10.667 92.667 54.667 167 132 223s176.666 84 297.999 84c158.667 0 280.334 -39.167 365.001 -117.5s127 -189.166 127 -332.499v-656c0 -13.333 -7 -20 -21 -20h-112c-13.333 0 -21 6.66699 -23 20l-18 113c-8 -12.667 -25.667 -30.167 -53 -52.5
s-54.666 -40.5 -81.999 -54.5c-72 -38 -153.333 -57 -244 -57c-132.667 0 -237.5 31.167 -314.5 93.5s-115.5 147.333 -115.5 255zM306.999 316.999c0 -66.667 22.166 -117.33 66.499 -151.997s107.5 -52 189.5 -52c44 0 86.5 7.5 127.5 22.5s74.667 32.667 101 53
s49.833 41.166 70.5 62.499s35.834 39.166 45.501 53.499s14.5 22.166 14.5 23.499v194h-349c-177.333 0 -266 -68.333 -266 -205zM321.998 1264c19.333 168 83.998 252 193.998 252c32.667 0 63.334 -11 92.001 -33s54 -44.333 76 -67s41 -34 57 -34c38 0 64 34.333 78 103
c1.33301 13.333 9.66602 20 24.999 20h82c16.667 0 23.334 -8 20.001 -24c-19.333 -168 -84 -252 -194 -252c-49.333 0 -105.333 33 -168 99c-22 22.667 -41.333 34 -58 34c-38 0 -63.667 -34 -77 -102c-1.33301 -13.333 -9.66602 -20.333 -24.999 -21h-82
c-16 0 -22.667 8.33301 -20 25z" />
    <glyph glyph-name="adieresis" unicode="&#xe4;" horiz-adv-x="1290" 
d="M123 317.5c0 107.667 39.499 192.666 118.499 254.999s189.5 93.5 331.5 93.5h349v10c0 204.667 -102.667 307 -308 307c-64 0 -118.5 -15.333 -163.5 -46s-75.833 -70 -92.5 -118c-4 -13.333 -12 -20 -24 -20h-129c-15.333 0 -22.333 6.66699 -21 20
c10.667 92.667 54.667 167 132 223s176.666 84 297.999 84c158.667 0 280.334 -39.167 365.001 -117.5s127 -189.166 127 -332.499v-656c0 -13.333 -7 -20 -21 -20h-112c-13.333 0 -21 6.66699 -23 20l-18 113c-8 -12.667 -25.667 -30.167 -53 -52.5
s-54.666 -40.5 -81.999 -54.5c-72 -38 -153.333 -57 -244 -57c-132.667 0 -237.5 31.167 -314.5 93.5s-115.5 147.333 -115.5 255zM306.999 316.999c0 -66.667 22.166 -117.33 66.499 -151.997s107.5 -52 189.5 -52c44 0 86.5 7.5 127.5 22.5s74.667 32.667 101 53
s49.833 41.166 70.5 62.499s35.834 39.166 45.501 53.499s14.5 22.166 14.5 23.499v194h-349c-177.333 0 -266 -68.333 -266 -205zM316.998 1311v133c0 15.333 3.16699 26 9.5 32s16.833 9 31.5 9h134c15.333 0 25.833 -3.16699 31.5 -9.5s8.5 -16.833 8.5 -31.5v-133
c0 -15.333 -3 -26 -9 -32s-16.333 -9 -31 -9h-134c-15.333 0 -26 3 -32 9s-9 16.667 -9 32zM736.998 1311v133c0 15.333 3.16699 26 9.5 32s16.833 9 31.5 9h133c15.333 0 26 -3.16699 32 -9.5s9 -16.833 9 -31.5v-133c0 -15.333 -3 -26 -9 -32s-16.667 -9 -32 -9h-133
c-15.333 0 -26 3 -32 9s-9 16.667 -9 32z" />
    <glyph glyph-name="aring" unicode="&#xe5;" horiz-adv-x="1290" 
d="M123 317.5c0 107.667 39.499 192.666 118.499 254.999s189.5 93.5 331.5 93.5h349v10c0 204.667 -102.667 307 -308 307c-64 0 -118.5 -15.333 -163.5 -46s-75.833 -70 -92.5 -118c-4 -13.333 -12 -20 -24 -20h-129c-15.333 0 -22.333 6.66699 -21 20
c10.667 92.667 54.667 167 132 223s176.666 84 297.999 84c158.667 0 280.334 -39.167 365.001 -117.5s127 -189.166 127 -332.499v-656c0 -13.333 -7 -20 -21 -20h-112c-13.333 0 -21 6.66699 -23 20l-18 113c-8 -12.667 -25.667 -30.167 -53 -52.5
s-54.666 -40.5 -81.999 -54.5c-72 -38 -153.333 -57 -244 -57c-132.667 0 -237.5 31.167 -314.5 93.5s-115.5 147.333 -115.5 255zM306.999 316.999c0 -66.667 22.166 -117.33 66.499 -151.997s107.5 -52 189.5 -52c44 0 86.5 7.5 127.5 22.5s74.667 32.667 101 53
s49.833 41.166 70.5 62.499s35.834 39.166 45.501 53.499s14.5 22.166 14.5 23.499v194h-349c-177.333 0 -266 -68.333 -266 -205zM388.998 1413c0 66.667 22.833 120.834 68.5 162.501s104.667 62.5 177 62.5s131.5 -20.833 177.5 -62.5s69 -95.834 69 -162.501
s-23 -120.834 -69 -162.501s-105.167 -62.5 -177.5 -62.5s-131.333 20.833 -177 62.5s-68.5 95.834 -68.5 162.501zM521.998 1413c0 -30 11.333 -56.333 34 -79s49 -34 79 -34s56.333 11.333 79 34s34 49 34 79s-11.333 56.333 -34 79s-49 34 -79 34
s-56.333 -11.333 -79 -34s-34 -49 -34 -79z" />
    <glyph glyph-name="ae" unicode="&#xe6;" horiz-adv-x="2089" 
d="M238.5 61.5c-77 61.667 -115.501 144.001 -115.501 247.001s39.5 184.833 118.5 245.5s189.5 91 331.5 91h349v31c0 204.667 -102.667 307 -308 307c-64 0 -118.5 -15.333 -163.5 -46s-75.833 -70 -92.5 -118c-4 -13.333 -12 -20 -24 -20h-129
c-15.333 0 -22.333 6.66699 -21 20c11.333 92.667 55.5 167 132.5 223s176.167 84 297.5 84c188.667 0 328.667 -71.667 420 -215c91.333 143.333 231.333 215 420 215c147.333 0 269.5 -47.667 366.5 -143s145.5 -225 145.5 -389v-51c0 -27.333 -13.667 -41 -41 -41h-819
c9.33301 -131.333 44.833 -229.333 106.5 -294s135.5 -97 221.5 -97c150 0 259 61.333 327 184c8.66699 13.333 17 20 25 20h129c18 0 24.667 -8 20 -24c-27.333 -98.667 -83.333 -177.334 -168 -236.001s-195.667 -88 -333 -88c-194 0 -336 76.667 -426 230
c-25.333 -34 -63.666 -70.667 -114.999 -110c-100 -78.667 -214.833 -118 -344.5 -118s-233 30.833 -310 92.5zM562.999 113.001c44 0 86.499 7.50195 127.499 22.502s74.667 32.667 101 53s49.833 41.166 70.5 62.499s35.834 39.166 45.501 53.499s14.5 22.166 14.5 23.499
v174h-349c-86 0 -151.833 -17.167 -197.5 -51.5s-68.5 -82.166 -68.5 -143.499s22.167 -109 66.5 -143s107.5 -51 189.5 -51zM1106 645.003h675.999c-5.33301 98.667 -41.166 179.667 -107.499 243s-142.833 95 -229.5 95s-162.5 -29.333 -227.5 -88
s-102.167 -142 -111.5 -250z" />
    <glyph glyph-name="ccedilla" unicode="&#xe7;" horiz-adv-x="1282" 
d="M233.5 163c-73.667 97.333 -110.497 232.668 -110.497 406.001s48.833 309.5 146.5 408.5s220.167 148.5 367.5 148.5s262.666 -30.333 345.999 -91s138 -145 164 -253c4 -16.667 -3 -24.667 -21 -24h-129c-9.33301 0 -17.333 6.66699 -24 20
c-62.667 136.667 -168.667 205 -318 205c-104 0 -188 -36.167 -252 -108.5s-96 -180.5 -96 -324.5s32.167 -252.833 96.5 -326.5s143.166 -110.5 236.499 -110.5s165.666 17 216.999 51s93.333 85 126 153c6.66699 13.333 15 20.333 25 21h129c18 0 24.667 -8.33301 20 -25
c-56 -224 -216.333 -338.667 -481 -344v-51c79.333 0 140.166 -17.333 182.499 -52s63.5 -79 63.5 -133s-22.667 -98.167 -68 -132.5s-111.666 -51.5 -198.999 -51.5h-133c-13.333 0 -20 7 -20 21v72c0 13.333 6.66699 20 20 20h133c82 0 123 23.833 123 71.5
s-34 71.5 -102 71.5h-123c-13.333 0 -20.333 7 -21 21v156c-125.333 23.333 -224.833 83.666 -298.5 180.999z" />
    <glyph glyph-name="egrave" unicode="&#xe8;" 
d="M269.5 118.5c-97.667 101 -146.5 244.668 -146.5 431.001s48.833 329 146.5 428s225.334 148.5 383.001 148.5s286.334 -50.5 386.001 -151.5s149.5 -234.833 149.5 -401.5v-51c0 -27.333 -13.667 -41 -41 -41h-838c11.333 -124 48 -216.667 110 -278
s140.667 -92 236 -92c150.667 0 260 61.333 328 184c8 13.333 16.333 20 25 20h129c17.333 0 24 -8 20 -24c-27.333 -98.667 -83.333 -177.334 -168 -236.001s-201.334 -88 -350.001 -88s-271.834 50.5 -369.501 151.5zM309 625.001h695
c-6 107.333 -42.667 193.833 -110 259.5s-147.5 98.5 -240.5 98.5s-170.833 -30.333 -233.5 -91s-99.667 -149.667 -111 -267zM354 1505c-9.33301 14 -5.66699 21 11 21h184c13.333 0 23.666 -7 30.999 -21l133 -266c6.66699 -13.333 3 -20 -11 -20h-102
c-9.33301 0 -19.666 6.66699 -30.999 20z" />
    <glyph glyph-name="eacute" unicode="&#xe9;" 
d="M269.5 118.5c-97.667 101 -146.5 244.668 -146.5 431.001s48.833 329 146.5 428s225.334 148.5 383.001 148.5s286.334 -50.5 386.001 -151.5s149.5 -234.833 149.5 -401.5v-51c0 -27.333 -13.667 -41 -41 -41h-838c11.333 -124 48 -216.667 110 -278
s140.667 -92 236 -92c150.667 0 260 61.333 328 184c8 13.333 16.333 20 25 20h129c17.333 0 24 -8 20 -24c-27.333 -98.667 -83.333 -177.334 -168 -236.001s-201.334 -88 -350.001 -88s-271.834 50.5 -369.501 151.5zM309 625.001h695
c-6 107.333 -42.667 193.833 -110 259.5s-147.5 98.5 -240.5 98.5s-170.833 -30.333 -233.5 -91s-99.667 -149.667 -111 -267zM578 1239l133 266c6.66699 14 16.667 21 30 21h185c16 0 19.333 -7 10 -21l-215 -266c-10.667 -13.333 -21 -20 -31 -20h-102
c-14 0 -17.333 6.66699 -10 20z" />
    <glyph glyph-name="ecircumflex" unicode="&#xea;" 
d="M269.5 118.5c-97.667 101 -146.5 244.668 -146.5 431.001s48.833 329 146.5 428s225.334 148.5 383.001 148.5s286.334 -50.5 386.001 -151.5s149.5 -234.833 149.5 -401.5v-51c0 -27.333 -13.667 -41 -41 -41h-838c11.333 -124 48 -216.667 110 -278
s140.667 -92 236 -92c150.667 0 260 61.333 328 184c8 13.333 16.333 20 25 20h129c17.333 0 24 -8 20 -24c-27.333 -98.667 -83.333 -177.334 -168 -236.001s-201.334 -88 -350.001 -88s-271.834 50.5 -369.501 151.5zM309 625.001h695
c-6 107.333 -42.667 193.833 -110 259.5s-147.5 98.5 -240.5 98.5s-170.833 -30.333 -233.5 -91s-99.667 -149.667 -111 -267zM354 1237l148.001 225c18 26.667 33 43.667 45 51s24.333 11 37 11h143c22 0 38.5 -6.5 49.5 -19.5s21.833 -27.167 32.5 -42.5l147 -225
c10 -13.333 6.66699 -20 -10 -20h-98c-9.33301 0 -21 6.66699 -35 20l-158 164l-157 -164c-14 -13.333 -25.667 -20 -35 -20h-98c-16.667 0 -20.334 6.66699 -11.001 20z" />
    <glyph glyph-name="edieresis" unicode="&#xeb;" 
d="M269.5 118.5c-97.667 101 -146.5 244.668 -146.5 431.001s48.833 329 146.5 428s225.334 148.5 383.001 148.5s286.334 -50.5 386.001 -151.5s149.5 -234.833 149.5 -401.5v-51c0 -27.333 -13.667 -41 -41 -41h-838c11.333 -124 48 -216.667 110 -278
s140.667 -92 236 -92c150.667 0 260 61.333 328 184c8 13.333 16.333 20 25 20h129c17.333 0 24 -8 20 -24c-27.333 -98.667 -83.333 -177.334 -168 -236.001s-201.334 -88 -350.001 -88s-271.834 50.5 -369.501 151.5zM309 625.001h695
c-6 107.333 -42.667 193.833 -110 259.5s-147.5 98.5 -240.5 98.5s-170.833 -30.333 -233.5 -91s-99.667 -149.667 -111 -267zM492 1485c26.667 0 40 -13.667 40 -41v-133c0 -15.333 -3 -26 -9 -32s-16.333 -9 -31 -9h-134c-14.667 0 -25.167 3 -31.5 9s-9.5 16.667 -9.5 32
v133c0 27.333 13.667 41 41 41h134zM737 1444c0 27.333 13.667 41 41 41h133c15.333 0 26 -3.16699 32 -9.5s9 -16.833 9 -31.5v-133c0 -15.333 -3 -26 -9 -32s-16.667 -9 -32 -9h-133c-14.667 0 -25.167 3 -31.5 9s-9.5 16.667 -9.5 32v133z" />
    <glyph glyph-name="igrave" unicode="&#xec;" horiz-adv-x="602" 
d="M25 1526c-9.33301 13.333 -6 20 10 20h184c13.333 0 23.666 -6.66699 30.999 -20l133 -266c6.66699 -13.333 3.33398 -20.333 -9.99902 -21h-103c-9.33301 0 -19.333 7 -30 21zM213 20v1055c0 13.333 6.66699 20.333 20 21h144c13.333 0 20 -7 20 -21v-1055
c0 -13.333 -6.66699 -20 -20 -20h-144c-13.333 0 -20 6.66699 -20 20z" />
    <glyph glyph-name="iacute" unicode="&#xed;" horiz-adv-x="602" 
d="M205 20v1055c0 14 6.66699 21 20 21h144c13.333 -0.666992 20 -7.66699 20 -21v-1055c0 -13.333 -6.66699 -20 -20 -20h-144c-13.333 0 -20 6.66699 -20 20zM342 1260l132.999 266c6.66699 13.333 17 20 31 20h184c16.667 0 20 -6.66699 10 -20l-215 -266
c-10.667 -13.333 -20.667 -20.333 -30 -21h-103c-13.333 0.666992 -16.666 7.66699 -9.99902 21z" />
    <glyph glyph-name="icircumflex" unicode="&#xee;" horiz-adv-x="610" 
d="M4 1217l147.998 225c18.667 27.333 33.834 44.333 45.501 51s23.5 10 35.5 10h144c23.333 0 40 -6.5 50 -19.5l32 -41.5l147 -225c9.33301 -13.333 6 -20.333 -10 -21h-98c-9.33301 0 -21 7 -35 21l-158 163l-158 -163c-13.333 -13.333 -24.666 -20.333 -33.999 -21h-99
c-16 0.666992 -19.333 7.66699 -10 21zM212.998 20v1055c0 13.333 6.66699 20.333 20 21h144c13.333 0 20 -7 20 -21v-1055c0 -13.333 -6.66699 -20 -20 -20h-144c-13.333 0 -20 6.66699 -20 20z" />
    <glyph glyph-name="idieresis" unicode="&#xef;" horiz-adv-x="655" 
d="M10 1270v133c0 15.333 3.16699 26 9.5 32s16.833 9 31.5 9h133c15.333 0 26 -3.16699 32 -9.5s9 -16.833 9 -31.5v-133c0 -15.333 -3 -26 -9 -32s-16.667 -9 -32 -9h-133c-15.333 0 -26 3 -32 9s-9 16.667 -9 32zM236 20v1055c0 13.333 6.66699 20.333 20 21h143
c13.333 0 20.333 -7 21 -21v-1055c0 -13.333 -7 -20 -21 -20h-143c-13.333 0 -20 6.66699 -20 20zM430 1270v133c0 15.333 3.16699 26 9.5 32s16.833 9 31.5 9h133c15.333 0 26 -3.16699 32 -9.5s9 -16.833 9 -31.5v-133c0 -15.333 -3 -26 -9 -32s-16.667 -9 -32 -9h-133
c-15.333 0 -26 3 -32 9s-9 16.667 -9 32z" />
    <glyph glyph-name="eth" unicode="&#xf0;" 
d="M271.5 109.5c-99 93.667 -148.498 219.664 -148.498 377.997s48.5 284 145.5 377s219.167 139.5 366.5 139.5c126.667 0 233.667 -37.333 321 -112c20.667 -17.333 35 -32 43 -44l15 -19c-11.333 170.667 -81.666 304.667 -210.999 402l-129 -154
c-6.66699 -9.33301 -16.334 -10 -29.001 -2l-61 53c-11.333 8.66699 -12 18.334 -2 29.001l110 133c-54.667 20.667 -121.334 31 -200.001 31h-41c-14 0 -21 6.66699 -21 20v103c0 13.333 7 20 21 20h41c117.333 0 217.666 -18.333 300.999 -55l135 160
c6.66699 10.667 16 11.334 28 2.00098l62 -53c12 -6 12.667 -15.667 2 -29l-121 -143c192.667 -145.333 289 -375.666 289 -690.999v-123c0 -178.667 -49.167 -317.167 -147.5 -415.5s-226.333 -147.5 -384 -147.5s-286 46.833 -385 140.5zM405.502 761.997
c-65.667 -65.333 -98.501 -156.5 -98.501 -273.5s32.833 -208.833 98.5 -275.5s149 -100 250 -100s184.333 33.333 250 100s98.5 159.167 98.5 277.5s-31.167 209.5 -93.5 273.5s-145.666 96 -249.999 96s-189.333 -32.667 -255 -98z" />
    <glyph glyph-name="ntilde" unicode="&#xf1;" horiz-adv-x="1393" 
d="M205 20l-0.00195312 1055c0 14 6.66699 21 20 21h113c13.333 0 20.666 -7 21.999 -21l19 -112l18 20c92 95.333 206.167 143 342.5 143s248.5 -42.667 336.5 -128s132 -203 132 -353v-625c0 -13.333 -6.66699 -20 -20 -20h-144c-13.333 0 -20 6.66699 -20 20v625
c0 108 -28 191.333 -84 250s-127 88 -213 88c-39.333 0 -78.166 -7.5 -116.499 -22.5s-70.166 -32.667 -95.499 -53s-52.666 -46.333 -81.999 -78s-44 -52.167 -44 -61.5v-748c0 -13.333 -6.66699 -20 -20 -20h-144c-13.333 0 -20 6.66699 -20 20zM392.998 1264
c19.333 168 84.334 252 195.001 252c48 0 104 -33.333 168 -100c21.333 -22.667 40.333 -34 57 -34c38 0 64 34.333 78 103c1.33301 13.333 9.33301 20 24 20h82c16.667 0 23.667 -8 21 -24c-19.333 -168 -84.333 -252 -195 -252c-48.667 0 -104.334 33 -167.001 99
c-22 22.667 -41.333 34 -58 34c-38 0 -64 -34 -78 -102c-1.33301 -14 -9.33301 -21 -24 -21h-82c-16.667 0 -23.667 8.33301 -21 25z" />
    <glyph glyph-name="ograve" unicode="&#xf2;" 
d="M269.5 119.5c-97.667 100.333 -146.5 243.666 -146.5 429.999s48.833 329 146.5 428s226.334 148.5 386.001 148.5s288.334 -49.5 386.001 -148.5s146.5 -241.667 146.5 -428s-48.833 -329.666 -146.5 -429.999s-226.334 -150.5 -386.001 -150.5
s-288.334 50.167 -386.001 150.5zM403.5 874.5c-64.333 -72.333 -96.5 -180.5 -96.5 -324.5s32.167 -252.833 96.5 -326.5s148.333 -110.5 252 -110.5s187.667 36.833 252 110.5s96.5 182.5 96.5 326.5s-32.167 252.167 -96.5 324.5s-148.333 108.5 -252 108.5
s-187.667 -36.167 -252 -108.5zM354 1505c-9.33301 14 -5.66699 21 11 21h184c13.333 0 23.666 -7 30.999 -21l133 -266c6.66699 -13.333 3 -20 -11 -20h-102c-9.33301 0 -19.666 6.66699 -30.999 20z" />
    <glyph glyph-name="oacute" unicode="&#xf3;" 
d="M269.5 119.5c-97.667 100.333 -146.5 243.666 -146.5 429.999s48.833 329 146.5 428s226.334 148.5 386.001 148.5s288.334 -49.5 386.001 -148.5s146.5 -241.667 146.5 -428s-48.833 -329.666 -146.5 -429.999s-226.334 -150.5 -386.001 -150.5
s-288.334 50.167 -386.001 150.5zM403.5 874.5c-64.333 -72.333 -96.5 -180.5 -96.5 -324.5s32.167 -252.833 96.5 -326.5s148.333 -110.5 252 -110.5s187.667 36.833 252 110.5s96.5 182.5 96.5 326.5s-32.167 252.167 -96.5 324.5s-148.333 108.5 -252 108.5
s-187.667 -36.167 -252 -108.5zM557 1239l132.999 266c6.66699 14 17 21 31 21h184c16.667 0 20 -7 10 -21l-215 -266c-10.667 -13.333 -20.667 -20 -30 -20h-103c-13.333 0 -16.666 6.66699 -9.99902 20z" />
    <glyph glyph-name="ocircumflex" unicode="&#xf4;" 
d="M269.5 119.5c-97.667 100.333 -146.5 243.666 -146.5 429.999s48.833 329 146.5 428s226.334 148.5 386.001 148.5s288.334 -49.5 386.001 -148.5s146.5 -241.667 146.5 -428s-48.833 -329.666 -146.5 -429.999s-226.334 -150.5 -386.001 -150.5
s-288.334 50.167 -386.001 150.5zM403.5 874.5c-64.333 -72.333 -96.5 -180.5 -96.5 -324.5s32.167 -252.833 96.5 -326.5s148.333 -110.5 252 -110.5s187.667 36.833 252 110.5s96.5 182.5 96.5 326.5s-32.167 252.167 -96.5 324.5s-148.333 108.5 -252 108.5
s-187.667 -36.167 -252 -108.5zM354 1237l148.001 225c18 26.667 33 43.667 45 51s24.333 11 37 11h143c22 0 38.5 -6.5 49.5 -19.5s21.833 -27.167 32.5 -42.5l147 -225c10 -13.333 6.66699 -20 -10 -20h-98c-9.33301 0 -21 6.66699 -35 20l-158 164l-157 -164
c-14 -13.333 -25.667 -20 -35 -20h-98c-16.667 0 -20.334 6.66699 -11.001 20z" />
    <glyph glyph-name="otilde" unicode="&#xf5;" 
d="M269.5 119.5c-97.667 100.333 -146.5 243.666 -146.5 429.999s48.833 329 146.5 428s226.334 148.5 386.001 148.5s288.334 -49.5 386.001 -148.5s146.5 -241.667 146.5 -428s-48.833 -329.666 -146.5 -429.999s-226.334 -150.5 -386.001 -150.5
s-288.334 50.167 -386.001 150.5zM403.5 874.5c-64.333 -72.333 -96.5 -180.5 -96.5 -324.5s32.167 -252.833 96.5 -326.5s148.333 -110.5 252 -110.5s187.667 36.833 252 110.5s96.5 182.5 96.5 326.5s-32.167 252.167 -96.5 324.5s-148.333 108.5 -252 108.5
s-187.667 -36.167 -252 -108.5zM342 1264c19.333 168 84.332 252 194.999 252c48 0 103.667 -33.333 167 -100c22 -22.667 41.333 -34 58 -34c38 0 64 34.333 78 103c1.33301 13.333 9.33301 20 24 20h82c16.667 0 23.667 -8 21 -24c-19.333 -168 -84.333 -252 -195 -252
c-48 0 -104 33 -168 99c-22 22.667 -41 34 -57 34c-38.667 0 -64.667 -34 -78 -102c-1.33301 -14 -9.66602 -21 -24.999 -21h-82c-16 0 -22.667 8.33301 -20 25z" />
    <glyph glyph-name="odieresis" unicode="&#xf6;" 
d="M269.5 119.5c-97.667 100.333 -146.5 243.666 -146.5 429.999s48.833 329 146.5 428s226.334 148.5 386.001 148.5s288.334 -49.5 386.001 -148.5s146.5 -241.667 146.5 -428s-48.833 -329.666 -146.5 -429.999s-226.334 -150.5 -386.001 -150.5
s-288.334 50.167 -386.001 150.5zM403.5 874.5c-64.333 -72.333 -96.5 -180.5 -96.5 -324.5s32.167 -252.833 96.5 -326.5s148.333 -110.5 252 -110.5s187.667 36.833 252 110.5s96.5 182.5 96.5 326.5s-32.167 252.167 -96.5 324.5s-148.333 108.5 -252 108.5
s-187.667 -36.167 -252 -108.5zM338 1311v133c0 14.667 3 25.167 9 31.5s16.667 9.5 32 9.5h133c15.333 0 26 -3.16699 32 -9.5s9 -16.833 9 -31.5v-133c0 -15.333 -3 -26 -9 -32s-16.667 -9 -32 -9h-133c-15.333 0 -26 3 -32 9s-9 16.667 -9 32zM932 1485
c27.333 0 41 -13.667 41 -41v-133c0 -15.333 -3.16699 -26 -9.5 -32s-16.833 -9 -31.5 -9h-133c-15.333 0 -26 3 -32 9s-9 16.667 -9 32v133c0 14.667 3 25.167 9 31.5s16.667 9.5 32 9.5h133z" />
    <glyph glyph-name="divide" unicode="&#xf7;" horiz-adv-x="1176" 
d="M82 645v103c0 13.333 6.66699 20 20 20h961c13.333 0 20 -6.66699 20 -20v-103c0 -13.333 -6.66699 -20 -20 -20h-961c-13.333 0 -20 6.66699 -20 20zM516 184c-27.333 0 -41 13.667 -41 41v133c0 15.333 3.16699 26 9.5 32s16.833 9 31.5 9h133c15.333 0 26 -3 32 -9
s9 -16.667 9 -32v-133c0 -14.667 -3 -25.167 -9 -31.5s-16.667 -9.5 -32 -9.5h-133zM516 993c-27.333 0 -41 13.667 -41 41v133c0 15.333 3.16699 26 9.5 32s16.833 9 31.5 9h133c15.333 0 26 -3 32 -9s9 -16.667 9 -32v-133c0 -14.667 -3 -25.167 -9 -31.5
s-16.667 -9.5 -32 -9.5h-133z" />
    <glyph glyph-name="oslash" unicode="&#xf8;" 
d="M301 88c-118.667 104 -177.999 253.501 -177.999 448.501s48.833 342 146.5 441s226.167 148.5 385.5 148.5c66.667 0 129 -10 187 -30l28 -11l11 21c6.66699 13.333 16.667 20 30 20h144c13.333 0 16.666 -6.66699 9.99902 -20l-57 -98
c120 -102.667 180 -251.334 180 -446.001s-48.833 -342.167 -146.5 -442.5s-226.5 -150.5 -386.5 -150.5c-64 0 -126 10.333 -186 31l-29 10l-10 -20c-6.66699 -14 -17 -21 -31 -21h-143c-16.667 0 -20 7 -10 21zM403.501 874.501
c-64.333 -72.333 -96.501 -176.833 -96.501 -313.5s27.333 -243 82 -319l406 712c-45.333 19.333 -92 29 -140 29c-103.333 0 -187.166 -36.167 -251.499 -108.5zM516 139.001c41.333 -17.333 87.667 -26 139 -26c104 0 188.167 36.833 252.5 110.5s96.5 178.667 96.5 315
s-27.333 241.5 -82 315.5z" />
    <glyph glyph-name="ugrave" unicode="&#xf9;" horiz-adv-x="1413" 
d="M205 451v624.001c0 13.333 6.66699 20.333 20 21h144c13.333 0 20 -7 20 -21v-624c0 -108 28 -191.333 84 -250s127 -88 213 -88c39.333 0 78.166 7.5 116.499 22.5s70.166 32.667 95.499 53s48 41.166 68 62.499c38.667 42 58 67.667 58 77v747
c0 13.333 6.66699 20.333 20 21h144c13.333 0 20 -7 20 -21v-1055c0 -13.333 -6.66699 -20 -20 -20h-113c-13.333 0 -20.666 6.66699 -21.999 20l-19 113c-8.66699 -13.333 -26.167 -31 -52.5 -53s-52.166 -40 -77.499 -54c-66.667 -38 -142.667 -57 -228 -57
c-138 0 -251 42.833 -339 128.5s-132 203.5 -132 353.5zM426 1495c-9.33301 13.333 -6.00195 20.333 9.99805 21h185c13.333 0 23.333 -7 30 -21l133 -266c6.66699 -13.333 3.33398 -20.333 -9.99902 -21h-102c-9.33301 0 -19.666 7 -30.999 21z" />
    <glyph glyph-name="uacute" unicode="&#xfa;" horiz-adv-x="1413" 
d="M205 451v624.001c0 13.333 6.66699 20.333 20 21h144c13.333 0 20 -7 20 -21v-624c0 -108 28 -191.333 84 -250s127 -88 213 -88c39.333 0 78.166 7.5 116.499 22.5s70.166 32.667 95.499 53s48 41.166 68 62.499c38.667 42 58 67.667 58 77v747
c0 13.333 6.66699 20.333 20 21h144c13.333 0 20 -7 20 -21v-1055c0 -13.333 -6.66699 -20 -20 -20h-113c-13.333 0 -20.666 6.66699 -21.999 20l-19 113c-8.66699 -13.333 -26.167 -31 -52.5 -53s-52.166 -40 -77.499 -54c-66.667 -38 -142.667 -57 -228 -57
c-138 0 -251 42.833 -339 128.5s-132 203.5 -132 353.5zM608 1229l132.998 266c6.66699 13.333 17 20.333 31 21h184c16.667 0 20.334 -7 11.001 -21l-215 -266c-10.667 -13.333 -21 -20.333 -31 -21h-103c-13.333 0.666992 -16.666 7.66699 -9.99902 21z" />
    <glyph glyph-name="ucircumflex" unicode="&#xfb;" horiz-adv-x="1413" 
d="M205 451v624.001c0 13.333 6.66699 20.333 20 21h144c13.333 0 20 -7 20 -21v-624c0 -108 28 -191.333 84 -250s127 -88 213 -88c39.333 0 78.166 7.5 116.499 22.5s70.166 32.667 95.499 53s48 41.166 68 62.499c38.667 42 58 67.667 58 77v747
c0 13.333 6.66699 20.333 20 21h144c13.333 0 20 -7 20 -21v-1055c0 -13.333 -6.66699 -20 -20 -20h-113c-13.333 0 -20.666 6.66699 -21.999 20l-19 113c-8.66699 -13.333 -26.167 -31 -52.5 -53s-52.166 -40 -77.499 -54c-66.667 -38 -142.667 -57 -228 -57
c-138 0 -251 42.833 -339 128.5s-132 203.5 -132 353.5zM395 1229l147.999 225c18.667 27.333 33.834 44.5 45.501 51.5s23.834 10.5 36.501 10.5h143c22 0 38.5 -6.5 49.5 -19.5s21.833 -27.167 32.5 -42.5l147 -225c9.33301 -13.333 6 -20.333 -10 -21h-98
c-9.33301 0 -21 7 -35 21l-158 164l-157 -164c-13.333 -13.333 -25 -20.333 -35 -21h-98c-16.667 0.666992 -20.334 7.66699 -11.001 21z" />
    <glyph glyph-name="udieresis" unicode="&#xfc;" horiz-adv-x="1413" 
d="M205 451v624.001c0 13.333 6.66699 20.333 20 21h144c13.333 0 20 -7 20 -21v-624c0 -108 28 -191.333 84 -250s127 -88 213 -88c39.333 0 78.166 7.5 116.499 22.5s70.166 32.667 95.499 53s48 41.166 68 62.499c38.667 42 58 67.667 58 77v747
c0 13.333 6.66699 20.333 20 21h144c13.333 0 20 -7 20 -21v-1055c0 -13.333 -6.66699 -20 -20 -20h-113c-13.333 0 -20.666 6.66699 -21.999 20l-19 113c-8.66699 -13.333 -26.167 -31 -52.5 -53s-52.166 -40 -77.499 -54c-66.667 -38 -142.667 -57 -228 -57
c-138 0 -251 42.833 -339 128.5s-132 203.5 -132 353.5zM389 1290v133c0 15.333 3.16699 26 9.5 32s16.833 9 31.5 9h133c15.333 0 26 -3 32 -9s9 -16.667 9 -32v-133c0 -15.333 -3 -26 -9 -32s-16.667 -9 -32 -9h-133c-15.333 0 -26 3 -32 9s-9 16.667 -9 32zM809 1290v133
c0 15.333 3 26 9 32s16.667 9 32 9h133c15.333 0 26 -3 32 -9s9 -16.667 9 -32v-133c0 -15.333 -3 -26 -9 -32s-16.667 -9 -32 -9h-133c-15.333 0 -26 3 -32 9s-9 16.667 -9 32z" />
    <glyph glyph-name="yacute" unicode="&#xfd;" horiz-adv-x="1180" 
d="M43 1075c-5.33301 14 -0.000976562 20.999 15.999 20.999h138c16 0 26 -7 30 -21l228 -655c30 -84.667 64.333 -145.167 103 -181.5s91.667 -54.5 159 -54.5l235 891c4 14 14.333 21 31 21h137c15.333 0 21 -7 17 -21l-273 -1034
c-38 -143.333 -88.5 -247.5 -151.5 -312.5s-145.5 -97.5 -247.5 -97.5c-71.333 0 -137 10.333 -197 31l-28 10c-14 7.33301 -21 16.333 -21 27v100c0 16.667 7 22.334 21 17.001c68 -27.333 134.833 -41 200.5 -41s115.834 19 150.501 57s64.334 107.667 89.001 209
c-106.667 0 -189.334 28 -248.001 84s-112.667 155 -162 297zM531.999 1229l133.999 266c6.66699 14 16.667 21 30 21h185c16 0 19.333 -7 10 -21l-215 -266c-11.333 -14 -21.666 -21 -30.999 -21h-102c-14 0 -17.667 7 -11 21z" />
    <glyph glyph-name="thorn" unicode="&#xfe;" horiz-adv-x="1341" 
d="M205 -317v1732c0 13.333 6.66699 20.333 20 21h144c13.333 0 20 -7 20 -21v-442l17 16c91.333 91.333 195 137 311 137c146 0 266.167 -49.5 360.5 -148.5s141.5 -242.667 141.5 -431s-47.167 -331.666 -141.5 -429.999s-214.5 -147.5 -360.5 -147.5
c-57.333 0 -113.333 12.667 -168 38s-95 51 -121 77l-39 39v-440c0 -13.333 -6.66699 -20.333 -20 -21h-144c-13.333 0.666992 -20 7.66699 -20 21zM389 327.999c0 -7.33301 13.999 -27.332 41.999 -59.999s54.333 -59.334 79 -80.001c61.333 -50 127 -75 197 -75
c96.667 0 175.334 36.167 236.001 108.5s91 180.5 91 324.5s-30 252.833 -90 326.5s-139 110.5 -237 110.5c-95.333 0 -182.333 -46 -261 -138c-38 -44 -57 -69.667 -57 -77v-440z" />
    <glyph glyph-name="ydieresis" unicode="&#xff;" horiz-adv-x="1180" 
d="M43 1075c-5.33301 14 -0.000976562 20.999 15.999 20.999h138c16 0 26 -7 30 -21l228 -655c30 -84.667 64.333 -145.167 103 -181.5s91.667 -54.5 159 -54.5l235 891c4 14 14.333 21 31 21h137c15.333 0 21 -7 17 -21l-273 -1034
c-38 -143.333 -88.5 -247.5 -151.5 -312.5s-145.5 -97.5 -247.5 -97.5c-71.333 0 -137 10.333 -197 31l-28 10c-14 7.33301 -21 16.333 -21 27v100c0 16.667 7 22.334 21 17.001c68 -27.333 134.833 -41 200.5 -41s115.834 19 150.501 57s64.334 107.667 89.001 209
c-106.667 0 -189.334 28 -248.001 84s-112.667 155 -162 297zM466.999 1485c27.333 0 41 -13.667 41 -41v-133c0 -15.333 -3.16699 -26 -9.5 -32s-16.833 -9 -31.5 -9h-133c-15.333 0 -26 3 -32 9s-9 16.667 -9 32v133c0 14.667 3 25.167 9 31.5s16.667 9.5 32 9.5h133z
M886.999 1485c27.333 0 41 -13.667 41 -41v-133c0 -15.333 -3.16699 -26 -9.5 -32s-16.833 -9 -31.5 -9h-133c-15.333 0 -26 3 -32 9s-9 16.667 -9 32v133c0 14.667 3 25.167 9 31.5s16.667 9.5 32 9.5h133z" />
    <glyph glyph-name="hbar" unicode="&#x127;" horiz-adv-x="1352" 
d="M0 1116l-0.000976562 103c0 13.333 6.66699 20 20 20h185v174c0 14 6.66699 21 20 21h144c13.333 0 20 -7 20 -21v-174h336c13.333 0 20 -6.66699 20 -20v-103c0 -13.333 -6.66699 -20 -20 -20h-336v-308c4.66699 8 20.834 23.333 48.501 46s54.167 40.667 79.5 54
c66 36 139.333 54 220 54c138 0 251 -42.667 339 -128s132 -203 132 -353v-441c0 -13.333 -6.66699 -20 -20 -20h-144c-13.333 0 -20 6.66699 -20 20v441c0 108 -28 191.333 -84 250s-127 88 -213 88c-60 0 -118.333 -16.833 -175 -50.5s-98 -65.167 -124 -94.5
s-39 -46 -39 -50v-584c0 -13.333 -6.66699 -20 -20 -20h-144c-13.333 0 -20 6.66699 -20 20v1076h-185c-13.333 0 -20 6.66699 -20 20z" />
    <glyph glyph-name="Itilde" unicode="&#x128;" horiz-adv-x="588" 
d="M-18 1561c18.667 167.333 83.3369 251 194.004 251c32.667 0 63.334 -11.167 92.001 -33.5s54 -44.5 76 -66.5s41 -33 57 -33c38.667 0 64.667 34.333 78 103c1.33301 13.333 9.66602 20 24.999 20h82c16 0 22.667 -8 20 -24c-18.667 -168 -83.334 -252 -194.001 -252
c-33.333 0 -64.333 11.167 -93 33.5s-53.834 44.5 -75.501 66.5s-40.834 33 -57.501 33c-38 0 -63.667 -34.333 -77 -103c-2 -13.333 -10.333 -20 -25 -20h-82c-16.667 0 -23.334 8.33301 -20.001 25zM201.003 20v1393c0 14 6.66699 21 20 21h144c13.333 0 20 -7 20 -21
v-1393c0 -13.333 -6.66699 -20 -20 -20h-144c-13.333 0 -20 6.66699 -20 20z" />
    <glyph glyph-name="itilde" unicode="&#x129;" horiz-adv-x="629" 
d="M2 1223c19.333 168 84.332 252 194.999 252c48 0 103.667 -33.333 167 -100c22 -22.667 41.333 -34 58 -34c38 0 64 34.333 78 103c1.33301 13.333 9.33301 20 24 20h82c16.667 0 23.667 -8 21 -24c-19.333 -168 -84.333 -252 -195 -252c-48 0 -104 33 -168 99
c-22 22.667 -41 34 -57 34c-38 0 -64 -34 -78 -102c-1.33301 -14 -9.66602 -21 -24.999 -21h-81c-16.667 0 -23.667 8.33301 -21 25zM220.999 20v1055c0 14 7 21 21 21h143c14 0 21 -7 21 -21v-1055c0 -13.333 -7 -20 -21 -20h-143c-14 0 -21 6.66699 -21 20z" />
    <glyph glyph-name="dotlessi" unicode="&#x131;" horiz-adv-x="594" 
d="M205 20v1055c0 14 6.66699 21 20 21h144c13.333 0 20 -7 20 -21v-1055c0 -13.333 -6.66699 -20 -20 -20h-144c-13.333 0 -20 6.66699 -20 20z" />
    <glyph glyph-name="ij" unicode="&#x133;" horiz-adv-x="1178" 
d="M184 1393c0 27.333 13.667 41 41 41h133c15.333 0 26 -3.16699 32 -9.5s9 -16.833 9 -31.5v-133c0 -15.333 -3 -26 -9 -32s-16.667 -9 -32 -9h-133c-14.667 0 -25.167 3 -31.5 9s-9.5 16.667 -9.5 32v133zM199 20v1055c0 14 6.66699 21 20 21h143c14 0 21 -7 21 -21
v-1055c0 -13.333 -7 -20 -21 -20h-143c-13.333 0 -20 6.66699 -20 20zM342 -201c0 16.667 6.66699 22.333 20 17c68.667 -27.333 137 -41 205 -41c150.667 0 226 102.333 226 307v993c0 14 6.66699 21 20 21h143c14 0 21 -7 21 -21v-993
c0 -142 -35.167 -252.667 -105.5 -332s-164.833 -119 -283.5 -119c-71.333 0 -137 10.333 -197 31l-29 10c-13.333 7.33301 -20 16.333 -20 27v100zM778 1393c0 27.333 13.667 41 41 41h133c15.333 0 26 -3.16699 32 -9.5s9 -16.833 9 -31.5v-133c0 -15.333 -3 -26 -9 -32
s-16.667 -9 -32 -9h-133c-14.667 0 -25.167 3 -31.5 9s-9.5 16.667 -9.5 32v133z" />
    <glyph glyph-name="Jcircumflex" unicode="&#x134;" horiz-adv-x="1024" 
d="M41 45l-0.000976562 100c0 16.667 6.66699 22.334 20 17.001c82 -32.667 175 -49 279 -49s182.5 26.167 235.5 78.5s79.5 135.166 79.5 248.499v850h-471c-13.333 0 -20 7 -20 21v102c0 13.333 6.66699 20.333 20 21h635c13.333 0 20.333 -7 21 -21v-973
c0 -146 -41.667 -261 -125 -345s-205.666 -126 -366.999 -126c-109.333 0 -205 16.333 -287 49c-13.333 7.33301 -20 16.333 -20 27zM200.999 1567l147 225c28 40.667 55.333 61 82 61h143c24 0 41 -6.33301 51 -19s20.333 -26.667 31 -42l148 -225
c9.33301 -13.333 6 -20.333 -10 -21h-99c-9.33301 0 -21 7 -35 21l-157 164l-158 -164c-13.333 -13.333 -25 -20.333 -35 -21h-98c-16 0.666992 -19.333 7.66699 -10 21z" />
    <glyph glyph-name="jcircumflex" unicode="&#x135;" horiz-adv-x="664" 
d="M-184 -201c0 16.667 6.66602 22.333 19.999 17c68.667 -27.333 137 -41 205 -41c150 0 225 102.333 225 307v993c0 14 7 21 21 21h143c14 0 21 -7 21 -21v-993c0 -142 -35.167 -252.667 -105.5 -332s-165.166 -119 -284.499 -119c-70.667 0 -136 10.333 -196 31l-29 10
c-13.333 7.33301 -20 16.333 -20 27v100zM56.999 1188l148.001 225c18 26.667 33 43.667 45 51s24.333 11 37 11h143c22 0 38.5 -6.5 49.5 -19.5s21.833 -27.167 32.5 -42.5l147 -225c10 -14 6.66699 -21 -10 -21h-98c-9.33301 0 -21 7 -35 21l-158 164l-157 -164
c-14 -14 -25.667 -21 -35 -21h-98c-16.667 0 -20.334 7 -11.001 21z" />
    <glyph glyph-name="kcedilla" unicode="&#x137;" horiz-adv-x="1243" 
d="M205 20v1393c0 14 6.66699 21 20 21h144c13.333 0 20 -7 20 -21v-788h103c111.333 0 200 51 266 153l186 297c9.33301 14 19.666 21 30.999 21h158c20 0 24.667 -8.33301 14 -25l-195 -313c-70.667 -113.333 -156 -178.333 -256 -195
c104 -14.667 196.333 -86.334 277 -215.001l203 -323c10.667 -16.667 5.66699 -25 -15 -25h-157c-11.333 0 -21.666 6.66699 -30.999 20l-195 308c-65.333 102 -154 153 -266 153h-123v-461c0 -13.333 -6.66699 -20 -20 -20h-144c-13.333 0 -20 6.66699 -20 20zM539 -40.999
c0 15.333 3 26 9 32s16.667 9 32 9h133c14.667 0 25.167 -3 31.5 -9s9.5 -16.667 9.5 -32v-123c0 -24.667 -7 -48.667 -21 -72l-112 -194h-82l94 215h-53c-15.333 0 -26 3 -32 9s-9 16.667 -9 32v133z" />
    <glyph glyph-name="kgreenlandic" unicode="&#x138;" horiz-adv-x="1243" 
d="M205 20v1055c0 13.333 6.66699 20.333 20 21h144c13.333 0 20 -7 20 -21v-450h103c112 0 200.667 51 266 153l186 297c9.33301 13.333 19.666 20.333 30.999 21h158c20.667 0 25.334 -8.33301 14.001 -25l-195 -313c-70.667 -113.333 -156 -178.333 -256 -195
c104 -15.333 196.333 -87 277 -215l203 -323c10.667 -16.667 5.66699 -25 -15 -25h-157c-10.667 0 -21 6.66699 -31 20l-195 308c-65.333 102.667 -154 153.667 -266 153h-123v-461c0 -13.333 -6.66699 -20 -20 -20h-144c-13.333 0 -20 6.66699 -20 20z" />
    <glyph glyph-name="ldot" unicode="&#x140;" horiz-adv-x="901" 
d="M205 20v1393c0 13.333 6.66699 20.333 20 21h144c13.333 0 20 -7 20 -21v-1393c0 -13.333 -6.66699 -20 -20 -20h-144c-13.333 0 -20 6.66699 -20 20zM557 651v133c0 15.333 3 26 9 32s16.667 9 32 9h133c15.333 0 26 -3 32 -9s9 -16.667 9 -32v-133
c0 -15.333 -3 -26 -9 -32s-16.667 -9 -32 -9h-133c-15.333 0 -26 3 -32 9s-9 16.667 -9 32z" />
    <glyph glyph-name="Lslash" unicode="&#x141;" horiz-adv-x="1237" 
d="M0 516v121.001c0 12 6.66699 21.667 20 29l185 94v653c0 14 6.66699 21 20 21h144c13.333 0 20 -7 20 -21v-557l225 117c14 6.66699 21 1.66699 21 -15v-120c0 -12.667 -7 -22.334 -21 -29.001l-225 -117v-549h807c14 0 21 -6.66699 21 -20v-103
c0 -13.333 -7 -20 -21 -20h-971c-13.333 0 -20 6.66699 -20 20v576l-185 -94c-13.333 -6.66699 -20 -2 -20 14z" />
    <glyph glyph-name="lslash" unicode="&#x142;" horiz-adv-x="676" 
d="M20 516v121.001c0 12 7 21.667 21 29l205 104v643c0 14 6.66699 21 20 21h144c13.333 0 20 -7 20 -21v-547l205 107c13.333 6.66699 20 1.66699 20 -15v-120c0 -12.667 -6.66699 -22.334 -20 -29.001l-205 -107v-682c0 -13.333 -6.66699 -20 -20 -20h-144
c-13.333 0 -20 6.66699 -20 20v586l-205 -104c-14 -6.66699 -21 -2 -21 14z" />
    <glyph glyph-name="Nacute" unicode="&#x143;" horiz-adv-x="1618" 
d="M205 20v1393c0 14 6.66699 21 20 21h144c40.667 0 74.667 -20.667 102 -62l758 -1126v1167c0 14 6.66699 21 20 21h144c13.333 0 20 -7 20 -21v-1393c0 -13.333 -6.66699 -20 -20 -20h-144c-40.667 -0 -74.667 20.333 -102 61l-758 1127v-1168
c0 -13.333 -6.66699 -20 -20 -20h-144c-13.333 0 -20 6.66699 -20 20zM752 1526l133 266c6.66699 13.333 16.667 20 30 20h185c16 0 19.333 -6.66699 10 -20l-215 -266c-10.667 -14 -21 -21 -31 -21h-102c-14 0 -17.333 7 -10 21z" />
    <glyph glyph-name="nacute" unicode="&#x144;" horiz-adv-x="1393" 
d="M205 20l-0.00195312 1055c0 14 6.66699 21 20 21h113c13.333 0 20.666 -7 21.999 -21l19 -112c8 11.333 25.333 28.5 52 51.5s52.667 41.5 78 55.5c65.333 37.333 141.333 56 228 56c138 0 251 -42.667 339 -128s132 -203 132 -353v-625c0 -13.333 -6.66699 -20 -20 -20
h-144c-13.333 0 -20 6.66699 -20 20v625c0 108 -28 191.333 -84 250s-127 88 -213 88c-39.333 0 -78.166 -7.5 -116.499 -22.5s-70.166 -32.667 -95.499 -53s-47.666 -41.166 -66.999 -62.499c-39.333 -42 -59 -67.667 -59 -77v-748c0 -13.333 -6.66699 -20 -20 -20h-144
c-13.333 0 -20 6.66699 -20 20zM648.998 1239l132.998 266c7.33301 14 17.666 21 30.999 21h184c16.667 0 20.334 -7 11.001 -21l-215 -266c-11.333 -13.333 -21.666 -20 -30.999 -20h-103c-13.333 0 -16.666 6.66699 -9.99902 20z" />
    <glyph glyph-name="OE" unicode="&#x152;" horiz-adv-x="2015" 
d="M123 717c0 220 62.5 394.5 187.5 523.5s284.167 193.5 477.5 193.5h1125c13.333 0 20 -7 20 -21v-102c0 -13.333 -6.66699 -20.333 -20 -21h-746v-491h602c13.333 0 20.333 -7 21 -21v-102c0 -13.333 -7 -20.333 -21 -21h-602v-512h746c13.333 0 20 -6.66699 20 -20v-103
c0 -13.333 -6.66699 -20 -20 -20h-1125c-194 0 -353.333 64.5 -478 193.5s-187 303.5 -187 523.5zM307 716.5c0 -185.667 46.167 -327.667 138.5 -426s206.5 -147.5 342.5 -147.5h195v1147h-195c-136.667 0 -251 -49.167 -343 -147.5s-138 -240.333 -138 -426z" />
    <glyph glyph-name="oe" unicode="&#x153;" horiz-adv-x="2150" 
d="M268.5 119.5c-97 100.333 -145.5 243.332 -145.5 428.999s48.5 328.334 145.5 428.001s222.5 149.5 376.5 149.5c195.333 0 338.666 -71.667 429.999 -215c91.333 143.333 238.333 215 441 215c146 0 267.833 -50.833 365.5 -152.5s146.5 -235.167 146.5 -400.5v-51
c0 -27.333 -13.667 -41 -41 -41h-818c10.667 -122.667 46.167 -215 106.5 -277s133.5 -93 219.5 -93c150 0 259.333 61.333 328 184c8 13.333 16 20 24 20h129c18 0 25 -8 21 -24c-27.333 -98 -83.333 -176.5 -168 -235.5s-196 -88.5 -334 -88.5
c-188.667 0 -328.667 71.667 -420 215c-91.333 -142 -234.666 -213 -429.999 -213c-154 0 -279.5 50.167 -376.5 150.5zM402.5 874.499c-63.667 -72.333 -95.5 -180.5 -95.5 -324.5s31.833 -252.833 95.5 -326.5s144.667 -110.5 243 -110.5s179.166 36.833 242.499 110.5
s95 182.5 95 326.5s-31.667 252.167 -95 324.5s-144.166 108.5 -242.499 108.5s-179.333 -36.167 -243 -108.5zM1169 624.999h674.001c-5.33301 108 -40.833 194.667 -106.5 260s-142.334 98 -230.001 98s-163.167 -30.333 -226.5 -91s-100.333 -149.667 -111 -267z" />
    <glyph glyph-name="Racute" unicode="&#x154;" horiz-adv-x="1460" 
d="M205 20l-0.000976562 1393c0 13.333 6.66699 20.333 20 21h574c168 0 298.667 -38.667 392 -116s140 -185.666 140 -324.999c0 -100 -35.833 -186.333 -107.5 -259s-172.167 -119.334 -301.5 -140.001c38 -9.33301 72.333 -26 103 -50s52.834 -44.833 66.501 -62.5
s32.167 -45.167 55.5 -82.5l246 -374c10.667 -16.667 5 -25 -17 -25h-168c-10.667 0 -20.667 6.66699 -30 20l-246 379c-65.333 102.667 -161 154 -287 154h-256v-533c0 -13.333 -6.66699 -20 -20 -20h-144c-13.333 0 -20 6.66699 -20 20zM388.999 696h410.002
c105.333 0 189.666 25.667 252.999 77s95 124.833 95 220.5s-31.833 169 -95.5 220s-147.834 76.5 -252.501 76.5h-410v-594zM631.001 1546l132.999 266c6.66699 13.333 17 20.333 31 21h184c16.667 0 20 -7 10 -21l-215 -266c-10.667 -13.333 -21 -20 -31 -20h-102
c-13.333 0 -16.666 6.66699 -9.99902 20z" />
    <glyph glyph-name="Rcommaaccent" unicode="&#x156;" horiz-adv-x="1460" 
d="M205 20l-0.000976562 1393c0 13.333 6.66699 20.333 20 21h574c168 0 298.667 -38.667 392 -116s140 -185.666 140 -324.999c0 -100 -35.833 -186.333 -107.5 -259s-172.167 -119.334 -301.5 -140.001c38 -9.33301 72.333 -26 103 -50s52.834 -44.833 66.501 -62.5
s32.167 -45.167 55.5 -82.5l246 -374c10.667 -16.667 5 -25 -17 -25h-168c-10.667 0 -20.667 6.66699 -30 20l-246 379c-65.333 102.667 -161 154 -287 154h-256v-533c0 -13.333 -6.66699 -20 -20 -20h-144c-13.333 0 -20 6.66699 -20 20zM388.999 696h410.002
c105.333 0 189.666 25.667 252.999 77s95 124.833 95 220.5s-31.833 169 -95.5 220s-147.834 76.5 -252.501 76.5h-410v-594zM635.001 -41c0 15.333 3 26 9 32s16.667 9 32 9h133c14.667 0 25.167 -3 31.5 -9s9.5 -16.667 9.5 -32v-123
c-0.666992 -24.667 -7.66699 -48.667 -21 -72l-112 -194h-82l94 215h-53c-15.333 0 -26 3 -32 9s-9 16.667 -9 32v133z" />
    <glyph glyph-name="rcommaaccent" unicode="&#x157;" horiz-adv-x="963" 
d="M231 -338c-27.333 0 -41 13.668 -41 41.001v133c0 15.333 3.16699 26 9.5 32s16.833 9 31.5 9h134c14.667 0 25.167 -3 31.5 -9s9.5 -16.667 9.5 -32v-123c0 -24.667 -7 -48.334 -21 -71.001l-113 -195h-82l95 215h-54zM205 20.001l0.00292969 1055
c0 14 6.66699 21 20 21h113c13.333 0 20.666 -7 21.999 -21l19 -174l16 23c7.33301 9.33301 24.166 26.666 50.499 51.999s55.666 47.166 87.999 65.499s75 35.333 128 51s108.833 23.5 167.5 23.5h82c14 0 21 -6.66699 21 -20v-123c0 -14 -7 -21 -21 -21h-61
c-66.667 0 -128 -8.5 -184 -25.5s-100.667 -37.5 -134 -61.5c-67.333 -49.333 -111 -93.333 -131 -132l-12 -26v-687c0 -13.333 -6.66699 -20 -20 -20h-144c-13.333 0 -20 6.66699 -20 20z" />
    <glyph glyph-name="Rcaron" unicode="&#x158;" horiz-adv-x="1460" 
d="M205 20l-0.000976562 1393c0 13.333 6.66699 20.333 20 21h574c168 0 298.667 -38.667 392 -116s140 -185.666 140 -324.999c0 -100 -35.833 -186.333 -107.5 -259s-172.167 -119.334 -301.5 -140.001c38 -9.33301 72.333 -26 103 -50s52.834 -44.833 66.501 -62.5
s32.167 -45.167 55.5 -82.5l246 -374c10.667 -16.667 5 -25 -17 -25h-168c-10.667 0 -20.667 6.66699 -30 20l-246 379c-65.333 102.667 -161 154 -287 154h-256v-533c0 -13.333 -6.66699 -20 -20 -20h-144c-13.333 0 -20 6.66699 -20 20zM388.999 696h410.002
c105.333 0 189.666 25.667 252.999 77s95 124.833 95 220.5s-31.833 169 -95.5 220s-147.834 76.5 -252.501 76.5h-410v-594zM408.001 1812c-9.33301 13.333 -5.99707 20.333 10.0029 21h98c9.33301 0 21 -7 35 -21l158 -163l157 163c13.333 13.333 25 20.333 35 21h98
c16.667 0 20.334 -7 11.001 -21l-148 -225c-18.667 -26.667 -33.834 -43.5 -45.501 -50.5s-23.834 -10.5 -36.501 -10.5h-143c-22.667 0 -39.334 6.5 -50.001 19.5s-21.334 26.833 -32.001 41.5z" />
    <glyph glyph-name="rcaron" unicode="&#x159;" horiz-adv-x="963" 
d="M205 20l0.00292969 1055c0 14 6.66699 21 20 21h113c13.333 0 20.666 -7 21.999 -21l19 -174l16 23c7.33301 9.33301 24.166 26.666 50.499 51.999s55.666 47.166 87.999 65.499s75 35.333 128 51s108.833 23.5 167.5 23.5h82c14 0 21 -6.66699 21 -20v-123
c0 -14 -7 -21 -21 -21h-61c-66.667 0 -128 -8.5 -184 -25.5s-100.667 -37.5 -134 -61.5c-67.333 -49.333 -111 -93.333 -131 -132l-12 -26v-687c0 -13.333 -6.66699 -20 -20 -20h-144c-13.333 0 -20 6.66699 -20 20zM266.003 1495c-9.33301 14 -6.00098 21 9.99902 21h99
c9.33301 0 21 -7 35 -21l157 -164l158 164c13.333 14 25 21 35 21h98c16.667 0 20 -7 10 -21l-147 -225c-28.667 -41.333 -56 -62 -82 -62h-143c-23.333 0 -40.166 6.5 -50.499 19.5s-20.833 27.167 -31.5 42.5z" />
    <glyph glyph-name="Scaron" unicode="&#x160;" horiz-adv-x="1382" 
d="M104 365c-2.66699 16.667 4.33203 24.6641 20.999 23.9971h129c12 0 20.333 -6.66699 25 -20c57.333 -170.667 203.333 -256 438 -256c122.667 0 216.5 21.833 281.5 65.5s97.5 97.834 97.5 162.501s-20.5 116.834 -61.5 156.501s-105.167 71.834 -192.5 96.501l-359 102
c-232 66.667 -348 193 -348 379c0 114.667 48.833 208.167 146.5 280.5s228.5 108.5 392.5 108.5s296.5 -35.167 397.5 -105.5s164.5 -166.833 190.5 -289.5c2.66699 -16.667 -4.33301 -25 -21 -25h-129c-12 0 -20.333 7 -25 21c-57.333 170.667 -193.666 256 -408.999 256
c-113.333 0 -201.5 -21.833 -264.5 -65.5s-94.5 -98.334 -94.5 -164.001s20.5 -117.5 61.5 -155.5s105.833 -70 194.5 -96l359 -103c230.667 -65.333 346 -191.666 346 -378.999c0 -116 -50.167 -209.833 -150.5 -281.5s-237.833 -107.5 -412.5 -107.5s-314 35 -418 105
s-169 167 -195 291zM368.999 1833c-9.33301 13.333 -5.99805 20 10.002 20h98c9.33301 0 21 -6.66699 35 -20l158 -164l157 164c13.333 13.333 25 20 35 20h99c16.667 0 20 -6.66699 10 -20l-148 -225c-18.667 -27.333 -33.834 -44.5 -45.501 -51.5
s-23.834 -10.5 -36.501 -10.5h-143c-22 0 -38.5 6.5 -49.5 19.5s-21.833 27.167 -32.5 42.5z" />
    <glyph glyph-name="scaron" unicode="&#x161;" horiz-adv-x="1210" 
d="M104 293c-4 16.667 3.00293 24.665 21.0029 23.998h129c8 0 16.333 -6.66699 25 -20c68 -122.667 187.333 -184 358 -184c96.667 0 168.667 14.333 216 43s71 64.667 71 108s-16.167 78.833 -48.5 106.5s-87.833 50.834 -166.5 69.501l-256 62
c-218.667 53.333 -328 159 -328 317c0 90 40.667 163.667 122 221s193 86 335 86s256.667 -29.333 344 -88s144.666 -137 171.999 -235c4 -16.667 -3 -25 -21 -25h-129c-8 0 -16 7 -24 21c-68 122.667 -180.667 184 -338 184c-91.333 0 -160.333 -14.667 -207 -44
s-70 -65.5 -70 -108.5s16.167 -78.167 48.5 -105.5s87.833 -50.666 166.5 -69.999l256 -61c218.667 -52 328 -158 328 -318c0 -90 -41.333 -163.667 -124 -221s-198.334 -86 -347.001 -86s-267.834 29 -357.501 87s-148.167 137 -175.5 237zM303.003 1495
c-9.33301 13.333 -5.99902 20.333 10.001 21h99c9.33301 0 20.666 -7 33.999 -21l158 -164l158 164c13.333 13.333 25 20.333 35 21h98c16.667 0 20 -7 10 -21l-147 -225c-28.667 -41.333 -56 -62 -82 -62h-144c-22.667 0 -39.167 6.5 -49.5 19.5s-20.833 27.167 -31.5 42.5
z" />
    <glyph glyph-name="Ydieresis" unicode="&#x178;" horiz-adv-x="1352" 
d="M41 1434h149c18 0 31.667 -7 41 -21l445 -739l444 739c10 14 23.667 21 41 21h150c8 0 13.667 -2.5 17 -7.5s3 -9.5 -1 -13.5l-559 -932v-461c0 -13.333 -6.66699 -20 -20 -20h-144c-13.333 0 -20 6.66699 -20 20v461l-559 932c-4.66699 4 -5.16699 8.5 -1.5 13.5
s9.5 7.5 17.5 7.5zM358 1700c0 27.333 13.667 41 41 41h133c15.333 0 26 -3.16699 32 -9.5s9 -16.833 9 -31.5v-133c0 -15.333 -3 -26 -9 -32s-16.667 -9 -32 -9h-133c-14.667 0 -25.167 3 -31.5 9s-9.5 16.667 -9.5 32v133zM778 1700c0 27.333 13.667 41 41 41h133
c15.333 0 26 -3.16699 32 -9.5s9 -16.833 9 -31.5v-133c0 -15.333 -3 -26 -9 -32s-16.667 -9 -32 -9h-133c-14.667 0 -25.167 3 -31.5 9s-9.5 16.667 -9.5 32v133z" />
    <glyph glyph-name="Zcaron" unicode="&#x17d;" 
d="M102 20v71.999c0 27.333 17.333 65 52 113l839 1085h-870c-14 0 -21 7 -21 21v102c0 14 7 21 21 21h1075c14 0 21 -7 21 -21v-72c0 -27.333 -17.333 -64.666 -52 -111.999l-841 -1086h872c14 0 21 -6.66699 21 -20v-103c0 -13.333 -7 -20 -21 -20h-1075
c-14 0 -21 6.66699 -21 20zM354 1812c-9.33301 14 -5.66504 21 11.002 21h98c9.33301 0 21 -7 35 -21l157 -163l158 163c14 14 25.667 21 35 21h98c16.667 0 20 -7 10 -21l-147 -225c-20 -27.333 -35.667 -44.333 -47 -51s-23 -10 -35 -10h-143
c-22.667 0 -39.334 6.5 -50.001 19.5s-21.334 26.833 -32.001 41.5z" />
    <glyph glyph-name="zcaron" unicode="&#x17e;" horiz-adv-x="1143" 
d="M102 20v93.001c0 14.667 4.33301 26 13 34l690 805h-682c-14 0 -21 7 -21 21v102c0 14 7 21 21 21h897c13.333 0 20 -7 20 -21v-92c0 -14.667 -4 -26.334 -12 -35.001l-694 -805h686c13.333 0 20 -6.66699 20 -20v-103c0 -13.333 -6.66699 -20 -20 -20h-897
c-14 0 -21 6.66699 -21 20zM268 1516c-9.33301 13.333 -5.66504 20 11.002 20h98c9.33301 0 21 -6.66699 35 -20l157 -164l158 164c14 13.333 25.667 20 35 20h98c16.667 0 20 -6.66699 10 -20l-147 -226c-20 -27.333 -35.667 -44.333 -47 -51s-23 -10 -35 -10h-143
c-22.667 0 -39.334 6.5 -50.001 19.5s-21.334 26.833 -32.001 41.5z" />
    <glyph glyph-name="florin" unicode="&#x192;" horiz-adv-x="956" 
d="M-305 -301l15.9971 100c2.66699 16.667 11 22.334 25 17.001c62.667 -27.333 124.334 -41 185.001 -41c129.333 0 209.666 88.667 240.999 266l131 737h-143c-13.333 0 -19.666 7 -18.999 21l19 102c1.33301 13.333 9.33301 20.333 24 21h143l17 92
c24.667 142 79.334 252.5 164.001 331.5s186.334 118.5 305.001 118.5c82 0 154.333 -13.667 217 -41c12 -6.66699 17.333 -15.334 16 -26.001l-18 -101c-2.66699 -18 -10.334 -23.333 -23.001 -16c-64 27.333 -130 41 -198 41c-150 0 -243 -102.333 -279 -307l-16 -92h368
c12 0 17.667 -7 17 -21l-19 -102c-1.33301 -13.333 -8.66602 -20.333 -21.999 -21h-369l-131 -737c-49.333 -273.333 -195.333 -410 -438 -410c-60.667 0 -118 10.333 -172 31l-27 10c-12 7.33301 -16.667 16.333 -14 27z" />
    <glyph glyph-name="circumflex" unicode="&#x2c6;" horiz-adv-x="610" 
d="M4 1147l147.998 225c18.667 27.333 33.834 44.5 45.501 51.5s23.5 10.5 35.5 10.5h144c22.667 0 39.167 -6.5 49.5 -19.5l32.5 -42.5l147 -225c9.33301 -13.333 6 -20.333 -10 -21h-98c-9.33301 0 -21 7 -35 21l-158 164l-158 -164
c-13.333 -13.333 -24.666 -20.333 -33.999 -21h-99c-16 0.666992 -19.333 7.66699 -10 21z" />
    <glyph glyph-name="caron" unicode="&#x2c7;" horiz-adv-x="610" 
d="M4 1413c-9.33301 13.333 -5.99902 20.333 10.001 21h99c9.33301 0 20.666 -7 33.999 -21l158 -164l158 164c13.333 13.333 25 20.333 35 21h98c16.667 0 20 -7 10 -21l-147 -225c-28.667 -41.333 -56 -62 -82 -62h-144c-22.667 0 -39.167 6.5 -49.5 19.5
s-20.833 27.167 -31.5 42.5z" />
    <glyph glyph-name="ring" unicode="&#x2da;" horiz-adv-x="492" 
d="M68 1055c-45.333 42 -68 96.5 -68 163.5s22.833 121.333 68.5 163s104.667 62.5 177 62.5s131.5 -20.833 177.5 -62.5s69 -96 69 -163s-23 -121.333 -69 -163s-105.167 -62.5 -177.5 -62.5s-131.5 20.667 -177.5 62zM246 1331c-30 0 -56.333 -10.833 -79 -32.5
s-34 -48.334 -34 -80.001s11.333 -58.334 34 -80.001s49 -32.5 79 -32.5s56.167 10.833 78.5 32.5s33.5 48.334 33.5 80.001s-11.167 58.334 -33.5 80.001s-48.5 32.5 -78.5 32.5z" />
    <glyph glyph-name="tilde" unicode="&#x2dc;" horiz-adv-x="629" 
d="M2 1161c19.333 168 84.332 252 194.999 252c48.667 0 104.334 -33 167.001 -99c22 -22.667 41.333 -34 58 -34c38 0 64 34 78 102c1.33301 14 9.33301 21 24 21h82c16.667 0 23.667 -8.33301 21 -25c-19.333 -168 -84.333 -252 -195 -252
c-32.667 0 -63.334 11 -92.001 33s-54 44.333 -76 67s-41 34 -57 34c-38 0 -64 -34.333 -78 -103c-1.33301 -13.333 -9.66602 -20 -24.999 -20h-81c-16.667 0 -23.667 8 -21 24z" />
    <glyph glyph-name="endash" unicode="&#x2013;" horiz-adv-x="1229" 
d="M82 604v103c0 13.333 6.66699 20 20 20h1024c14 0 21 -6.66699 21 -20v-103c0 -13.333 -7 -20 -21 -20h-1024c-13.333 0 -20 6.66699 -20 20z" />
    <glyph glyph-name="emdash" unicode="&#x2014;" horiz-adv-x="1546" 
d="M82 604v103c0 13.333 6.66699 20 20 20h1342c13.333 0 20 -6.66699 20 -20v-103c0 -13.333 -6.66699 -20 -20 -20h-1342c-13.333 0 -20 6.66699 -20 20z" />
    <glyph glyph-name="quoteleft" unicode="&#x2018;" horiz-adv-x="502" 
d="M143 1055v123c0 24 7 47.667 21 71l112 195h82l-94 -215h53c15.333 0 26 -3.16699 32 -9.5s9 -16.833 9 -31.5v-133c0 -15.333 -3 -26 -9 -32s-16.667 -9 -32 -9h-133c-14.667 0 -25.167 3 -31.5 9s-9.5 16.667 -9.5 32z" />
    <glyph glyph-name="quoteright" unicode="&#x2019;" horiz-adv-x="502" 
d="M143 1403c0 27.333 13.667 41 41 41h133c15.333 0 26 -3.16699 32 -9.5s9 -16.833 9 -31.5v-123c0 -24.667 -6.66699 -48.667 -20 -72l-113 -194h-82l95 215h-54c-14.667 0 -25.167 3 -31.5 9s-9.5 16.667 -9.5 32v133z" />
    <glyph glyph-name="quotesinglbase" unicode="&#x201a;" horiz-adv-x="502" 
d="M143 164c0 27.333 13.667 41 41 41h133c15.333 0 26 -3.16699 32 -9.5s9 -16.833 9 -31.5v-123c0 -24.667 -6.66699 -48.667 -20 -72l-113 -194h-82l95 215h-54c-14.667 0 -25.167 3 -31.5 9s-9.5 16.667 -9.5 32v133z" />
    <glyph glyph-name="quotedblleft" unicode="&#x201c;" horiz-adv-x="840" 
d="M143 1055v123c0 24 7 47.667 21 71l112 195h82l-94 -215h53c15.333 0 26 -3.16699 32 -9.5s9 -16.833 9 -31.5v-133c0 -15.333 -3 -26 -9 -32s-16.667 -9 -32 -9h-133c-14.667 0 -25.167 3 -31.5 9s-9.5 16.667 -9.5 32zM481 1055v123c0 24 7 47.667 21 71l112 195h82
l-94 -215h53c15.333 0 26 -3.16699 32 -9.5s9 -16.833 9 -31.5v-133c0 -15.333 -3 -26 -9 -32s-16.667 -9 -32 -9h-133c-14.667 0 -25.167 3 -31.5 9s-9.5 16.667 -9.5 32z" />
    <glyph glyph-name="quotedblright" unicode="&#x201d;" horiz-adv-x="840" 
d="M143 1403c0 27.333 13.667 41 41 41h133c15.333 0 26 -3.16699 32 -9.5s9 -16.833 9 -31.5v-123c0 -24.667 -6.66699 -48.667 -20 -72l-113 -194h-82l95 215h-54c-14.667 0 -25.167 3 -31.5 9s-9.5 16.667 -9.5 32v133zM481 1403c0 27.333 13.667 41 41 41h133
c15.333 0 26 -3.16699 32 -9.5s9 -16.833 9 -31.5v-123c0 -24.667 -6.66699 -48.667 -20 -72l-113 -194h-82l94 215h-53c-14.667 0 -25.167 3 -31.5 9s-9.5 16.667 -9.5 32v133z" />
    <glyph glyph-name="quotedblbase" unicode="&#x201e;" horiz-adv-x="840" 
d="M143 164c0 27.333 13.667 41 41 41h133c15.333 0 26 -3.16699 32 -9.5s9 -16.833 9 -31.5v-123c0 -24.667 -6.66699 -48.667 -20 -72l-113 -194h-82l95 215h-54c-14.667 0 -25.167 3 -31.5 9s-9.5 16.667 -9.5 32v133zM481 164c0 27.333 13.667 41 41 41h133
c15.333 0 26 -3.16699 32 -9.5s9 -16.833 9 -31.5v-123c0 -24.667 -6.66699 -48.667 -20 -72l-113 -194h-82l94 215h-53c-14.667 0 -25.167 3 -31.5 9s-9.5 16.667 -9.5 32v133z" />
    <glyph glyph-name="dagger" unicode="&#x2020;" horiz-adv-x="1085" 
d="M82 840v102c0 13.333 6.66699 20.333 20 21h349v450c0 13.333 6.66699 20.333 20 21h143c13.333 0 20.333 -7 21 -21v-450h348c13.333 0 20.333 -7 21 -21v-102c0 -13.333 -7 -20.333 -21 -21h-348v-1138c0 -13.333 -7 -20.333 -21 -21h-143c-13.333 0 -20 7 -20 21v1138
h-349c-13.333 0.666992 -20 7.66699 -20 21z" />
    <glyph glyph-name="daggerdbl" unicode="&#x2021;" horiz-adv-x="1085" 
d="M82 90v103c0 13.333 6.66699 20 20 20h349v668h-349c-13.333 0 -20 6.66699 -20 20v103c0 13.333 6.66699 20 20 20h349v389c0 13.333 6.66699 20.333 20 21h143c13.333 0 20.333 -7 21 -21v-389h348c13.333 0 20.333 -6.66699 21 -20v-103c0 -13.333 -7 -20 -21 -20
h-348v-668h348c13.333 0 20.333 -6.66699 21 -20v-103c0 -13.333 -7 -20 -21 -20h-348v-389c0 -13.333 -7 -20.333 -21 -21h-143c-13.333 0 -20 7 -20 21v389h-349c-13.333 0 -20 6.66699 -20 20z" />
    <glyph glyph-name="bullet" unicode="&#x2022;" horiz-adv-x="901" 
d="M205 716.5c0 67 24.167 124.833 72.5 173.5s106 73 173 73s124.667 -24.333 173 -73s72.5 -106.5 72.5 -173.5s-24.167 -124.667 -72.5 -173s-106 -72.5 -173 -72.5s-124.667 24.167 -173 72.5s-72.5 106 -72.5 173z" />
    <glyph glyph-name="ellipsis" unicode="&#x2026;" horiz-adv-x="1362" 
d="M143 164c0 27.333 13.667 41 41 41h133c15.333 0 26 -3.16699 32 -9.5s9 -16.833 9 -31.5v-133c0 -15.333 -3 -26 -9 -32s-16.667 -9 -32 -9h-133c-14.667 0 -25.167 3 -31.5 9s-9.5 16.667 -9.5 32v133zM748 205c26.667 0 40 -13.667 40 -41v-133
c0 -15.333 -3 -26 -9 -32s-16.333 -9 -31 -9h-134c-14.667 0 -25.167 3 -31.5 9s-9.5 16.667 -9.5 32v133c0 27.333 13.667 41 41 41h134zM1178 205c27.333 0 41 -13.667 41 -41v-133c0 -15.333 -3.16699 -26 -9.5 -32s-16.833 -9 -31.5 -9h-134c-14.667 0 -25 3 -31 9
s-9 16.667 -9 32v133c0 27.333 13.333 41 40 41h134z" />
    <glyph glyph-name="perthousand" unicode="&#x2030;" horiz-adv-x="2611" 
d="M82 1085.5c0 117.667 32.833 210.167 98.5 277.5s152.334 101 260.001 101s194.334 -33.667 260.001 -101s98.5 -159.833 98.5 -277.5s-32.833 -210.167 -98.5 -277.5s-152.334 -101 -260.001 -101s-194.334 33.667 -260.001 101s-98.5 159.833 -98.5 277.5zM246 1085
c0 -84.667 17.667 -148.5 53 -191.5s82.333 -64.5 141 -64.5s105.834 21.5 141.501 64.5s53.5 106.833 53.5 191.5s-17.833 148.5 -53.5 191.5s-82.834 64.5 -141.501 64.5s-105.667 -21.5 -141 -64.5s-53 -106.833 -53 -191.5zM471 20l707 1393
c6.66699 13.333 16.667 20.333 30 21h144c13.333 0 16.666 -7 9.99902 -21l-707 -1393c-6.66699 -13.333 -16.667 -20 -30 -20h-144c-13.333 0 -16.666 6.66699 -9.99902 20zM1014 348c0 117.333 32.667 209.833 98 277.5s152 101.5 260 101.5s194.833 -33.833 260.5 -101.5
s98.5 -160.167 98.5 -277.5s-32.833 -209.833 -98.5 -277.5s-152.5 -101.5 -260.5 -101.5s-194.667 33.833 -260 101.5s-98 160.167 -98 277.5zM1178 348c0 -84.667 17.667 -148.5 53 -191.5s82.333 -64.5 141 -64.5s105.834 21.5 141.501 64.5s53.5 106.833 53.5 191.5
s-17.833 148.5 -53.5 191.5s-82.834 64.5 -141.501 64.5s-105.667 -21.5 -141 -64.5s-53 -106.833 -53 -191.5zM1812 348c0 117.333 32.833 209.833 98.5 277.5s152.5 101.5 260.5 101.5s194.667 -33.833 260 -101.5s98 -160.167 98 -277.5s-32.667 -209.833 -98 -277.5
s-152 -101.5 -260 -101.5s-194.833 33.833 -260.5 101.5s-98.5 160.167 -98.5 277.5zM1976 348c0 -84.667 17.833 -148.5 53.5 -191.5s82.834 -64.5 141.5 -64.5c58.667 0 105.667 21.5 141 64.5s53 106.833 53 191.5s-17.667 148.5 -53 191.5s-82.333 64.5 -141 64.5
s-105.834 -21.5 -141.5 -64.5c-35.667 -43 -53.5 -106.833 -53.5 -191.5z" />
    <glyph glyph-name="guilsinglleft" unicode="&#x2039;" horiz-adv-x="840" 
d="M41 502v60.999c0 38.667 20.333 69.334 61 92.001l615 359c13.333 9.33301 20 6 20 -10v-144c0 -10.667 -6.66699 -21 -20 -31l-514 -297l514 -296c13.333 -10 20 -20.333 20 -31v-144c0 -16 -6.66699 -19.333 -20 -10l-615 359c-40.667 24 -61 54.667 -61 92z" />
    <glyph glyph-name="guilsinglright" unicode="&#x203a;" horiz-adv-x="840" 
d="M102 61v144.001c0 10.667 7 21 21 31l514 296l-514 297c-14 10 -21 20.333 -21 31v144c0 16 7 19.333 21 10l614 -359c41.333 -22.667 62 -53.334 62 -92.001v-61c0 -37.333 -20.667 -68 -62 -92l-614 -359c-14 -9.33301 -21 -6 -21 10z" />
    <glyph glyph-name="Euro" unicode="&#x20ac;" horiz-adv-x="1591" 
d="M412 717l2 -72h579c18 0 25 -6.66699 21 -20l-21 -82c-4 -13.333 -13.333 -20.333 -28 -21h-535c28.667 -135.333 85.667 -237.333 171 -306s186 -103 302 -103c218.667 0 355.334 92 410.001 276c4 13.333 12 20.333 24 21h129c16.667 0 23.667 -8.33301 21 -25
c-26 -132.667 -89.167 -235.167 -189.5 -307.5s-233.833 -108.5 -400.5 -108.5s-309 48.167 -427 144.5s-193.333 232.5 -226 408.5h-181c-17.333 0.666992 -24 7.66699 -20 21l20 82c4 13.333 14.333 20 31 20h135c-1.33301 15.333 -2 39.333 -2 72
s0.666992 57.334 2 74.001h-125c-18 0 -24.667 6.66699 -20 20l20 82c4 13.333 14.333 20 31 20h109c32.667 174.667 107.667 310.167 225 406.5s258 144.5 422 144.5s296.167 -36.167 396.5 -108.5s163.5 -174.5 189.5 -306.5c2.66699 -16.667 -4.33301 -25 -21 -25h-129
c-12 0 -20 6.66699 -24 20c-54.667 184 -191.334 276.333 -410.001 277c-112 0 -210 -34.5 -294 -103.5s-140.333 -170.5 -169 -304.5h604c18 0 25 -6.66699 21 -20l-21 -82c-4 -13.333 -13.333 -20 -28 -20h-592c-1.33301 -16.667 -2 -41.334 -2 -74.001z" />
    <glyph glyph-name="trademark" unicode="&#x2122;" horiz-adv-x="1800" 
d="M41 1331v82c0 13.333 6.66699 20.333 20 21h652c13.333 0 20 -7 20 -21v-82c0 -13.333 -6.66699 -20 -20 -20h-254v-574c0 -13.333 -7 -20 -21 -20h-123c-13.333 0 -20 6.66699 -20 20v574h-234c-13.333 0 -20 6.66699 -20 20zM817 737v676.001c0 13.333 7 20.333 21 21
h92c35.333 0 61.333 -17.333 78 -52l239 -419l240 419c16.667 34 42.667 51.333 78 52h92c13.333 0 20 -7 20 -21v-676c0 -13.333 -6.66699 -20 -20 -20h-123c-13.333 0 -20.333 6.66699 -21 20v420l-174 -307l-18 -28c-10 -15.333 -26.333 -23 -49 -23h-49
c-16.667 0 -29.5 3.66699 -38.5 11s-18.833 20.666 -29.5 39.999l-174 307v-420c0 -13.333 -6.66699 -20 -20 -20h-123c-14 0 -21 6.66699 -21 20z" />
    <glyph glyph-name="uniE000" unicode="&#xe000;" horiz-adv-x="1096" 
d="M0 1096h1096v-1096h-1096v1096z" />
    <glyph glyph-name=".null" horiz-adv-x="0" 
 />
    <glyph glyph-name="nonmarkingreturn" horiz-adv-x="682" 
 />
    <glyph glyph-name="at.alt" horiz-adv-x="2089" 
d="M386 -122c-175.333 164.667 -262.997 385.499 -262.997 662.499s86.667 500.167 260 669.5s393.833 254 661.5 254s488.167 -84.667 661.5 -254s260 -388.333 260 -657c0 -368.667 -112.667 -553 -338 -553c-134 0 -227.333 49 -280 147l-17 37
c-6 -12 -22.833 -31 -50.5 -57s-54.167 -47.167 -79.5 -63.5s-58.833 -31 -100.5 -44s-84.167 -19.5 -127.5 -19.5c-130 0 -230.833 29.667 -302.5 89s-107.5 138.166 -107.5 236.499s37.5 177.833 112.5 238.5s174.167 91 297.5 91h327v11
c0 91.333 -23.5 161.833 -70.5 211.5s-112.167 74.5 -195.5 74.5c-54.667 0 -103.5 -15.333 -146.5 -46s-72.5 -70 -88.5 -118c-4 -13.333 -12.333 -20 -25 -20h-129c-14.667 0 -21.334 6.66699 -20.001 20c9.33301 92 51.5 166.333 126.5 223s175.333 85 301 85
s229.167 -38.667 310.5 -116s122 -182 122 -314v-349c0 -116 47.667 -174 143 -174c116 0 174 136.667 174 410c0 234.667 -71.333 421.334 -214 560.001s-323.834 208 -543.501 208s-400.834 -69.333 -543.501 -208s-214 -330.167 -214 -574.5
s70.333 -432.666 211 -564.999s350 -198.5 628 -198.5h215c14 0 21 -7 21 -21v-102c0 -14 -7 -21 -21 -21h-215c-318 0 -564.667 82.333 -740 247zM748.003 327.999c0 -123.333 78.332 -185 234.999 -185c94.667 0 181.667 50.667 261 152c37.333 47.333 56 75.333 56 84
v133h-327c-67.333 0 -121.666 -16.667 -162.999 -50s-62 -78 -62 -134z" />
    <glyph glyph-name="copyright.alt" horiz-adv-x="2089" 
d="M382 -114c-172.667 170 -259 390.833 -259 662.5s86.667 492.167 260 661.5s393.833 254 661.5 254s488.167 -84.667 661.5 -254s260 -389.833 260 -661.5s-86.333 -492.5 -259 -662.5s-393.5 -255 -662.5 -255s-489.833 85 -662.5 255zM501 1113
c-142.667 -138.667 -213.998 -326.667 -213.998 -564s71 -425.666 213 -564.999s323.5 -209 544.5 -209s402.5 69.667 544.5 209s213 327.666 213 564.999s-71.333 425.333 -214 564s-323.834 208 -543.501 208s-400.834 -69.333 -543.501 -208zM676.502 146.5
c-96.333 97.667 -144.5 232.168 -144.5 403.501s48.167 305.166 144.5 401.499s213.166 144.5 350.499 144.5s246.666 -30.5 327.999 -91.5s135 -145.167 161 -252.5c4 -16.667 -3 -25 -21 -25h-129c-9.33301 0 -17.666 7 -24.999 21c-62.667 136 -161.667 204 -297 204
c-92.667 0 -170.334 -34.833 -233.001 -104.5s-94 -169 -94 -298s31.333 -229 94 -300s140.334 -106.5 233.001 -106.5c140.667 0 243.334 68.333 308.001 205c6.66699 14 14.667 21 24 21h129c18 0 25 -8.33301 21 -25c-26 -108 -80 -192.333 -162 -253s-193 -91 -333 -91
s-258.167 48.833 -354.5 146.5z" />
    <glyph glyph-name="registered.alt" horiz-adv-x="2089" 
d="M382 -114c-172.667 170 -259 390.833 -259 662.5s86.667 492.167 260 661.5s393.833 254 661.5 254s488.167 -84.667 661.5 -254s260 -389.833 260 -661.5s-86.333 -492.5 -259 -662.5s-393.5 -255 -662.5 -255s-489.833 85 -662.5 255zM501 1113
c-142.667 -138.667 -213.998 -326.667 -213.998 -564s71 -425.666 213 -564.999s323.5 -209 544.5 -209s402.5 69.667 544.5 209s213 327.666 213 564.999s-71.333 425.333 -214 564s-323.834 208 -543.501 208s-400.834 -69.333 -543.501 -208zM604.002 41v1014
c0 13.333 7 20 21 20h430c143.333 0 252.5 -27.667 327.5 -83s112.5 -136.666 112.5 -243.999c0 -76.667 -28.333 -139.334 -85 -188.001s-134 -78.334 -232 -89.001c32.667 -9.33301 61.667 -23.333 87 -42s44 -35.834 56 -51.501s29 -39.167 51 -70.5l184 -262
c11.333 -16.667 6 -25 -16 -25h-168c-9.33301 0 -20.333 8.33301 -33 25l-184 262c-52 75.333 -116 113 -192 113h-175v-379c0 -14 -6.66699 -21 -20 -21h-143c-14 0 -21 7 -21 21zM788.002 563.002h267c80.667 0 143.5 16.5 188.5 49.5s67.5 78.167 67.5 135.5
s-22.5 102.333 -67.5 135s-107.833 49 -188.5 49h-267v-369z" />
    <glyph glyph-name="foundryicon" horiz-adv-x="4925" 
d="M102 0v655l656 -655h-656zM399 778l656 656v-656h-656zM758 0v328l655 -328h-655zM758 328v327h655zM1106 1106c0 96.667 33.833 178.834 101.5 246.501s149.834 101.5 246.501 101.5s178.834 -33.833 246.501 -101.5s101.5 -149.834 101.5 -246.501
s-33.833 -178.834 -101.5 -246.501s-149.834 -101.5 -246.501 -101.5s-178.834 33.833 -246.501 101.5s-101.5 149.834 -101.5 246.501zM1434 0v655l327 -655h-327zM1741 1434h655l-328 -656zM1761 0l328 655v-655h-328zM2140 327.5c0 97 33.833 179.333 101.5 247
s150 101.5 247 101.5s179.167 -33.833 246.5 -101.5s101 -150 101 -247s-33.667 -179.167 -101 -246.5s-149.5 -101 -246.5 -101s-179.333 33.667 -247 101s-101.5 149.5 -101.5 246.5zM2161 778l327 656l328 -656h-655zM2836 778v604l584 -604h-584zM2888 0v604l583 -604
h-583zM2888 1434h583v-605zM2939 655h584v-604zM3543 0l328 655l327 -655h-655zM3553 778v604l584 -604h-584zM3604 1434h584v-605zM4209 1434h655l-328 -656zM4219 -20v696c96.666 0 178.833 -33.833 246.5 -101.5c67.666 -67.667 101.5 -150 101.5 -247
s-33.834 -179.167 -101.5 -246.5s-149.833 -101 -246.5 -101z" />
    </font>
</defs>
</svg>
